#VERSION:0.83;
#TITLE:Fxxk Boyz Get Money;
#SUBTITLE:;
#ARTIST:FAR EAST MENTION MANNEQUINS;
#TITLETRANSLIT:;
#SUBTITLETRANSLIT:;
#ARTISTTRANSLIT:;
#GENRE:HIP HOP;
#ORIGIN:;
#CREDIT:;
#BANNER:Fxxk Boyz Get Money.png;
#BACKGROUND:Fxxk Boyz Get Money-bg.png;
#PREVIEWVID:;
#JACKET:Fxxk Boyz Get Money-jacket.png;
#CDIMAGE:;
#DISCIMAGE:;
#LYRICSPATH:;
#CDTITLE:cdtitle.png;
#MUSIC:Fxxk Boyz Get Money.ogg;
#OFFSET:0.000000;
#SAMPLESTART:32.628998;
#SAMPLELENGTH:18.765999;
#SELECTABLE:YES;
#BPMS:0.000=103.000;
#STOPS:;
#DELAYS:;
#WARPS:;
#TIMESIGNATURES:0.000=4=4;
#TICKCOUNTS:0.000=4;
#COMBOS:0.000=1;
#SPEEDS:0.000=1.000=0.000=0;
#SCROLLS:0.000=1.000;
#FAKES:;
#LABELS:0.000=Song Start;
#BGCHANGES:0.000=Fxxk Boyz Get Money.avi=1.000=0=0=0=StretchNoLoop==CrossFade_Fastest==,
99999=-nosongbg-=1.000=0=0=0 // don't automatically add -songbackground-
;
#KEYSOUNDS:;
#ATTACKS:
;

//---------------dance-single - ----------------
#NOTEDATA:;
#CHARTNAME:;
#STEPSTYPE:dance-single;
#DESCRIPTION:;
#CHARTSTYLE:;
#DIFFICULTY:Challenge;
#METER:13;
#RADARVALUES:0.587990,0.613906,0.171497,0.025725,0.728863,480.000000,460.000000,20.000000,3.000000,0.000000,0.000000,0.000000,0.000000,0.000000,0.587990,0.613906,0.171497,0.025725,0.728863,480.000000,460.000000,20.000000,3.000000,0.000000,0.000000,0.000000,0.000000,0.000000;
#CREDIT:;
#NOTES:
0000
0000
0000
0000
,
0000
0000
0000
0000
,
1000
0100
0000
1000
0001
1000
0001
0010
0000
0001
0100
0000
0110
0000
0000
0000
,
0001
0010
0000
0010
0100
0000
0100
1000
0000
1000
0010
0000
1001
0000
0000
0000
,
1000
0100
0000
0010
0000
0100
0000
1000
0010
0000
0100
0000
0001
0000
0010
0000
,
0001
0100
0000
0010
0000
0100
0000
0001
0010
0000
0100
0000
1000
0000
0010
0000
,
1000
0100
1000
0100
0010
0000
0001
0100
0001
0100
0001
0100
0010
0000
1000
0010
,
1000
0100
0010
0000
0001
0000
0010
0100
0010
0100
0010
0001
1000
0000
0001
0100
,
0000
0000
0001
0000
1000
0010
0000
0000
0000
0000
1000
0000
0001
0010
0000
0000
,
0000
0000
0001
0000
1000
0100
0000
0000
0000
0000
1000
0000
0001
0100
0000
0000
,
0010
1000
0000
0001
1000
0000
0010
0100
0010
0000
0100
0000
0001
0000
0010
0000
,
0001
0100
0000
0001
1000
0001
1000
0010
1000
0100
1000
0100
0010
0000
0001
0000
,
0100
0010
0000
0100
0010
0000
1000
0010
1000
0000
0001
0010
0001
0000
0100
0000
,
0000
0010
1000
0010
1000
0100
1000
0100
0010
0001
0200
0000
0302
0000
0013
0000
,
0001
0100
0000
0001
0100
0000
1001
0000
1000
0000
0100
0000
0010
0001
0000
0000
,
0010
0100
0000
0010
0100
0000
1001
0000
0001
0000
0100
0000
0010
1000
0000
0000
,
0001
0010
0000
0001
0010
0000
1001
0000
1000
0000
0010
0000
0100
0001
0000
0000
,
0001
0010
0000
0000
0010
0100
0000
0000
0100
1000
0000
0000
1000
0001
0000
0000
,
1100
0000
0000
1000
0001
0000
0010
0001
0010
0001
0000
1000
0010
0000
0100
0010
,
0100
0000
0000
0001
0010
0000
0001
1000
0001
1000
0000
0100
1000
0000
0010
0100
,
0010
0000
0000
1000
0001
0000
0010
0000
0001
0100
0000
0100
0010
0000
1000
0001
,
1000
0000
0000
0000
0000
0000
1000
0000
0000
0000
0000
0000
0010
0000
0000
0000
0000
0000
1000
0000
0000
0001
0000
0000
1000
0000
0000
0000
0100
0000
0000
0000
0010
0000
0000
0000
0001
0000
0000
0000
0000
0000
0000
0000
0000
0000
0000
0000
,
1000
0000
0000
0010
1000
0000
0010
0000
0000
0000
1000
0000
0001
0000
0000
0000
,
0010
0000
0000
0001
0010
0000
0001
0000
0000
0000
1000
0000
0001
0000
0000
0000
,
1000
0000
1000
0000
1000
0000
1000
0001
0000
0100
0001
0100
0001
0000
0000
0000
,
0010
0100
0000
0010
0100
0010
0001
1000
0001
1000
0100
0000
1000
0000
0000
0000
,
0001
0010
0000
0100
0000
0010
0000
0001
0100
0000
0010
0000
1000
0000
0001
0000
,
1000
0010
0000
0100
0000
0010
0000
1000
0100
0000
0010
0000
0001
0000
1000
0000
,
0001
0100
0001
0100
0010
1000
0010
1000
0001
0010
0001
0010
0100
0000
1000
0000
,
0001
1000
0001
1000
0100
0010
0100
0010
0001
0100
0001
0100
0010
0000
1000
0000
,
0001
0000
0000
0001
0100
0000
0010
0000
0000
0000
1000
0000
0100
0010
0000
0000
,
0000
0000
0100
0000
1000
0010
0000
0000
0000
0000
0100
0000
0001
0010
0000
0000
,
0001
0100
0000
0001
0100
0000
0001
1000
0001
0000
1000
0000
0100
0000
0010
0000
,
0100
1000
0000
0100
1000
0001
1000
0001
0100
0010
0100
0010
0100
0000
0001
0000
,
1000
0010
0000
1000
0010
0000
1000
0100
1000
0000
0001
0100
0001
0000
0010
0000
,
0000
0000
0000
0001
0000
0000
0100
0000
0000
0001
0000
0000
0100
0000
0000
0010
0000
0000
0100
0000
0000
0010
0000
0000
1000
0000
0000
0000
1000
0000
0000
0000
1000
0000
0000
0000
0001
0000
0000
0000
0001
0000
0000
0000
0001
0000
0000
0000
,
1000
0000
0000
0000
0100
0000
0000
0000
0010
0000
0000
0000
0001
0000
0000
0000
0100
0000
0000
0000
0010
0000
0000
0000
1000
0000
0000
0001
0000
0000
0000
0000
0000
1000
0000
0000
0001
0000
0000
0000
0000
0000
0110
0000
0000
0000
0000
0000
,
0001
0000
0010
0000
0100
1000
0000
0000
0001
0100
0000
0001
0100
0000
0110
0000
,
1000
0000
0010
0000
0100
0001
0000
0000
1000
0100
0000
1000
0100
0000
1001
0000
,
0001
0000
0100
0000
0010
1000
0000
0000
1000
0100
0000
0000
0100
0010
0000
0000
,
0010
0001
0000
0000
0001
0100
0000
0000
0001
0000
1001
0000
1000
0000
0100
0000
,
0010
0011
0001
0100
0010
0110
0010
1000
,
0100
0000
1000
0000
0001
1000
0000
0000
0001
0000
0011
0000
0010
0000
0100
0000
,
1000
1010
0010
0100
0001
1001
1000
0100
,
0010
0000
0001
0000
1000
0010
0000
0000
1001
0000
0001
0000
1000
0000
1000
0000
,
0110
0010
0100
0100
0011
0001
0010
0010
,
0001
0000
0100
0000
0010
1000
0000
1000
0000
0100
0000
1000
0001
0000
0011
0000
,
1000
0000
1000
0000
0001
0000
0001
0000
1000
0100
1000
0100
0010
0001
0010
0001
,
1000
0000
0000
0000
0010
0000
0000
0000
0100
0000
0000
0000
0002
0000
0000
0000
0000
0000
0000
0000
0000
0000
0000
0000
1003
0000
0000
0010
0000
0000
1000
0000
0000
0010
0000
0000
1000
0000
0000
0100
0000
0000
0010
0000
0000
0001
0000
0000
,
0100
0010
1000
0001
1000
0000
1001
0000
0000
0000
0000
0000
0000
0000
0000
0000
;

//---------------dance-single - ----------------
#NOTEDATA:;
#CHARTNAME:;
#STEPSTYPE:dance-single;
#DESCRIPTION:;
#CHARTSTYLE:;
#DIFFICULTY:Hard;
#METER:10;
#RADARVALUES:0.428743,0.444553,0.180072,0.051449,0.291545,350.000000,329.000000,21.000000,6.000000,0.000000,0.000000,0.000000,0.000000,0.000000,0.428743,0.444553,0.180072,0.051449,0.291545,350.000000,329.000000,21.000000,6.000000,0.000000,0.000000,0.000000,0.000000,0.000000;
#CREDIT:;
#NOTES:
// measure 0
0000
0000
0000
0000
,  // measure 1
0000
0000
0000
0000
,  // measure 2
1000
0000
0000
1000
0001
0000
0100
0000
0001
0000
0010
0000
0001
0000
0000
0000
,  // measure 3
0010
0000
0000
0010
0100
0000
1000
0001
0000
1000
0001
0000
0100
0000
0000
0000
,  // measure 4
0001
0100
0000
0001
0000
0100
0000
0010
1000
0000
0100
0000
0010
0000
0001
0000
,  // measure 5
1000
0100
0000
1000
0000
0100
0000
0010
0001
0000
0100
0000
0010
0000
1000
0000
,  // measure 6
0001
0100
1000
0100
0001
0010
0001
0100
,  // measure 7
0001
0010
1000
0010
0001
0100
0001
0010
,  // measure 8
0000
0000
0001
0000
1000
0001
0000
0000
0000
0000
1000
0000
0001
1000
0000
0000
,  // measure 9
0000
0000
0100
0000
0010
0100
0000
0000
0000
0000
0010
0000
0100
0010
0000
0000
,  // measure 10
0001
0000
0000
0001
1000
0000
0010
0000
0000
0000
1000
0000
0001
0000
0000
0000
,  // measure 11
0100
0000
0000
0100
0001
0000
0010
0000
0000
0000
0100
0000
1000
0000
0000
0000
,  // measure 12
0001
0000
0000
0001
1000
0000
0010
0000
0000
0000
1000
0000
0100
0000
0010
0000
,  // measure 13
0002
0000
0000
0000
,  // measure 14
1003
0000
0000
1000
0010
0000
0100
0000
0001
0000
0010
0000
0100
1000
0000
0000
,  // measure 15
0001
0000
0000
0001
0010
0000
0100
0000
1000
0000
0010
0000
0100
0001
0000
0000
,  // measure 16
0010
0000
0000
0010
0100
0000
1000
0000
0001
0000
0100
0000
0010
0100
0000
0000
,  // measure 17
0011
1100
1010
0101
,  // measure 18
1000
0000
0000
1000
0010
0000
0100
0000
0001
0000
0010
0000
0100
0010
0000
0000
,  // measure 19
0001
0000
0000
0001
0100
0000
0010
0000
1000
0000
0100
0000
0010
0001
0000
0000
,  // measure 20
1000
0000
0000
1000
0010
0000
0100
0000
0001
0010
0000
0010
0100
0000
1000
0000
,  // measure 21
1000
0000
0000
0000
0000
0000
1000
0000
0000
0000
0000
0000
0010
0000
0000
0000
0000
0000
1000
0000
0000
0001
0000
0000
1000
0000
0000
0000
0001
0000
0000
0000
1000
0000
0000
0000
0002
0000
0000
0000
0000
0000
0000
0000
0000
0000
0000
0000
,  // measure 22
0203
0000
0000
0300
,  // measure 23
0020
0000
0000
0030
,  // measure 24
1000
1000
1000
0001
0100
0001
0010
0000
,  // measure 25
0001
0000
0100
0000
0001
0000
1000
0010
0000
1000
0010
0000
0100
0000
0000
0000
,  // measure 26
0001
0100
0000
0010
0000
1000
0000
0100
1000
0000
0001
0000
1000
0000
0010
0000
,  // measure 27
1000
0001
0000
0100
0000
0001
0000
0010
0001
0000
0100
0000
0010
0000
1000
0000
,  // measure 28
0001
0010
0100
0010
1000
0010
0100
0010
,  // measure 29
0001
0100
0010
0100
1000
0100
0010
0100
,  // measure 30
0000
0000
0001
0000
1000
0000
0000
0000
0000
0000
0001
0000
1000
0001
0000
0000
,  // measure 31
0000
0000
0010
0000
0100
0010
0000
0000
0000
0000
0100
0000
0010
0100
0000
0000
,  // measure 32
1000
0000
0000
1000
0010
0000
0100
0000
0000
0000
0001
0000
1000
0000
0000
0000
,  // measure 33
0001
0000
0000
0001
0010
0000
0100
0000
0000
0000
1000
0000
0001
0000
0000
0000
,  // measure 34
0100
0000
0000
0100
0010
0000
1000
0000
0000
0000
0001
0000
0010
0000
0000
0000
,  // measure 35
0001
0000
0000
0001
1000
0000
0100
0000
0020
0000
0000
0000
0000
0000
0000
0000
,  // measure 36
0031
0000
0000
0000
0100
0000
0000
0000
0001
0000
0000
0000
1000
0000
0000
0000
0010
0000
0000
0000
1000
0000
0000
0000
0100
0000
0000
0000
0000
0000
0000
0000
0000
0100
0000
0000
1000
0000
0000
0000
0000
0000
0010
0000
0000
0000
0000
0000
,  // measure 37
0100
0000
0001
0000
0010
0001
0000
0000
1000
0000
0000
1000
0010
0000
0100
0000
,  // measure 38
0001
0000
0010
0000
0100
1000
0000
0000
0010
0000
0000
0010
0100
0000
0001
0000
,  // measure 39
0010
0000
0001
0000
1000
0100
0000
0000
1010
0000
0000
0000
1100
0000
0000
0000
,  // measure 40
0101
0000
0011
0000
1000
1001
0000
1001
,  // measure 41
0001
0101
0000
0101
1000
1100
0000
1100
,  // measure 42
1000
0000
0010
0000
0100
0001
0000
0000
1000
0000
1001
0000
0000
0000
1001
0000
,  // measure 43
0001
0011
0000
0011
1000
1010
0000
1010
,  // measure 44
1000
0000
0100
0000
0010
0001
0000
0000
1000
0000
1000
0000
1000
0000
1000
0000
,  // measure 45
0001
0001
0001
0001
0100
0100
0100
0100
,  // measure 46
0010
0000
1000
0000
0001
1000
0000
0000
0010
0000
0010
0000
0100
0000
0100
0000
,  // measure 47
0001
0000
0001
0000
1000
0000
1000
0000
0100
0000
0100
0000
0010
0000
0001
1000
,  // measure 48
0001
0000
1000
0000
0001
0000
2000
0000
0000
0000
0000
0000
3001
0000
0000
0010
0000
0000
1000
0000
0000
0010
0000
0000
,  // measure 49
0001
0100
0010
1001
0000
0000
0000
0000
;

//---------------dance-single - ----------------
#NOTEDATA:;
#CHARTNAME:;
#STEPSTYPE:dance-single;
#DESCRIPTION:;
#CHARTSTYLE:;
#DIFFICULTY:Medium;
#METER:7;
#RADARVALUES:0.301345,0.338707,0.111473,0.042874,0.137198,246.000000,233.000000,13.000000,5.000000,0.000000,0.000000,0.000000,0.000000,0.000000,0.301345,0.338707,0.111473,0.042874,0.137198,246.000000,233.000000,13.000000,5.000000,0.000000,0.000000,0.000000,0.000000,0.000000;
#CREDIT:;
#NOTES:
0000
0000
0000
0000
,
0000
0000
0000
0000
,
1000
0000
0001
0100
0000
0100
0010
0000
,
1000
0000
0100
0010
0000
0010
0001
0000
,
0100
0000
0010
1000
0000
1000
0001
0000
,
1000
0000
0001
0010
0000
0010
0100
0000
,
1000
0010
1000
0100
1000
0001
1000
0000
,
0001
0010
0001
0100
0001
1000
0001
0000
,
1000
0100
1000
0000
0001
0100
0001
0000
,
1000
0010
1000
0000
0001
0010
0001
0000
,
1000
0000
0000
1000
0000
0000
1000
0000
0000
0000
0001
0000
0100
0000
0000
0000
,
0001
0000
0000
0001
0000
0000
0001
0000
0000
0000
1000
0000
0100
0000
0000
0000
,
1000
0000
0000
1000
0000
0000
1000
0000
0000
0000
0001
0000
0010
0000
0000
0000
,
0002
0000
0000
0000
,
1003
0000
0000
0100
0000
0000
0010
0000
0001
0000
0000
0100
0000
0000
0010
0000
,
1000
0000
0000
0001
0000
0000
0010
0000
0100
0000
0000
1000
0000
0000
0010
0000
,
0100
0000
0000
0001
0000
0000
0010
0000
0001
0000
0000
1000
0000
0000
0010
0000
,
0100
0110
1001
0110
,
1000
0000
0000
1000
0000
0000
0000
0000
0001
0000
0000
0001
0000
0000
0000
0000
,
0100
0000
0000
0100
0000
0000
0000
0000
0010
0000
0000
0010
0000
0000
0000
0000
,
1000
0000
0000
1000
0000
0000
0000
0000
0100
0000
0000
0100
0000
0000
0000
0000
,
0010
0000
0000
0010
0000
0000
0000
0000
0001
0000
1000
0000
0001
0000
0000
0000
,
2000
0000
0000
3000
,
0002
0000
0000
0003
,
1000
0000
0100
0010
0000
0010
0001
0000
,
0100
0000
0001
1000
0000
1000
0100
0000
,
1000
0000
0010
0100
0000
0100
0001
0000
,
0010
0000
0100
1000
0000
1000
0001
0000
,
1000
0100
1000
0010
1000
0001
1000
0000
,
0001
0100
0001
0010
0001
1000
0001
0000
,
1000
0000
0001
0100
0000
0100
0010
0000
,
1000
0000
0100
0000
0010
0001
1000
0000
,
0001
0000
0000
0001
0000
0000
0001
0000
0000
0000
1000
0000
0010
0000
0000
0000
,
1000
0000
0000
1000
0000
0000
1000
0000
0000
0000
0001
0000
0010
0000
0000
0000
,
0001
0000
0000
0001
0000
0000
0001
0000
0000
0000
1000
0000
0100
0000
0000
0000
,
1000
0000
0000
1000
0000
0000
1000
0000
0002
0000
0000
0000
0000
0000
0000
0000
,
0103
0000
0000
0000
0110
0000
0000
0000
0001
0000
0000
0100
0000
0000
0010
0000
,
1000
0000
0000
0100
0000
0000
0010
0000
0001
0000
0000
1000
0000
0000
0010
0000
,
0100
0000
0000
0001
0000
0000
0010
0000
0100
0000
0000
1000
0000
0000
0010
0000
,
1000
0000
0000
0001
0000
0000
0010
0000
0001
0000
0000
0000
1001
0000
0000
0000
,
0110
0000
0000
0000
1001
0000
0000
0000
1000
0000
0000
1000
0000
0000
0000
0000
,
0010
0000
0000
0010
0000
0000
0000
0000
0100
0000
0000
0100
0000
0000
0000
0000
,
1001
0000
0000
0000
1001
0000
0000
0000
0001
0000
0000
0001
0000
0000
0000
0000
,
0010
0000
0000
0010
0000
0000
0000
0000
0100
0000
0000
0100
0000
0000
0000
0000
,
1001
0000
1001
0000
1000
0100
1000
0000
,
0001
0100
0001
0000
1000
0010
1000
0000
,
1001
0000
1001
0000
1000
0100
1000
0010
,
1000
0001
1000
0000
0001
0100
0001
0010
,
0001
1000
0001
0000
0200
0000
0000
0000
,
0000
0000
0000
0310
0000
0000
0000
0000
;

//---------------dance-single - ----------------
#NOTEDATA:;
#CHARTNAME:;
#STEPSTYPE:dance-single;
#DESCRIPTION:;
#CHARTSTYLE:;
#DIFFICULTY:Easy;
#METER:5;
#RADARVALUES:0.249896,0.254030,0.060024,0.051449,0.000000,204.000000,197.000000,7.000000,6.000000,0.000000,0.000000,0.000000,0.000000,0.000000,0.249896,0.254030,0.060024,0.051449,0.000000,204.000000,197.000000,7.000000,6.000000,0.000000,0.000000,0.000000,0.000000,0.000000;
#CREDIT:;
#NOTES:
0000
0000
0000
0000
,
0000
0000
0000
0000
,
1000
0010
1000
0100
,
1000
0001
0100
0010
,
1000
0100
0010
0001
,
0100
0001
0010
0001
,
1000
0000
1000
0100
0000
0100
0010
0000
,
0001
0000
0001
0100
0000
0100
0010
0000
,
1000
0000
1000
0010
0000
0010
0100
0000
,
0001
0000
0001
0010
0000
0010
0100
0000
,
1000
0010
1000
0010
,
0100
0001
0100
0001
,
1000
0100
1000
0100
,
0020
0000
0000
0000
,
0031
0000
0100
0000
0001
1000
0001
0000
,
1000
0000
0100
0000
1000
0001
1000
0000
,
0001
0000
0010
0000
0001
1000
0001
0000
,
1000
1010
0001
0011
,
1000
0000
0010
0000
1000
0001
1000
0000
,
0001
0000
0010
0000
0001
1000
0001
0000
,
1000
0000
0100
0000
1000
0001
1000
0000
,
0001
0000
0100
0000
0001
1000
0001
0000
,
2000
0000
0000
3000
,
0002
0000
0000
0003
,
1000
0010
1000
0100
,
1000
0010
0100
0001
,
0010
0100
1000
0001
,
0010
0001
0100
0001
,
1000
0000
1000
0010
0000
0010
0100
0000
,
0001
0000
0001
0010
0000
0010
0100
0000
,
1000
0000
1000
0100
0000
0100
0010
0000
,
0001
0001
1000
1000
,
0001
0010
0001
0010
,
0100
1000
0100
1000
,
0001
0100
0001
0100
,
0010
1000
0020
0000
,
0230
0000
0301
1000
,
0001
0010
0001
0000
1000
0000
0001
0000
,
1000
0010
1000
0000
0001
0000
1000
0000
,
0001
0100
0001
0000
1000
0000
1100
0000
,
0001
0000
0101
0000
1000
0100
0000
0100
,
0000
0010
0000
0010
0000
0001
0000
0001
,
1000
0000
1001
0000
0001
0100
0000
0100
,
0000
0010
0000
0010
0000
1000
0000
1000
,
0001
1001
1000
0100
,
0010
0001
0100
0010
,
1000
1001
0001
0001
,
0100
0100
0010
0010
,
1000
0001
1000
0000
0002
0000
0000
0000
,
0000
0000
0000
1003
0000
0000
0000
0000
;

//---------------dance-single - ----------------
#NOTEDATA:;
#CHARTNAME:;
#STEPSTYPE:dance-single;
#DESCRIPTION:;
#CHARTSTYLE:;
#DIFFICULTY:Beginner;
#METER:2;
#RADARVALUES:0.083299,0.105846,0.000000,0.008575,0.000000,68.000000,68.000000,0.000000,1.000000,0.000000,0.000000,0.000000,0.000000,0.000000,0.083299,0.105846,0.000000,0.008575,0.000000,68.000000,68.000000,0.000000,1.000000,0.000000,0.000000,0.000000,0.000000,0.000000;
#CREDIT:;
#NOTES:
0000
0000
0000
0000
,
0000
0000
0000
0000
,
1000
0000
0000
0000
,
0001
0000
0000
0000
,
1000
0000
0000
0000
,
0001
0000
0000
0000
,
0100
0000
0000
0000
,
0010
0000
0000
0000
,
0100
0000
0000
0000
,
0010
0000
0000
0000
,
1000
0000
0000
0000
,
0001
0000
0000
0000
,
1000
0000
0000
0000
,
0001
0000
0000
0000
,
1000
0000
1000
0000
,
0001
0000
0001
0000
,
0100
0000
0100
0000
,
0010
0000
0010
0000
,
1000
0000
1000
0000
,
0001
0000
0001
0000
,
0010
0000
0010
0000
,
0100
0000
0100
0000
,
1000
0000
0000
0000
,
0001
0000
0000
0000
,
1000
0000
0000
0000
,
0001
0000
0000
0000
,
1000
0000
0000
0000
,
0001
0000
0000
0000
,
0010
0000
0000
0000
,
0100
0000
0000
0000
,
0010
0000
0000
0000
,
0100
0000
0000
0000
,
1000
0000
0000
0000
,
0001
0000
0000
0000
,
1000
0000
0000
0000
,
0001
0000
0000
0000
,
1000
0000
0001
0000
,
0001
0000
1000
0000
,
1000
0000
0010
0000
,
0010
0000
0100
0000
,
0100
0000
0001
0000
,
0001
0000
1000
0000
,
1000
0000
0100
0000
,
0100
0000
0010
0000
,
0010
0000
0001
0000
,
0100
0000
0010
0000
,
1000
0000
0001
0000
,
0010
0000
0100
0000
,
1000
0000
0002
0000
,
0000
0000
0000
0003
0000
0000
0000
0000
;
