#VERSION:0.83;
#TITLE:En FIRE-G SOUL;
#SUBTITLE:;
#ARTIST:Yooh;
#TITLETRANSLIT:;
#SUBTITLETRANSLIT:;
#ARTISTTRANSLIT:;
#GENRE:HARD ENKA;
#ORIGIN:;
#CREDIT:;
#BANNER:En FIRE-G SOUL.png;
#BACKGROUND:En FIRE-G SOUL-bg.png;
#PREVIEWVID:;
#JACKET:En FIRE-G SOUL-jacket.png;
#CDIMAGE:;
#DISCIMAGE:;
#LYRICSPATH:;
#CDTITLE:cdtitle.png;
#MUSIC:En FIRE-G SOUL.ogg;
#OFFSET:-0.780000;
#SAMPLESTART:31.456188;
#SAMPLELENGTH:10.729996;
#SELECTABLE:YES;
#BPMS:0.000=180.000;
#STOPS:;
#DELAYS:;
#WARPS:;
#TIMESIGNATURES:0.000=4=4;
#TICKCOUNTS:0.000=4;
#COMBOS:0.000=1;
#SPEEDS:0.000=1.000=0.000=0;
#SCROLLS:0.000=1.000;
#FAKES:;
#LABELS:0.000=Song Start;
#BGCHANGES:;
#KEYSOUNDS:;
#ATTACKS:
;

//---------------dance-single - ----------------
#NOTEDATA:;
#CHARTNAME:;
#STEPSTYPE:dance-single;
#DESCRIPTION:;
#CHARTSTYLE:;
#DIFFICULTY:Challenge;
#METER:15;
#RADARVALUES:0.827994,0.950591,0.233274,0.071777,0.471034,646.000000,620.000000,26.000000,8.000000,0.000000,0.000000,0.000000,0.000000,0.000000,0.827994,0.950591,0.233274,0.071777,0.471034,646.000000,620.000000,26.000000,8.000000,0.000000,0.000000,0.000000,0.000000,0.000000;
#CREDIT:;
#NOTES:
0000
0000
0000
0000
,
0000
0000
1001
0110
,
1001
0000
0000
0000
,
1010
0000
0000
0000
0101
0000
0001
1000
,
0001
0000
1000
0010
1000
0000
0001
0000
0020
0000
0000
0000
0130
0000
0000
0000
,
1000
0000
0010
0100
0010
0000
1000
0000
0200
0000
0000
0000
0310
0000
0000
0000
,
0001
0100
0001
0100
0001
0000
0010
0000
0100
0000
1000
0001
1000
0000
0010
0000
,
0100
0000
0100
0001
0000
0010
0100
1000
,
0010
0000
0010
1000
0000
0100
0010
0001
,
1000
0000
1000
0010
0000
0100
0001
0010
,
0100
0000
0100
0010
0000
0001
1000
0010
,
0100
0000
0100
0010
0000
0100
0001
0010
,
0001
0000
0001
1000
0000
0001
0010
0001
,
1000
0000
1000
0100
0000
0100
0010
0000
,
0001
0000
0100
0000
0001
0000
0010
0000
0001
1000
0000
1000
0010
0000
0100
0001
,
0100
0000
0010
1000
0000
1000
0001
0010
,
0100
0000
0010
0001
0000
0001
0100
0010
,
1000
0000
0100
0010
0000
0010
0100
1000
,
0010
0000
0100
0001
0000
0001
1000
0100
,
1000
0000
0010
0100
0000
0100
0001
0010
,
0001
0000
1000
0010
0000
0010
0100
0001
,
0010
0000
0000
0100
0000
0000
1000
0000
0000
0010
1000
0010
1000
0100
1000
0100
,
0010
0001
0000
0001
0100
0000
0001
1000
0001
0000
0000
0000
0110
0000
0000
0000
,
1000
0000
0001
0010
0001
0000
1000
0000
0020
0000
0000
0000
0130
0000
0000
0000
,
0001
0000
0010
0100
0010
0000
0001
0000
2000
0000
0000
0000
3001
0000
0000
0000
,
1000
0010
0100
0010
1000
0000
0001
0000
0020
0000
0000
0000
0031
0000
0000
0000
,
0100
0000
0010
1000
0010
0000
0100
0000
,
0001
0000
1000
0010
1000
0000
0001
0000
0010
0000
0100
0000
1000
0000
0010
0000
,
1000
0001
0100
0001
1000
0000
0010
0000
0200
0000
0000
0000
0301
0000
1000
0000
,
1001
0000
0000
1000
0010
1000
0010
0000
0000
0100
0001
0100
,
0001
0010
0001
1000
0010
1000
0001
0100
0010
1000
0000
0000
,
0110
0000
0000
0000
0000
0000
1000
0010
1000
0000
0000
0000
0001
0000
0000
0000
,
0011
0000
0010
0100
1000
0000
0010
0000
,
0110
0100
0001
1000
1010
0000
0010
0000
,
1001
0000
0000
0000
1100
0000
0000
0000
0101
0000
0000
0000
0011
0000
1000
0001
,
1000
0000
0001
0100
0001
0000
1000
0000
0100
0000
0010
0000
0100
0000
1000
0000
,
0001
0000
0100
0010
0100
0000
0010
0000
1000
0000
0001
0000
0010
0000
0100
0000
,
0110
0000
0000
0000
0000
0000
1000
0001
1000
0000
0000
0000
0002
0000
0000
0000
,
0203
0000
0000
0000
0000
0000
0310
0000
1000
0001
1000
0001
1000
0000
0000
0000
,
0001
0000
1000
0010
1000
0000
0001
0000
1000
0000
0001
0010
0001
0000
1000
0000
,
0001
0000
1000
0100
1000
0000
0001
0000
1000
0000
0001
0100
0001
0000
0000
0000
,
1000
0000
0100
0010
0100
0000
1000
0000
0001
0000
0100
0010
0100
0000
0001
0000
,
1000
0000
0010
0100
0010
0000
1000
0000
0001
0010
0100
0010
0001
0000
1000
0000
,
0010
0000
1000
0001
1000
0000
0001
0000
0010
0000
0001
1000
0001
0000
1000
0000
,
0100
0000
1000
0001
1000
0000
0001
0000
0100
0000
0001
1000
0001
0000
0000
0000
,
1000
0000
0001
0010
0001
0000
1000
0000
0001
0000
1000
0010
1000
0000
0001
0000
,
1000
0000
0001
0100
0001
0000
1000
0000
0001
0010
0001
0010
0100
0000
1000
0000
,
0010
0000
1000
0100
1000
0000
0001
0000
0010
0000
0001
0100
0001
0000
1000
0000
,
0100
0000
1000
0010
1000
0000
0001
0000
0100
0001
0010
0001
0100
0000
0000
0000
,
0001
0000
0100
0010
0100
0000
0001
0000
1000
0000
0100
0010
0100
0000
1000
0000
,
0001
0000
0010
0100
0010
0000
0001
0000
1000
0010
1000
0010
0100
0000
0001
0000
,
1000
0000
0001
0100
0001
0000
1000
0000
0001
0000
1000
0100
1000
0000
0001
0000
,
1000
0000
0001
0010
0001
0000
1000
0000
0001
0000
1000
0010
1000
0000
0000
0000
,
0001
0000
0100
0001
0100
0000
0010
0000
1000
0000
0100
1000
0100
0000
0010
0000
,
0001
0100
0001
0100
0010
1000
0010
1000
0100
0010
0100
0010
0001
0000
0000
0000
,
1000
0010
0000
0100
0001
0000
0010
0000
,
0100
0000
1000
0001
1000
0000
0010
0000
,
1000
0000
0001
0010
0001
0000
0100
0000
,
0010
0000
1000
0100
0010
0000
0100
0000
,
1000
0001
0000
0001
0100
0000
0010
0000
,
1000
0001
1000
0001
1000
0000
0010
0000
0100
0000
0000
0000
0001
0000
0000
0000
,
1001
1001
0110
0110
,
1000
0010
1000
0001
0010
0001
1000
0100
0010
0001
0000
0000
,
1000
0000
0001
0100
0001
0000
1000
0000
0001
0000
0010
0000
0100
0000
0010
0000
,
1000
0010
0100
0010
0001
0100
1000
0100
,
0001
0000
1000
0100
1000
0000
0001
0000
1000
0000
0010
0000
0100
0000
0010
0000
,
0001
0010
0100
0010
1000
0100
0001
0100
,
1000
0000
0001
0010
0001
0000
1000
0000
0001
0000
0100
0000
0010
0000
0100
0000
,
1000
0100
0010
0100
0001
0010
1000
0010
,
0001
0101
1000
1100
,
0001
0000
0100
0000
0010
0000
1000
0000
0100
0010
0100
0000
1000
0000
0001
0000
,
1000
0000
0001
0100
0001
0000
1000
0000
0001
0000
0010
0000
1000
0000
0010
0000
,
0001
0100
0010
0100
1000
0100
0010
0100
,
0001
0000
1000
0100
1000
0000
0001
0000
1000
0000
0010
0000
0001
0000
0010
0000
,
1000
0100
0010
0100
0001
0100
0010
0100
,
1000
0000
0001
0010
0001
0000
1000
0000
0010
0000
0100
0000
0001
0000
0010
0000
,
0110
0000
0100
1000
0100
0000
1000
0000
0010
0000
0100
0000
0001
0000
1000
0000
,
1100
0000
0100
0010
0100
0000
1000
0000
1001
0000
0001
0000
0100
0000
0000
0000
,
0110
0010
1000
0001
0010
0001
1000
0001
,
1000
0100
0010
0100
0010
0001
0010
0001
0100
0010
0100
0010
1000
0001
1000
0001
,
1000
0100
0010
0100
1000
0001
0100
0001
,
1000
0000
0001
0000
;

//---------------dance-single - ----------------
#NOTEDATA:;
#CHARTNAME:;
#STEPSTYPE:dance-single;
#DESCRIPTION:;
#CHARTSTYLE:;
#DIFFICULTY:Hard;
#METER:12;
#RADARVALUES:0.676750,0.767785,0.305050,0.035888,0.053832,528.000000,494.000000,34.000000,4.000000,0.000000,0.000000,0.000000,0.000000,0.000000,0.676750,0.767785,0.305050,0.035888,0.053832,528.000000,494.000000,34.000000,4.000000,0.000000,0.000000,0.000000,0.000000,0.000000;
#CREDIT:;
#NOTES:
0000
0000
0000
0000
,
0000
0000
1001
0110
,
1001
0000
0000
0000
,
1001
0000
0000
0000
0110
0000
1000
0001
,
1000
0100
0010
0100
2000
0000
3010
0000
,
0100
0001
0010
0100
0020
0000
0031
0000
,
1000
0100
0001
0100
1000
0010
0100
0001
,
0010
0000
0001
0100
0000
0010
0000
1000
,
0100
0000
0010
0001
0000
0100
0000
0010
,
1000
0000
0100
0010
0000
0100
0000
1000
,
0010
0000
0100
0001
0000
0010
0000
0100
,
0010
0000
0001
1000
0000
0010
0000
1000
,
0100
0000
1000
0001
0000
0010
0000
0001
,
0100
0000
0010
1000
0000
1000
0100
0000
,
0010
0000
0001
0100
0000
0100
0010
0000
,
1000
0100
0010
1000
0010
0001
0100
0000
,
0001
0010
0100
0001
0100
1000
0010
0000
,
1000
0010
0100
1000
0100
0001
0010
0000
,
0001
0100
0010
0001
0010
1000
0100
0000
,
1000
0010
0001
0010
1000
0100
0010
0000
,
0001
0100
1000
0100
0001
0010
0100
0000
,
1000
0001
1000
0000
0001
0100
0010
0100
,
0001
1000
0100
0010
0001
0000
1001
0000
,
1000
0001
0100
0001
2000
0000
3100
0000
,
0010
0000
0001
1000
0001
0000
0100
0000
0020
0000
0000
0000
1030
0000
0000
0000
,
0100
0010
0100
1000
0001
0000
0100
0000
,
0010
0000
0100
0001
0010
0000
0001
0000
,
1000
0100
0010
0100
1000
0010
0001
0010
,
1000
0001
1000
0000
0010
0000
0100
0000
0001
0000
0000
0000
0010
0000
0000
0000
,
1001
0001
1001
1000
,
0001
0000
0001
0100
0000
0100
0010
0000
0010
1000
0000
0000
,
1001
0000
0000
0000
0000
0000
1000
0010
1000
0000
0000
0000
0001
0000
0000
0000
,
1001
0000
1000
0100
0010
0000
0100
0000
,
1000
0001
0100
0001
1000
0000
0010
0000
,
1100
0101
0011
1010
,
1000
0010
0100
0010
1000
0000
0100
0000
,
1000
0001
0010
0001
1000
0000
0001
0000
,
0110
0000
0000
0000
0000
0000
1000
0010
1000
0000
0000
0000
0100
0000
0000
0000
,
0010
0000
0001
1000
0001
0000
1001
0000
,
1000
0100
0010
0100
0001
0100
0010
0100
,
1000
0010
0100
0010
0001
0010
0100
0000
,
0001
0100
0010
0100
1000
0100
0010
0100
,
0001
0010
0100
0010
0001
0001
1000
1000
,
0100
0010
0100
0001
0100
0010
0100
1000
,
0010
0100
0010
0001
0010
0100
0010
0000
,
1000
0100
0001
0100
1000
0010
0100
0001
,
0010
0010
0001
0001
1000
0100
0010
0001
,
1000
0001
0010
1000
0010
0001
0100
0010
,
1000
0000
0100
0000
0010
0000
0001
0000
0100
0000
0010
0100
0010
0000
0000
0000
,
1000
0100
0001
0100
1000
0010
0100
0001
,
0010
0000
0100
0000
1000
0000
0001
0000
0100
0000
0010
0100
0010
0000
0000
0000
,
1000
0001
0010
0001
1000
0100
0010
0100
,
1000
0010
0100
0001
0010
0001
1000
0000
,
0001
0100
1000
0100
0010
1000
0100
1000
,
0001
0100
0010
1000
0100
0010
0001
0000
,
1000
0001
0000
1000
0001
0000
0100
0000
,
0010
0000
1000
0100
1000
0000
0001
0000
,
0100
0000
0001
0010
0001
0000
1000
0000
,
0001
0000
1000
0100
0010
0000
0100
0000
,
1000
0010
0000
0100
0001
0000
0010
0000
,
0001
1000
0010
0100
0010
0000
1000
0000
,
1001
1001
0110
0110
,
1000
0000
1000
0100
0000
0100
0010
0000
0010
0001
0000
0000
,
1000
0100
0010
0100
1000
0000
0001
0000
,
1000
1010
0001
0011
,
1000
0010
0100
0010
1000
0000
0001
0000
,
1000
1100
0001
0101
,
1000
0010
0100
0001
0010
0000
0001
0000
,
0100
0000
0110
0000
0010
1000
0010
0100
,
0001
0010
0001
1000
,
0100
0010
0100
1000
0010
0100
0001
0010
,
0001
0100
0010
0100
0001
0000
1000
0000
,
0001
0011
1000
1010
,
0001
0010
0100
0010
0001
0000
1000
0000
,
0001
0101
1000
1100
,
1001
0001
0100
0010
1000
0100
0010
0001
,
1001
1000
0010
0100
0010
0001
0010
0100
,
0110
0010
1000
0100
0110
0010
0001
1000
,
1001
0001
1000
0010
1000
0100
0010
0001
,
1000
0100
0001
0100
1000
0010
0001
0010
,
1000
0100
0010
0100
1000
0010
0100
0001
,
0010
0000
0001
0000
;

//---------------dance-single - ----------------
#NOTEDATA:;
#CHARTNAME:;
#STEPSTYPE:dance-single;
#DESCRIPTION:;
#CHARTSTYLE:;
#DIFFICULTY:Medium;
#METER:9;
#RADARVALUES:0.469111,0.621540,0.278134,0.044860,0.000000,366.000000,335.000000,31.000000,5.000000,0.000000,0.000000,0.000000,0.000000,0.000000,0.469111,0.621540,0.278134,0.044860,0.000000,366.000000,335.000000,31.000000,5.000000,0.000000,0.000000,0.000000,0.000000,0.000000;
#CREDIT:;
#NOTES:
// measure 0
0000
0000
0000
0000
,  // measure 1
0000
0000
0000
0000
,  // measure 2
0000
0000
0000
0000
,  // measure 3
0000
0000
0000
0000
,  // measure 4
1000
0010
1000
0000
0001
0000
0100
0000
,  // measure 5
0001
0010
0001
0000
1000
0000
0100
0000
,  // measure 6
1000
0001
1000
0000
0001
0000
0010
0000
,  // measure 7
0100
0000
0010
0001
0000
1000
0000
0001
,  // measure 8
0100
0000
0010
1000
0000
0010
0000
0100
,  // measure 9
0001
0000
0010
0001
0000
1000
0000
0100
,  // measure 10
1000
0000
0001
1000
0000
0010
0000
0100
,  // measure 11
0001
0000
0010
0001
0000
1000
0000
0100
,  // measure 12
1000
0000
0001
1000
0000
0010
0000
0100
,  // measure 13
0001
0000
0010
0001
0000
1000
0100
0000
,  // measure 14
0010
0000
0001
0100
0000
0010
1000
0000
,  // measure 15
0001
0000
0001
0000
1000
0010
1000
0000
,  // measure 16
0100
0000
0010
0000
0001
0100
0001
0000
,  // measure 17
1000
0000
1000
0000
0010
0100
0010
0000
,  // measure 18
1000
0000
0001
0000
0100
0001
0100
0000
,  // measure 19
0001
0000
0001
0000
0010
0100
0010
0000
,  // measure 20
0001
0000
1000
0000
0100
0010
0100
0000
,  // measure 21
1000
0000
1000
0000
0001
0100
0001
0000
,  // measure 22
1000
0010
1000
0001
1000
0000
0001
0000
,  // measure 23
1000
1000
0020
0130
,  // measure 24
0001
0001
0020
0130
,  // measure 25
0010
0010
0002
1003
,  // measure 26
0010
0100
0001
0010
,  // measure 27
0001
0001
2000
3010
,  // measure 28
1000
0001
1000
0000
0100
0000
0010
0000
,  // measure 29
1001
0000
0110
0000
,  // measure 30
1000
1000
0001
0001
,  // measure 31
1001
0000
0000
0000
,  // measure 32
0110
0000
0000
0000
,  // measure 33
1001
0000
0110
0000
,  // measure 34
1001
1001
0110
0110
,  // measure 35
1000
0010
1000
0000
0100
0000
0010
0000
,  // measure 36
0001
0100
0001
0000
0010
0000
0100
0000
,  // measure 37
1000
0000
0000
0000
,  // measure 38
0001
0001
1000
0110
,  // measure 39
1000
0100
0001
0100
,  // measure 40
1000
0100
0001
0100
,  // measure 41
1000
0010
0001
0010
,  // measure 42
1000
0010
0110
1001
,  // measure 43
0001
0010
1000
0010
,  // measure 44
0001
0010
1000
0010
,  // measure 45
0001
0100
1000
0100
,  // measure 46
0001
0100
0110
1001
,  // measure 47
1000
0000
0010
0000
0100
0001
0100
0000
,  // measure 48
0001
0000
0010
0000
0100
1000
0100
0000
,  // measure 49
1000
0000
0001
0000
1000
0010
1000
0000
,  // measure 50
0001
0000
0100
0000
0001
0010
0001
0000
,  // measure 51
1000
0000
0010
0000
0100
0010
0100
0000
,  // measure 52
0001
0000
0010
0000
0100
0010
0100
0000
,  // measure 53
1000
0000
0001
0000
0010
0001
0010
0000
,  // measure 54
0001
0000
0100
0000
0010
1000
0001
0000
,  // measure 55
1000
0100
0000
0100
0010
0000
0001
0000
,  // measure 56
0100
0000
0010
0100
0010
0000
1000
0000
,  // measure 57
0001
0000
1000
0010
1000
0000
0001
0000
,  // measure 58
0010
0000
0001
0100
0001
0000
1000
0000
,  // measure 59
0100
0010
0000
0010
0001
0000
0100
0000
,  // measure 60
0010
1000
0010
0000
1000
0000
0100
0000
,  // measure 61
0011
0011
1100
1100
,  // measure 62
1001
1001
0110
0110
,  // measure 63
1000
0010
1000
0000
0001
0000
0100
0000
,  // measure 64
0010
1000
0100
0110
,  // measure 65
0001
1000
0001
0000
0100
0000
0010
0000
,  // measure 66
1000
0100
0010
0011
,  // measure 67
0001
1000
0100
0000
1000
0000
0010
0000
,  // measure 68
0100
0000
0001
0000
1000
0100
1000
0001
,  // measure 69
1000
0010
0100
0001
,  // measure 70
0010
0000
0100
0000
1000
0001
1000
0000
,  // measure 71
0001
0010
0001
0000
1000
0000
0010
0000
,  // measure 72
1000
0100
0010
1001
,  // measure 73
0001
1000
0001
0000
1000
0000
0010
0000
,  // measure 74
0100
0000
0001
0000
1000
0000
0100
0010
,  // measure 75
0100
0000
0000
0000
,  // measure 76
1001
0000
0000
0000
,  // measure 77
0110
0000
1001
0101
,  // measure 78
0011
0010
0100
1000
,  // measure 79
0010
0000
0100
0000
0001
1000
0001
1000
,  // measure 80
0002
0000
0000
0000
,  // measure 81
0103
0000
0010
0000
;

//---------------dance-single - ----------------
#NOTEDATA:;
#CHARTNAME:;
#STEPSTYPE:dance-single;
#DESCRIPTION:;
#CHARTSTYLE:;
#DIFFICULTY:Easy;
#METER:7;
#RADARVALUES:0.320431,0.621540,0.215330,0.017944,0.000000,250.000000,226.000000,24.000000,2.000000,0.000000,0.000000,0.000000,0.000000,0.000000,0.320431,0.621540,0.215330,0.017944,0.000000,250.000000,226.000000,24.000000,2.000000,0.000000,0.000000,0.000000,0.000000,0.000000;
#CREDIT:;
#NOTES:
0000
0000
0000
0000
,
0000
0000
0000
0000
,
0000
0000
0000
0000
,
0000
0000
0000
0000
,
1000
1000
0001
0100
,
0001
0001
1000
0100
,
1000
0010
0100
0001
,
0010
0000
0001
0000
,
1000
0000
0010
0000
,
1000
0000
0100
0000
,
1000
0000
0010
0000
,
0100
0000
0001
0000
,
0010
0000
0100
0000
,
1000
0000
0001
0000
,
0010
0000
0001
0000
,
1000
1000
0001
0001
,
1000
0010
1000
0001
,
0010
0010
0100
0100
,
1000
0010
0100
0001
,
0010
0010
0100
0100
,
1000
0001
1000
0010
,
1000
1000
0001
0001
,
0100
0010
1000
0100
,
0010
0010
0001
0100
,
0010
0010
1000
0100
,
1000
1000
0001
0100
,
0010
0000
1000
0000
,
0001
0001
0100
0010
,
1000
1000
0100
0010
,
1001
0000
0110
0000
,
1000
0100
0010
0001
,
1001
0000
0000
0000
,
0110
0000
0000
0000
,
1001
0000
1001
0000
,
0110
0110
1001
1001
,
1000
1000
0010
0100
,
0001
0001
0010
0100
,
1000
0000
0000
0000
,
0001
1000
0001
1000
,
0100
0000
0100
0000
,
0010
0000
0010
0000
,
0001
0000
0001
0000
,
0100
0000
0100
0000
,
0010
0000
0010
0000
,
1000
0000
1000
0000
,
0001
0000
0001
0000
,
0100
0000
0100
0000
,
0001
1000
0001
0000
,
1000
0010
1000
0000
,
0100
0010
0100
0000
,
1000
0010
1000
0000
,
0001
0100
0001
0000
,
0010
0001
0010
0000
,
0001
1000
0001
0000
,
1000
0010
1000
0001
,
1000
0000
0000
0000
,
0010
0000
0000
0000
,
0100
0000
0000
0000
,
0001
0000
0010
0000
,
0100
0000
0000
0000
,
1000
0000
0010
0000
,
1001
1001
0110
0110
,
1010
1010
0101
0101
,
0001
0001
1000
0010
,
0100
0100
0001
0010
,
0001
0001
0100
0010
,
1000
1000
0100
0010
,
0100
0100
1000
0010
,
0100
0001
0010
0001
,
1000
0100
0010
0100
,
1000
0010
0100
0001
,
0010
0010
0001
0100
,
0010
0010
1000
0100
,
1000
1000
0010
0100
,
0001
0001
0010
0100
,
1001
0000
0000
0000
,
0110
0000
0000
0000
,
1001
0000
0110
0110
,
0110
0010
1000
0100
,
0020
0000
0000
0000
,
0032
0000
0000
0000
,
0003
0000
0100
0000
;

//---------------dance-single - ----------------
#NOTEDATA:;
#CHARTNAME:;
#STEPSTYPE:dance-single;
#DESCRIPTION:;
#CHARTSTYLE:;
#DIFFICULTY:Beginner;
#METER:5;
#RADARVALUES:0.171751,0.329051,0.000000,0.000000,0.000000,134.000000,134.000000,0.000000,0.000000,0.000000,0.000000,0.000000,0.000000,0.000000,0.171751,0.329051,0.000000,0.000000,0.000000,134.000000,134.000000,0.000000,0.000000,0.000000,0.000000,0.000000,0.000000,0.000000;
#CREDIT:;
#NOTES:
0000
0000
0000
0000
,
0000
0000
0000
0000
,
0000
0000
0000
0000
,
0000
0000
0000
0000
,
1000
0000
1000
0000
,
0001
0000
0001
0000
,
0100
0000
0100
0000
,
0010
0000
0000
0000
,
1000
0000
0000
0000
,
0001
0000
0000
0000
,
0100
0000
0000
0000
,
0010
0000
0000
0000
,
1000
0000
0000
0000
,
0100
0000
0000
0000
,
0010
0000
0000
0000
,
0001
0000
0000
0000
,
1000
0000
0000
0000
,
0001
0000
0000
0000
,
1000
0000
0000
0000
,
0010
0000
0000
0000
,
0100
0000
0000
0000
,
0001
0000
0000
0000
,
1000
0000
0000
0000
,
0001
0000
0001
0000
,
1000
0000
1000
0000
,
0010
0000
0010
0000
,
0100
0000
0100
0000
,
0001
0000
0001
0000
,
0010
0000
0010
0000
,
0100
0000
0100
0000
,
1000
0001
1000
0001
,
1000
0000
0000
0000
,
0001
0000
0000
0000
,
1000
0000
0001
0000
,
1000
0001
1000
0001
,
1000
0000
1000
0000
,
0010
0000
0010
0000
,
0100
0000
0000
0000
,
0000
0000
0000
0010
,
1000
0000
0001
0000
,
1000
0000
0010
0000
,
1000
0000
0100
0000
,
1000
0000
0001
0000
,
1000
0000
0010
0000
,
0100
0000
0001
0000
,
0010
0000
0100
0000
,
1000
0000
0001
0000
,
1000
0000
0010
0000
,
0100
0000
0001
0000
,
0010
0000
0100
0000
,
1000
0000
0010
0000
,
1000
0000
0100
0000
,
0010
0000
0001
0000
,
0100
0000
0001
0000
,
0010
0000
0100
0100
,
1000
0000
0000
0000
,
0000
0000
0000
0000
,
0001
0000
0000
0000
,
0000
0000
0000
0000
,
1000
0000
0000
0000
,
0010
0000
0000
0000
,
0100
0100
0100
0100
,
0001
1000
0001
1000
,
0001
0000
0001
0000
,
0010
0000
0010
0000
,
0100
0000
0100
0000
,
1000
0000
1000
0000
,
0010
0000
0010
0000
,
0100
0000
0100
0000
,
0001
0000
0001
0000
,
1000
0000
1000
0000
,
0100
0000
0100
0000
,
0010
0000
0010
0000
,
0001
0000
0001
0000
,
1000
0000
1000
0000
,
0010
0000
0000
0000
,
1000
0000
0000
0000
,
0100
0000
0010
0000
,
0100
0000
0100
0000
,
1000
0000
1000
0000
,
0001
0000
0000
0000
,
0100
0000
0010
0000
;
