#TITLE:Do It Right -ElecNekoTronika mix-;
#SUBTITLE:;
#ARTIST:Remixed by 猫叉Master;
#TITLETRANSLIT:;
#SUBTITLETRANSLIT:;
#ARTISTTRANSLIT:Remixed by Nekomata Master;
#GENRE:WORLD SOUL;
#CREDIT:;
#BANNER:Do It Right -ElecNekoTronika mix-.png;
#BACKGROUND:Do It Right -ElecNekoTronika mix--bg.png;
#LYRICSPATH:;
#CDTITLE:cdtitle.png;
#MUSIC:Do It Right -ElecNekoTronika mix-.ogg;
#OFFSET:-0.040000;
#SAMPLESTART:56.352001;
#SAMPLELENGTH:14.293999;
#SELECTABLE:YES;
#BPMS:0.000000=135.000000
;
#STOPS:
;
#BGCHANGES:;
#KEYSOUNDS:;
#ATTACKS:;

//---------------dance-single - ----------------
#NOTES:
     dance-single:
     :
     Hard:
     12:
     0.507901,0.613291,0.571941,0.038645,0.332344,460.000000,386.000000,74.000000,5.000000,0.000000,0.000000,0.507901,0.613291,0.571941,0.038645,0.332344,460.000000,386.000000,74.000000,5.000000,0.000000,0.000000:
0000
0000
0000
0000
,
0000
0000
0000
0000
,
0000
0000
0000
0000
,
0000
0000
0000
0000
,
1000
0001
0000
0001
,
0000
0000
0000
0000
0001
0000
0000
1000
0000
1000
0000
0000
0001
0000
0000
0000
,
0100
0010
0000
0010
,
1000
0000
0010
0000
1000
0000
0010
1000
,
0010
0110
0100
0101
,
0001
0000
0000
0000
0011
0000
0000
0000
0010
0100
0000
0000
0110
0000
0000
0000
,
0100
1100
1000
1001
,
0001
0000
0000
0000
0101
0000
0000
0000
0100
0010
0000
0000
0110
0000
0000
0000
,
0010
1010
1000
1001
,
0001
0000
0000
0000
0011
0000
0000
0000
0010
0100
0000
0000
0110
0000
0000
0000
,
0100
1100
1000
1001
,
0001
0000
0010
0000
0100
0000
1000
0000
0000
0000
0001
0100
0001
0000
0000
0000
,
1000
0000
0000
0010
0000
0000
0100
0000
0001
0000
0000
0100
0000
0000
1000
0000
,
0100
0000
0000
0001
0000
0000
0010
0000
0100
0000
0000
1000
0000
0000
0001
0000
,
1000
0100
0010
1000
0010
0100
1000
0001
,
0100
0000
1000
0000
0100
0000
0010
0000
0100
0000
0000
0001
0000
0000
1000
0000
,
0001
0000
0000
0100
0000
0000
0010
0000
1000
0000
0000
0010
0000
0000
0100
0000
,
0001
0000
0000
0010
0000
0000
0100
0000
1000
0000
0000
0100
0000
0000
0010
0000
,
0200
0000
0001
0000
0010
0000
1300
0001
,
1000
0000
0010
0000
0001
0000
0010
0000
0100
0000
0000
0001
0000
0000
1000
0000
,
1010
0000
0000
0010
0000
0000
0100
0000
1000
0000
0000
0100
0000
0000
0001
0000
,
0010
0000
0000
0100
0000
0000
0001
0000
0100
0000
0000
1000
0000
0000
0001
0000
,
0100
0010
0001
0010
0100
0001
1000
0100
,
0010
0000
0100
0000
0001
0000
0100
0000
1000
0000
0000
0001
0000
0000
0100
0000
,
0010
0000
0000
1000
0000
0000
0100
0000
0010
0000
0000
0001
0000
0000
0100
0000
,
0001
0000
0000
0010
0000
0000
0100
0000
1000
0000
0000
0001
0000
0000
1000
0000
,
0020
0000
1000
0000
0100
0000
0031
0010
,
2000
0000
0002
3003
,
1010
0010
0100
0101
,
1001
1000
1010
0010
,
0110
0100
0001
1000
,
1100
0100
0110
0010
,
0011
1000
0010
1010
,
1001
0001
0101
0100
,
0110
0010
1000
0001
,
0010
0000
0100
0000
1001
1000
1001
0001
,
1001
0000
0000
1000
0010
0000
0100
0000
0001
0000
0010
0000
0100
0000
1000
0000
,
0010
0000
0100
0000
0010
1000
0000
0001
0000
0000
1000
0000
0100
0000
0010
0000
,
0001
0000
0000
0001
1000
0000
0010
0000
1000
0000
0001
0000
0010
0000
1000
0000
,
0010
0000
0000
0001
0000
0000
1000
0000
0100
0000
0000
0000
1000
0000
0001
0000
,
0010
0000
0000
0000
0100
1000
0000
0001
0000
0000
1000
0000
0010
0000
0100
0001
,
0100
0000
0000
0010
0000
0000
1000
0000
0100
0000
0000
0000
1000
0000
0010
0000
,
0001
0010
1000
0100
0001
0100
1000
0001
,
1000
0000
0000
0001
0000
0000
0100
0000
0010
0000
0010
0000
0100
0000
0100
0000
,
0110
0000
0000
0110
0000
0000
0000
0000
1010
0000
0000
1010
0000
0000
0000
0000
,
1100
0000
0000
1100
0000
0000
0000
0000
1001
0000
0000
1001
0000
0000
0001
0000
,
0101
0000
0000
0101
0000
0000
0000
0000
1010
0000
0000
1010
0000
0000
0000
0000
,
1100
0000
0000
1100
0000
0000
0000
0000
0011
0000
0000
0011
0000
0000
0010
0000
,
0110
0000
0000
1010
0000
0000
0000
0000
1100
0000
0000
1001
0000
0000
0000
0000
,
0101
0000
0000
0011
0000
0000
0000
0000
1001
0000
0000
1010
0000
0000
1000
0000
,
0101
0000
0000
0110
0000
0000
0000
0000
1010
0000
0000
1100
0000
0000
0000
0000
,
1100
0000
0000
0101
0000
0000
0000
0000
1001
0000
0001
0000
1001
0000
1000
0000
,
1001
0000
0000
0001
0100
0000
0010
0100
0010
0000
0000
1000
0001
0000
0100
0001
,
0100
0000
0000
0010
1000
0000
0100
1000
0100
0000
0000
0000
0011
0000
0000
0000
,
1001
0000
0000
1000
0010
0000
0100
0001
0100
0000
0000
0010
1000
0000
0100
1000
,
0100
0000
0000
0010
0001
0000
0100
0001
0100
0000
0010
0000
0110
0000
0100
0000
,
0110
0000
0000
0010
1000
0000
0100
1000
0100
0000
0000
0010
0001
0000
0100
0001
,
0100
0000
0000
0010
1000
0000
0001
0100
0001
0000
0000
0000
0011
0000
0000
0000
,
1001
0000
0000
1000
0010
0000
0100
0010
0100
0000
0000
0010
1000
0000
0100
1000
,
0100
0000
0000
0010
0001
0000
0100
0001
0100
0000
0000
0000
0110
0000
0000
0000
,
1010
0000
0000
1000
0100
0000
1000
0001
1000
0000
0000
0010
0100
0000
0001
0100
,
0001
0000
0000
0010
0100
0000
1000
0001
1000
0000
0000
0000
1001
0000
0000
0000
,
0110
0000
0000
0010
0100
0000
0001
0100
0001
0000
0000
1000
0100
0000
0010
0001
,
0010
0000
0000
0001
0100
0000
0001
1000
0001
0000
1000
0000
1100
0000
0200
0000
,
0000
0000
0000
0000
,
0300
0000
0000
0000
;

//---------------dance-single - ----------------
#NOTES:
     dance-single:
     :
     Medium:
     8:
     0.316886,0.367221,0.177765,0.100476,0.011593,287.000000,264.000000,23.000000,13.000000,0.000000,0.000000,0.316886,0.367221,0.177765,0.100476,0.011593,287.000000,264.000000,23.000000,13.000000,0.000000,0.000000:
// measure 0
0000
0000
0000
0000
,  // measure 1
0000
0000
0000
0000
,  // measure 2
0000
0000
0000
0000
,  // measure 3
0000
0000
0000
0000
,  // measure 4
1000
0001
0000
0001
,  // measure 5
0000
0000
0000
0000
0001
0000
0000
1000
0000
1000
0000
0000
0001
0000
0000
0000
,  // measure 6
0100
0010
0000
0010
,  // measure 7
1000
0100
0010
0001
,  // measure 8
1000
1100
0001
0101
,  // measure 9
1000
1010
0001
0011
,  // measure 10
1000
1001
0001
1001
,  // measure 11
0100
0110
0010
0110
,  // measure 12
1000
0001
0000
0001
0000
0001
0000
0001
,  // measure 13
0010
0100
0000
0100
0000
0100
0000
0100
,  // measure 14
1000
0010
0000
0010
0000
0010
0000
0010
,  // measure 15
1000
0001
1000
0001
0000
0010
0100
0000
,  // measure 16
1000
1010
0010
0100
,  // measure 17
0001
0011
0010
0100
,  // measure 18
1000
1001
0001
0100
,  // measure 19
0010
0110
0100
0001
,  // measure 20
1000
1010
0010
0100
,  // measure 21
0001
0011
0010
0100
,  // measure 22
1000
1001
0001
0010
,  // measure 23
0001
0000
0000
0000
0000
0000
0000
0000
1000
0000
0000
1000
0000
0000
1000
0000
,  // measure 24
0010
0000
0100
0000
0001
1000
0001
0000
,  // measure 25
1000
0000
0100
0000
0010
0001
0010
0000
,  // measure 26
0001
0000
0100
0000
0010
0100
0010
0000
,  // measure 27
1000
0000
0100
0000
0010
0001
0010
0000
,  // measure 28
0001
0000
0100
0000
0010
1000
0010
0000
,  // measure 29
1000
0000
0001
0000
1000
0100
1000
0000
,  // measure 30
0001
0000
0100
0000
0001
0010
0001
0000
,  // measure 31
2000
0000
0002
3003
,  // measure 32
0220
0330
0000
1000
,  // measure 33
0020
0030
0200
0300
,  // measure 34
0002
0003
0000
0000
,  // measure 35
0020
0030
0200
0300
,  // measure 36
2000
3000
0000
0010
,  // measure 37
0200
0300
0020
0030
,  // measure 38
2000
3000
0000
0000
,  // measure 39
0001
0000
0001
0000
1000
0001
1000
0001
,  // measure 40
1000
0000
0010
0000
1000
0100
0010
0100
,  // measure 41
1000
0000
0010
0000
0100
0000
0001
0010
,  // measure 42
0001
0000
1000
0000
0001
0100
0010
0100
,  // measure 43
0001
0000
0010
0000
0100
0000
1000
0001
,  // measure 44
1000
0000
0010
0100
0010
0000
1000
0000
,  // measure 45
0001
0000
0010
0100
0010
0000
0100
0000
,  // measure 46
1000
0000
0001
1000
0001
0000
1000
0010
,  // measure 47
1000
0000
0100
0000
0010
0001
0010
0001
,  // measure 48
0010
0000
1001
0000
,  // measure 49
0100
0000
1001
0001
,  // measure 50
1000
0000
1010
0000
,  // measure 51
0001
0000
0011
0010
,  // measure 52
0100
0000
1100
0000
,  // measure 53
1000
0000
1010
0010
,  // measure 54
0100
0000
0110
0000
,  // measure 55
0010
0000
0000
0000
1000
0001
1000
0001
,  // measure 56
1000
0010
0100
0001
,  // measure 57
0010
0000
0100
0000
1000
0000
0001
1000
,  // measure 58
0001
0100
0010
1000
,  // measure 59
0100
0000
0010
0000
0001
1000
0001
1000
,  // measure 60
0001
0000
1000
0000
0010
1000
0010
0000
,  // measure 61
0100
0000
0001
0000
0010
0001
0010
0000
,  // measure 62
0001
0000
1000
0000
0001
0100
0001
0000
,  // measure 63
1000
0000
0010
0000
1000
0100
1000
0000
,  // measure 64
0010
0000
0100
0000
0001
0010
0001
0000
,  // measure 65
0100
0000
0010
0000
1000
0001
1000
0000
,  // measure 66
0001
0000
0010
0000
0100
1000
0100
0000
,  // measure 67
1000
0000
0010
0000
0100
0001
0100
0001
;

//---------------dance-single - ----------------
#NOTES:
     dance-single:
     :
     Easy:
     5:
     0.208681,0.235636,0.054103,0.015458,0.000000,189.000000,182.000000,7.000000,2.000000,0.000000,0.000000,0.208681,0.235636,0.054103,0.015458,0.000000,189.000000,182.000000,7.000000,2.000000,0.000000,0.000000:
0000
0000
0000
0000
,
0000
0000
0000
0000
,
0000
0000
0000
0000
,
0000
0000
0000
0000
,
1000
0001
0000
0001
,
0000
0001
0000
0001
,
0000
1000
0000
1000
,
0000
1000
0000
1000
,
0001
0001
1000
1000
,
0010
0010
0100
0100
,
0001
0001
1000
1000
,
0100
0100
0010
0010
,
0001
1000
0001
1000
,
0010
0100
0010
0100
,
0001
1000
0001
1000
,
0100
0010
0000
0010
,
0001
0000
1000
0000
,
0010
0000
1000
0000
,
0100
0000
0010
0000
,
0001
0000
0100
0000
,
0010
0000
1000
0000
,
0100
0000
1000
0000
,
0010
0000
0100
0000
,
0001
0000
0010
0000
,
0100
1000
0010
0100
,
0001
1000
0100
0010
,
0001
0100
0010
1000
,
0001
0010
0100
0010
,
0001
1000
0010
0100
,
0001
0010
0001
0010
,
0100
1000
0010
0100
,
0002
0000
2000
3003
,
1000
0000
0000
0010
,
0100
0000
0001
0000
,
0010
0000
0000
0100
,
1000
0000
0010
0000
,
0100
0000
0000
0001
,
0010
0000
0001
0000
,
1000
0000
0000
0000
,
0001
0001
1000
0010
,
0100
0001
0010
0001
,
1000
0010
1000
0001
,
0100
0010
1000
0010
,
0100
0001
0100
0010
,
1000
0100
1000
0001
,
0010
0001
0100
0001
,
1000
0010
0100
0010
,
1000
0100
1000
1000
,
0001
0000
1001
0000
,
1000
0000
1001
0000
,
0010
0000
0110
0000
,
0100
0000
0110
0000
,
0001
0000
1001
0000
,
1000
0000
1001
0000
,
0100
0000
0110
0000
,
0010
0000
0100
0100
,
0001
0000
1000
0000
,
0010
0000
0100
0001
,
0100
0000
0010
0000
,
1000
0000
0100
1000
,
0001
0000
0100
0000
,
0001
0000
0010
0001
,
1000
0000
0010
0000
,
0100
0000
0001
1000
,
0001
0000
0010
0000
,
0100
0000
1000
0010
,
1000
0000
0100
0000
,
0010
0000
0001
0001
;

//---------------dance-single - ----------------
#NOTES:
     dance-single:
     :
     Beginner:
     2:
     0.109309,0.130426,0.000000,0.000000,0.000000,99.000000,99.000000,0.000000,0.000000,0.000000,0.000000,0.109309,0.130426,0.000000,0.000000,0.000000,99.000000,99.000000,0.000000,0.000000,0.000000,0.000000:
0000
0000
0000
0000
,
0000
0000
0000
0000
,
0000
0000
0000
0000
,
0000
0000
0000
0000
,
0001
0000
0000
0000
,
0000
0000
0000
0000
,
1000
0000
0000
0000
,
0000
0000
0000
0000
,
0001
0000
0000
0000
,
0001
0000
0000
0000
,
1000
0000
0000
0000
,
1000
0000
0000
0000
,
0010
0000
0000
0000
,
0010
0000
0000
0000
,
0100
0000
0000
0000
,
0100
0000
0000
0000
,
0010
0000
0010
0000
,
0100
0000
0100
0000
,
0001
0000
0001
0000
,
1000
0000
1000
0000
,
0100
0000
0100
0000
,
0010
0000
0010
0000
,
0001
0000
0001
0000
,
1000
0000
1000
0000
,
0001
0000
0001
0000
,
0100
0000
0100
0000
,
0010
0000
0010
0000
,
1000
0000
1000
0000
,
0010
0000
0010
0000
,
1000
0000
1000
0000
,
0100
0000
0100
0000
,
0010
0000
0000
0000
,
0001
0000
0000
0000
,
1000
0000
0000
0000
,
0001
0000
0000
0000
,
0100
0000
0000
0000
,
0010
0000
0000
0000
,
1000
0000
0000
0000
,
0010
0000
0000
0000
,
1000
0000
1000
0000
,
0001
0000
0001
0000
,
0100
0000
0100
0000
,
0010
0000
0010
0000
,
1000
0000
1000
0000
,
0100
0000
0100
0000
,
0010
0000
0010
0000
,
0001
0000
0001
0000
,
1000
0000
1000
0000
,
0001
0000
0000
0000
,
1000
0000
0000
0000
,
0001
0000
0000
0000
,
1000
0000
0000
0000
,
0010
0000
0000
0000
,
0100
0000
0000
0000
,
0010
0000
0000
0000
,
0100
0000
0010
0000
,
1000
0000
1000
0000
,
0001
0000
0001
0000
,
0100
0000
0100
0000
,
0010
0000
0010
0000
,
1000
0000
1000
0000
,
0001
0000
0001
0000
,
0010
0000
0010
0000
,
0100
0000
0100
0000
,
1000
0000
1000
0000
,
0010
0000
0010
0000
,
0100
0000
0100
0000
,
0001
0000
0001
0000
;
