#TITLE:December Breeze;
#SUBTITLE:;
#ARTIST:dj silverberg;
#TITLETRANSLIT:;
#SUBTITLETRANSLIT:;
#ARTISTTRANSLIT:;
#GENRE:HAPPY HARDCORE;
#CREDIT:;
#BANNER:December Breeze.png;
#BACKGROUND:December Breeze-bg.png;
#LYRICSPATH:;
#CDTITLE:cdtitle.png;
#MUSIC:December Breeze.ogg;
#OFFSET:-0.940000;
#SAMPLESTART:7.523000;
#SAMPLELENGTH:10.615000;
#SELECTABLE:YES;
#BPMS:0.000000=182.000000
;
#STOPS:
;
#BGCHANGES:;
#KEYSOUNDS:;
#ATTACKS:;

//---------------dance-single - ----------------
#NOTES:
     dance-single:
     :
     Challenge:
     16:
     0.871623,1.101146,0.080047,0.204564,0.733764,686.000000,677.000000,9.000000,23.000000,0.000000,0.000000,0.871623,1.101146,0.080047,0.204564,0.733764,686.000000,677.000000,9.000000,23.000000,0.000000,0.000000:
0000
0000
0000
0000
,
0000
0000
0000
0000
,
0000
0000
0000
0000
,
0000
0000
0000
0000
,
0000
0000
0000
0000
,
1000
0000
0010
0000
1000
0000
0001
0000
0010
0000
0100
0000
1000
0001
0000
1000
,
0001
0000
0010
0000
0001
0000
1000
0000
0010
0000
0100
0000
0001
1000
0000
0001
,
1000
0000
0100
0000
0010
0000
0100
0000
1000
0000
0010
0000
1000
0100
0000
1000
,
0001
0010
0001
0010
0001
0100
0010
1000
0200
0000
0000
2300
0000
0000
3001
0000
,
0100
0000
0001
0000
0010
0000
0100
0000
1000
0000
0001
0000
0010
0001
1000
0001
,
0010
0000
0001
0000
0100
0000
0010
0000
1000
0001
1000
0001
0010
0100
0010
0100
,
1000
0000
0100
0000
0001
0000
0200
0000
0000
0000
1300
0000
0001
0100
0001
0000
,
0010
0000
0100
0000
1000
0010
0000
1000
0001
0000
0100
0000
0001
0010
0000
0001
,
1000
0000
0100
0000
1000
0000
0001
0000
0100
0000
0010
0000
1000
0001
0000
1000
,
0001
0000
0100
0000
0001
0000
1000
0000
0100
0000
0010
0000
0001
1000
0000
0001
,
1000
0000
0010
0000
0100
0000
0010
0000
1000
0000
0100
0000
1000
0010
0000
1000
,
0001
0100
0001
0100
0001
0010
0100
1000
0020
0000
0000
2030
0000
0000
3001
0000
,
0010
0000
0001
0000
0100
0000
0010
0000
1000
0000
0001
0000
0100
0001
1000
0001
,
0100
0000
0001
0000
0010
0000
0100
0000
1000
0001
1000
0001
0100
0010
0100
0010
,
1000
0000
0010
0000
0001
0000
0020
0000
0000
0000
1030
0100
1000
0001
1000
0000
,
0001
0101
0000
1000
1100
0000
0010
0110
,
0000
1000
0100
0010
0100
1000
0001
0100
,
0001
0000
0000
0010
0000
0000
0001
0000
1000
0000
0000
0010
0000
0000
1000
0000
,
0100
0000
0010
0000
0001
0000
0100
0000
0010
0000
1000
0000
0001
0010
0100
0010
,
0001
0000
0000
0100
0000
0000
0001
0000
1000
0000
0000
0100
0000
0000
1000
0000
,
0010
0000
0100
0000
0001
0000
0010
0000
0100
0000
1000
0001
1000
0000
0010
0000
,
0100
0000
0000
0001
0000
0000
0100
0000
0010
0000
0000
1000
0000
0000
0100
0000
,
0010
0000
0100
0000
1000
0000
0010
0000
0100
0000
0001
0000
1000
0100
1000
0100
,
0020
1000
0100
0032
,
0203
0000
0000
0000
0000
0000
0000
0000
0000
0000
0000
0000
0301
0000
0000
0000
0010
0000
0000
0000
0100
0000
0000
0000
1000
0000
0000
0010
0000
0000
0000
0000
0000
1000
0000
0000
0001
0000
0000
0000
0000
0000
0100
0000
0000
0000
0000
0000
,
0001
0010
1000
0001
0100
1000
0001
0010
,
1000
0000
0001
0000
0100
0000
1000
0000
0001
0000
0100
0000
0001
0010
0001
0000
,
1000
0010
0001
1000
0100
0001
1000
0010
,
0001
0000
1000
0000
0100
0000
0001
0000
1000
0000
0010
0100
0010
0000
1000
0000
,
0001
0100
0001
0100
0001
0000
1000
0100
1000
0100
1000
0000
0001
0010
0001
0010
,
0001
0000
1000
0010
1000
0010
1000
0000
0001
1000
0001
1000
0001
0010
0001
0010
,
0100
1000
0100
1000
0010
0100
0010
0100
0001
1000
0001
1000
0100
0010
0100
0010
,
0001
0000
0000
0000
1001
0000
0000
0000
1000
0000
0100
0010
0100
0000
0010
0000
,
0000
0001
0100
0000
0001
0010
0001
0000
,
1000
0000
0001
0000
0010
0000
0001
0000
1000
0000
0010
0000
1000
0001
0000
0100
,
0001
0000
1000
0000
0010
0000
1000
0000
0001
0000
0010
0000
0001
1000
0000
0100
,
1000
0000
0010
0000
1000
0000
0100
0000
0010
0000
0001
0000
1000
0001
0000
1000
,
0100
1000
0100
1000
0010
0100
0010
0100
0002
0000
0000
0023
0000
0000
0130
0000
,
1000
0000
0010
0000
0100
0000
0001
0000
0010
0000
0001
0000
1000
0010
1000
0001
,
1000
0000
0100
0000
0010
0000
0100
0000
1000
0010
1000
0010
0100
0001
0100
0001
,
1000
0010
0001
0020
0000
1030
0100
0010
,
0001
0000
0100
0000
0001
0010
0000
0001
1000
0000
0010
0000
1000
0100
0000
1000
,
0001
0000
1000
0000
0010
0000
1000
0000
0001
0000
0010
0000
0001
1000
0000
0100
,
1000
0000
0001
0000
0010
0000
0001
0000
1000
0000
0010
0000
1000
0001
0000
0100
,
0001
0000
0010
0000
0001
0000
0100
0000
0010
0000
1000
0000
0001
1000
0000
0001
,
0100
0001
0100
0001
0010
0100
0010
0100
2000
0000
0000
3020
0000
0000
0130
0000
,
0001
0000
0010
0000
0100
0000
1000
0000
0010
0000
1000
0000
0001
0010
0001
1000
,
0001
0000
0100
0000
0010
0000
0100
0000
0001
0010
0001
0010
0100
1000
0100
1000
,
0001
0010
1000
0020
0000
0031
0100
0010
,
1000
0000
0100
0000
1000
0010
0000
1000
0001
0000
0010
0000
0001
0100
0000
0001
,
1000
0000
0100
0000
0010
0000
0001
0000
0100
0000
0010
0000
1000
0001
1000
0000
,
0001
0010
1000
0010
0001
0100
0010
1000
,
0100
0000
0010
0000
0100
0000
0010
0000
0000
0000
0001
0000
1000
0010
0100
0010
,
1000
0000
0001
0000
0010
0000
0100
0000
0010
0000
0001
0000
1000
0010
0000
0100
,
0001
0000
1000
0000
0010
0000
0100
0000
0010
0000
1000
0000
0001
0010
0000
0100
,
1000
0000
0010
0000
0100
0000
0001
0000
0010
0000
0100
0000
1000
0010
0000
1000
,
0001
0100
0001
0100
0010
1000
0010
1000
0200
0000
0000
0320
0000
0000
0031
0000
,
1000
0000
0001
0000
0100
0000
0001
0000
0010
0000
0001
0000
1000
0001
1000
0001
,
0010
0000
0100
0000
1000
0000
0010
0000
0100
0001
0100
0001
1000
0010
1000
0010
,
1000
0100
0001
0200
0000
1300
0010
0100
,
0001
0000
0010
0000
0001
1000
0000
0100
1000
0000
0010
0000
1000
0001
0000
0100
,
0001
0000
1000
0000
0010
0000
0100
0000
0010
0000
1000
0000
0001
0010
0000
0100
,
1000
0000
0001
0000
0010
0000
0100
0000
0010
0000
0001
0000
1000
0010
0000
0100
,
0001
0000
0010
0000
0100
0000
1000
0000
0010
0000
0100
0000
0001
0010
0000
0001
,
1000
0100
1000
0100
0010
0001
0010
0001
0200
0000
0000
0320
0000
0000
1030
0000
,
0001
0000
1000
0000
0100
0000
1000
0000
0010
0000
1000
0000
0001
1000
0001
1000
,
0010
0000
0100
0000
0001
0000
0010
0000
0100
1000
0100
1000
0001
0010
0001
0010
,
0001
0100
1000
0200
0000
0301
0010
0100
,
0010
0001
0011
1001
,
1000
0000
0010
0000
0100
0001
0010
0100
,
1100
0000
1000
0000
0001
0100
0010
1000
,
1001
0001
0010
0100
0010
0001
0100
0010
,
1000
0000
0100
0000
0010
0000
0001
0000
1000
0010
1000
0000
0001
0000
0010
0000
,
0100
0000
1000
0001
1000
0000
0001
0010
0001
0000
0100
0000
0010
0000
2020
0000
,
0000
0000
0000
0000
0000
0000
0000
3030
;

//---------------dance-single - ----------------
#NOTES:
     dance-single:
     :
     Hard:
     13:
     0.703905,0.710417,0.017788,0.080047,0.369105,554.000000,552.000000,2.000000,9.000000,0.000000,0.000000,0.703905,0.710417,0.017788,0.080047,0.369105,554.000000,552.000000,2.000000,9.000000,0.000000,0.000000:
// measure 0
0000
0000
0000
0000
,  // measure 1
0000
0000
0000
0000
,  // measure 2
0000
0000
0000
0000
,  // measure 3
0000
0000
0000
0000
,  // measure 4
0000
0000
0000
0000
,  // measure 5
1000
0000
0100
0000
0010
0000
0001
0000
0000
0000
0100
0000
0010
0100
0000
0100
,  // measure 6
0001
0000
0010
0000
0100
0000
1000
0000
0000
0000
0010
0000
0100
0010
0000
0010
,  // measure 7
1000
0000
0100
0000
0010
0000
0100
0000
0000
0000
1000
0000
0001
0100
0000
0100
,  // measure 8
0001
0000
0010
0000
1000
0000
0010
0000
0001
0000
0000
0100
0000
0000
0010
0000
,  // measure 9
1000
0000
0100
0000
0010
0000
0001
0000
0000
0000
1000
0000
0001
0100
0001
0000
,  // measure 10
1000
0100
0010
0100
1000
0010
0001
0010
,  // measure 11
1000
0000
0001
0000
0010
0000
0100
0000
0000
0000
1000
0000
0001
1000
0001
0000
,  // measure 12
1000
0000
0010
0000
0100
0010
0000
0010
1000
0000
0100
0000
0010
0001
0000
0010
,  // measure 13
0001
0000
0100
0000
0010
0000
1000
0000
0000
0000
0100
0000
0010
0100
0000
0100
,  // measure 14
1000
0000
0010
0000
0100
0000
0001
0000
0000
0000
0010
0000
0100
0010
0000
0010
,  // measure 15
0001
0000
0100
0000
0010
0000
0100
0000
0000
0000
0001
0000
1000
0100
0000
0100
,  // measure 16
1000
0000
0010
0000
0001
0000
0010
0000
1000
0000
0000
0100
0000
0000
0010
0000
,  // measure 17
0001
0000
0100
0000
0010
0000
1000
0000
0000
0000
0001
0000
1000
0100
1000
0000
,  // measure 18
0001
0100
0010
0100
0001
0010
1000
0010
,  // measure 19
0001
0000
1000
0000
0010
0000
0100
0000
0000
0000
0001
0000
1000
0100
1000
0000
,  // measure 20
0001
0001
0000
1000
1000
0000
0001
0001
,  // measure 21
0000
1000
0010
0100
0001
0010
0100
1000
,  // measure 22
0001
0000
0000
0100
0000
0000
0001
0000
1000
0000
0000
0100
0000
0000
1000
0000
,  // measure 23
0001
0100
0010
1000
0100
0010
0100
1000
,  // measure 24
0001
0000
0000
0010
0000
0000
0001
0000
1000
0000
0000
0010
0000
0000
1000
0000
,  // measure 25
0001
0000
0010
0000
0100
0000
1000
0000
0010
0000
0100
0010
0100
0000
0001
0000
,  // measure 26
1000
0000
0000
0100
0000
0000
1000
0000
0001
0000
0000
0100
0000
0000
0001
0000
,  // measure 27
1000
0100
0010
0100
1000
0010
0100
0001
,  // measure 28
0020
0000
0000
0230
,  // measure 29
2300
0000
0000
3001
1000
0001
2000
0000
0000
3020
0000
0000
,  // measure 30
1030
0100
1000
0001
0100
0001
1000
0010
,  // measure 31
1000
0001
0010
0001
1000
0010
0100
0001
,  // measure 32
1000
0100
1000
0001
0100
0001
1000
0010
,  // measure 33
1000
0001
0010
0001
1000
0100
0010
0001
,  // measure 34
1000
0010
0100
0001
0010
0100
1000
0001
,  // measure 35
0010
0001
1000
0010
1000
0100
0001
0100
,  // measure 36
1000
0010
0100
0010
1000
0100
0010
0001
,  // measure 37
1000
0000
0000
0000
1001
0000
0000
0000
0001
0000
1000
0001
1000
0000
0001
0000
,  // measure 38
0000
1000
0010
0000
0010
0100
0001
0000
,  // measure 39
1000
0000
0100
0000
0010
0000
0100
0000
0000
0000
1000
0000
0001
0100
0000
0100
,  // measure 40
0001
0000
0010
0000
0100
0000
0010
0000
0000
0000
0001
0000
1000
0010
0000
0010
,  // measure 41
1000
0000
0001
0000
0010
0000
0001
0000
0000
0000
0100
0000
0010
1000
0000
1000
,  // measure 42
0001
0000
0010
0000
1000
0000
0010
0000
0001
0000
0000
0100
0000
0000
0010
0000
,  // measure 43
1000
0000
0100
0000
0010
0000
0001
0000
0000
0000
0100
0000
0010
1000
0010
0000
,  // measure 44
1000
0100
0010
0100
1000
0010
0001
0010
,  // measure 45
1000
0000
0001
0000
0010
0000
0100
0000
0000
0000
1000
0000
0001
0100
0001
0000
,  // measure 46
1000
0000
0100
0000
0010
0001
0000
0001
0100
0000
0010
0000
1000
0100
0000
1000
,  // measure 47
0001
0000
0100
0000
0010
0000
0100
0000
0000
0000
0001
0000
1000
0100
0000
0100
,  // measure 48
1000
0000
0010
0000
0100
0000
0010
0000
0000
0000
1000
0000
0001
0010
0000
0010
,  // measure 49
0001
0000
1000
0000
0010
0000
1000
0000
0000
0000
0100
0000
0010
0001
0000
0001
,  // measure 50
1000
0000
0010
0000
0001
0000
0010
0000
1000
0000
0000
0100
0000
0000
0010
0000
,  // measure 51
0001
0000
0100
0000
0010
0000
1000
0000
0000
0000
0100
0000
0010
0001
0010
0000
,  // measure 52
0001
0100
0010
0100
0001
0010
1000
0010
,  // measure 53
0001
0000
1000
0000
0010
0000
0100
0000
0000
0000
0001
0000
1000
0100
1000
0000
,  // measure 54
0001
0000
0100
0000
0010
1000
0000
1000
0100
0000
0010
0000
0001
1000
0000
0001
,  // measure 55
1000
0000
0010
0000
0100
0000
0010
0000
1000
0000
0100
0000
1000
0001
1000
0000
,  // measure 56
0001
0100
0010
1000
0001
0010
0100
1000
,  // measure 57
0020
0000
0000
0000
,  // measure 58
1030
0000
0100
0000
1000
0000
0001
0000
0000
0000
0100
0000
0010
1000
0000
1000
,  // measure 59
0001
0000
0010
0000
0001
0000
1000
0000
0000
0000
0010
0000
0100
0001
0000
0001
,  // measure 60
1000
0000
0001
0000
0010
0000
0001
0000
0000
0000
0100
0000
0010
1000
0000
1000
,  // measure 61
0001
0000
0010
0000
1000
0000
0010
0000
0001
0000
0000
0100
0000
0000
0010
0000
,  // measure 62
1000
0000
0100
0000
0010
0000
0001
0000
0000
0000
0100
0000
0010
1000
0010
0000
,  // measure 63
1000
0100
0010
0100
1000
0010
0001
0010
,  // measure 64
1000
0000
0100
0000
1000
0000
0001
0000
0000
0000
0100
0000
0001
0010
0001
0000
,  // measure 65
1000
0000
0010
0000
0100
0001
0000
0001
0010
0000
0100
0000
1000
0010
0000
1000
,  // measure 66
0001
0000
0100
0000
0001
0000
1000
0000
0000
0000
0100
0000
0010
0001
0000
0001
,  // measure 67
1000
0000
0010
0000
1000
0000
0001
0000
0000
0000
0010
0000
0100
1000
0000
1000
,  // measure 68
0001
0000
1000
0000
0010
0000
1000
0000
0000
0000
0100
0000
0010
0001
0000
0001
,  // measure 69
1000
0000
0010
0000
0001
0000
0010
0000
1000
0000
0000
0100
0000
0000
0010
0000
,  // measure 70
0001
0000
0100
0000
0010
0000
1000
0000
0000
0000
0100
0000
0010
0001
0010
0000
,  // measure 71
0001
0100
0010
0100
0001
0010
1000
0010
,  // measure 72
0001
0000
0100
0000
0001
0000
1000
0000
0000
0000
0100
0000
1000
0010
1000
0000
,  // measure 73
0001
0100
1000
0100
,  // measure 74
0001
0010
0100
1000
,  // measure 75
0010
0100
0001
1000
,  // measure 76
0002
0000
1000
0000
,  // measure 77
1003
0100
0010
0100
1000
0010
0100
0001
,  // measure 78
0010
0000
0001
1000
0001
0000
1000
0001
1000
0000
0010
0000
0100
0000
0220
0000
,  // measure 79
0000
0000
0000
0000
0000
0000
0000
0330
;

//---------------dance-single - ----------------
#NOTES:
     dance-single:
     :
     Medium:
     10:
     0.472658,0.526142,0.080047,0.008894,0.000000,372.000000,363.000000,9.000000,1.000000,0.000000,0.000000,0.472658,0.526142,0.080047,0.008894,0.000000,372.000000,363.000000,9.000000,1.000000,0.000000,0.000000:
0000
0000
0000
0000
,
0000
0000
0000
0000
,
0000
0000
0000
0000
,
0000
0000
0000
0000
,
0000
0000
0000
0000
,
1000
0000
0010
0000
1000
0000
0001
0010
,
0001
0000
0100
0000
0001
0000
1000
0100
,
1000
0000
0010
0000
0100
0000
0001
1000
,
0001
0000
0010
0000
0100
1000
0001
1000
,
0001
0000
0100
0000
0010
0000
1000
0001
,
1000
0000
0100
0000
0010
0001
0000
1000
,
0001
0000
1000
0000
0010
0000
0100
0001
,
1000
0100
1000
0100
0010
0000
0001
0000
,
1001
0000
1000
0000
0001
0000
1000
0010
,
1000
0000
0100
0000
1000
0000
0001
0100
,
0001
0000
0010
0000
0100
0000
1000
0001
,
1000
0000
0010
0000
0100
0001
1000
0001
,
1000
0000
0100
0000
0010
0000
0001
1000
,
0001
0000
0100
0000
0010
1000
0000
0001
,
1000
0000
0010
0000
1000
0100
1000
0100
,
1000
0001
0000
0001
1000
0000
1000
0001
,
0000
0000
0000
1001
,
1000
0100
0001
0100
,
1000
0010
0100
0001
,
1000
0010
0001
0010
,
1000
0100
0010
0001
,
1000
0010
0100
0010
,
1000
0100
0010
0001
,
2000
0000
0000
3001
,
0100
0000
0001
1000
0001
0000
0010
0000
,
0001
0100
0000
0100
0010
0000
0010
1000
,
0000
1000
0100
0000
1000
0001
1000
0001
,
1000
0100
0000
0100
0010
0000
0010
0001
,
0000
0001
0100
0000
0001
1000
0001
1000
,
0001
0001
0100
0010
,
0010
1000
0100
0100
,
0010
0010
0001
0001
,
1000
0000
1001
0000
0001
1000
0001
1000
,
0000
0100
0010
0000
0110
0000
0000
0000
,
1000
0000
0010
0000
1000
0000
0001
1000
,
0001
0000
0010
0000
0001
0000
1000
0001
,
1000
0000
0100
0000
1000
0000
0001
1000
,
0001
0000
0100
0000
0001
0010
0001
0010
,
0100
0000
1000
0000
0010
0000
1000
0001
,
1000
0000
0010
0000
0100
0001
0000
1000
,
0001
0000
0010
0000
0100
1000
0010
1000
,
0001
0000
1000
0001
,
1001
0000
1000
0000
0001
0000
1000
0001
,
1000
0000
0010
0000
1000
0000
0001
1000
,
0001
0000
0100
0000
0001
0000
1000
0001
,
1000
0000
0100
0000
1000
0010
1000
0010
,
0100
0000
0001
0000
0010
0000
0001
1000
,
0001
0000
0010
0000
0100
1000
0000
0001
,
1000
0000
0010
0000
0100
0001
0010
0001
,
1000
0010
1000
0010
0100
0000
0001
0000
,
0010
0100
0010
0100
1000
0000
0010
0000
,
1000
0001
1000
0001
0010
0000
0100
0000
,
1000
0000
0000
0000
,
0001
0000
1000
0000
0010
0000
1000
0100
,
1000
0000
0001
0000
0010
0000
0001
0100
,
0001
0000
1000
0000
0100
0000
1000
0010
,
1000
0000
0001
0000
0010
0001
0010
0001
,
1000
0000
0010
0000
1000
0000
0001
1000
,
0001
0000
0010
0000
0100
1000
0000
0001
,
1000
0000
0010
0000
0100
0001
0100
0001
,
0010
0000
0001
1000
,
1001
0000
0001
0000
0010
0000
0001
0100
,
0001
0000
1000
0000
0010
0000
1000
0100
,
1000
0000
0001
0000
0100
0000
0001
0010
,
0001
0000
1000
0000
0010
1000
0010
1000
,
0001
0000
0010
0000
0001
0000
1000
0001
,
1000
0000
0010
0000
0100
0001
0000
1000
,
0001
0000
0010
0000
0100
1000
0100
1000
,
0010
0100
0001
0010
,
0001
0100
0010
1000
,
0001
0010
0100
1000
,
1001
0000
0110
0000
,
1001
0000
0001
0000
1000
0010
1000
0001
,
0010
0100
0010
0100
1000
0001
1000
0001
;

//---------------dance-single - ----------------
#NOTES:
     dance-single:
     :
     Easy:
     7:
     0.350682,0.350761,0.115623,0.026682,0.000000,276.000000,263.000000,13.000000,3.000000,0.000000,0.000000,0.350682,0.350761,0.115623,0.026682,0.000000,276.000000,263.000000,13.000000,3.000000,0.000000,0.000000:
0000
0000
0000
0000
,
0000
0000
0000
0000
,
0000
0000
0000
0000
,
0000
0000
0000
0000
,
0000
0000
0000
0000
,
1001
0001
0010
0100
,
1000
0010
0100
0001
,
0010
0100
0010
0001
,
1000
0010
0100
0010
,
1000
0100
0010
0001
,
0100
0010
0100
0001
,
0010
0100
1000
0010
,
0100
0000
0001
0000
,
1001
1000
0010
0100
,
0001
0010
0100
1000
,
0010
0100
0010
1000
,
0001
0010
0100
0010
,
0001
0100
0010
1000
,
0100
0010
0100
1000
,
0010
0100
0001
0010
,
0100
0000
0000
0100
0000
0000
0100
0000
,
0000
0000
0000
1000
,
1001
0001
0100
0010
,
0100
0001
0010
0100
,
1000
0010
0100
0010
,
1000
0100
0010
0001
,
1000
1000
0001
0001
,
0100
0010
1000
0100
,
0020
0000
0000
0130
,
1000
0010
0100
0001
,
1000
1000
0001
0001
,
1000
1000
0001
0100
,
0001
0001
1000
1000
,
0001
0001
1000
0100
,
1000
0010
0100
0001
,
1000
0100
0010
0001
,
1000
0001
0100
0010
,
1000
0000
1000
0000
0001
0000
1000
0001
,
0000
0000
0000
0000
,
1001
0001
0010
0100
,
1000
0010
0100
0001
,
0010
0100
0010
0001
,
0100
0010
1000
0001
,
1000
0100
0010
0001
,
0100
0010
0100
0001
,
0010
0100
1000
0010
,
0100
0000
0010
0000
,
1001
1000
0010
0100
,
0001
0010
0100
1000
,
0010
0100
0010
1000
,
0100
0010
0001
1000
,
0001
0100
0010
1000
,
0100
0010
0100
1000
,
0010
0100
0001
0010
,
0100
0000
0010
0000
,
0001
0000
1000
0000
,
0001
1000
0001
1000
,
0100
0000
0000
0000
,
1001
1000
0001
0001
,
0010
0100
0010
0001
,
1000
1000
0001
0001
,
1000
0010
0100
0010
,
1000
0100
0010
0001
,
0100
0010
1000
0001
,
1000
0100
1000
0001
,
0100
0000
0001
1000
,
1001
0001
1000
1000
,
0010
0100
0010
1000
,
0001
0001
1000
1000
,
0001
0010
0100
0010
,
0001
0100
0010
1000
,
0100
0010
0001
1000
,
0001
0100
0001
1000
,
0100
0000
1000
0000
,
1001
0000
0000
0000
,
0110
0000
0000
0000
,
1001
0000
0110
0000
,
0001
0001
1000
1000
,
2002
0000
0000
0000
3003
0000
0000
1001
;

//---------------dance-single - ----------------
#NOTES:
     dance-single:
     :
     Beginner:
     4:
     0.171529,0.175381,0.000000,0.000000,0.000000,135.000000,135.000000,0.000000,0.000000,0.000000,0.000000,0.171529,0.175381,0.000000,0.000000,0.000000,135.000000,135.000000,0.000000,0.000000,0.000000,0.000000:
0000
0000
0000
0000
,
0000
0000
0000
0000
,
0000
0000
0000
0000
,
0000
0000
0000
0000
,
0000
0000
0000
0000
,
1000
0000
0001
0000
,
1000
0000
0001
0000
,
0100
0000
0010
0000
,
0100
0000
0010
0000
,
1000
0000
0001
0000
,
1000
0000
0001
0000
,
0010
0000
0100
0000
,
0010
0000
0100
0000
,
1000
0000
0010
0000
,
1000
0000
0010
0000
,
0100
0000
0001
0000
,
0100
0000
0001
0000
,
1000
0000
0100
0000
,
1000
0000
0100
0000
,
0010
0000
0001
0000
,
0010
0000
0000
0000
,
0000
0000
0000
0000
,
0001
0000
1000
0000
,
0001
0000
0000
0000
,
1000
0000
0001
0000
,
1000
0000
0000
0000
,
0010
0000
0100
0000
,
0010
0000
0000
0000
,
0100
0000
0000
0000
,
0010
0000
1000
0000
,
0001
0000
0001
0000
,
1000
0000
1000
0000
,
0100
0000
0100
0000
,
0010
0000
0010
0000
,
0001
0000
0000
0001
,
0000
0000
1000
0000
,
0001
0000
0100
0000
,
0010
0000
1000
0000
,
0000
0000
0000
0000
,
0001
0000
1000
0000
,
0001
0000
1000
0000
,
0010
0000
0100
0000
,
0010
0000
0100
0000
,
0001
0000
1000
0000
,
0001
0000
1000
0000
,
0100
0000
0010
0000
,
0100
0000
0010
0000
,
0001
0000
0100
0000
,
0001
0000
0100
0000
,
0010
0000
1000
0000
,
0010
0000
1000
0000
,
0100
0000
0010
0000
,
0100
0000
0010
0000
,
0001
0000
1000
0000
,
0001
0000
1000
0000
,
0100
0000
0010
0000
,
0001
0000
1000
0000
,
0001
0000
0000
0000
,
1000
0000
0001
0000
,
1000
0000
0001
0000
,
0100
0000
0010
0000
,
0100
0000
0010
0000
,
1000
0000
0001
0000
,
1000
0000
0001
0000
,
0010
0000
0100
0000
,
0010
0000
0100
0000
,
1000
0000
0010
0000
,
1000
0000
0010
0000
,
0100
0000
0001
0000
,
0100
0000
0001
0000
,
0010
0000
0100
0000
,
0010
0000
0100
0000
,
1000
0000
0001
0000
,
1000
0000
0001
0000
,
1000
0000
0000
0000
,
0001
0000
0000
0000
,
1000
0000
0001
0000
,
1000
0000
0001
0000
,
1000
0000
0000
0000
0000
0000
0000
0001
;
