#VERSION:0.83;
#TITLE:DUE TOMORROW;
#SUBTITLE:;
#ARTIST:Mr.T;
#TITLETRANSLIT:;
#SUBTITLETRANSLIT:;
#ARTISTTRANSLIT:;
#GENRE:TECHNO;
#ORIGIN:;
#CREDIT:;
#BANNER:DUE TOMORROW.png;
#BACKGROUND:DUE TOMORROW-bg.png;
#PREVIEWVID:;
#JACKET:DUE TOMORROW-jacket.png;
#CDIMAGE:;
#DISCIMAGE:;
#LYRICSPATH:;
#CDTITLE:cdtitle.png;
#MUSIC:DUE TOMORROW.ogg;
#OFFSET:-0.380000;
#SAMPLESTART:20.757854;
#SAMPLELENGTH:9.674999;
#SELECTABLE:YES;
#BPMS:0.000=400.000,
328.000=100.000,
344.000=400.000,
408.000=200.000,
424.000=400.000,
456.000=200.000,
488.000=400.000;
#STOPS:;
#DELAYS:;
#WARPS:;
#TIMESIGNATURES:0.000=4=4;
#TICKCOUNTS:0.000=4;
#COMBOS:0.000=1;
#SPEEDS:0.000=1.000=0.000=0;
#SCROLLS:0.000=1.000;
#FAKES:;
#LABELS:0.000=Song Start;
#BGCHANGES:0.000=DUE TOMORROW.avi=1.000=0=0=0=StretchNoLoop==CrossFade_Fastest==,
99999=-nosongbg-=1.000=0=0=0 // don't automatically add -songbackground-
;
#KEYSOUNDS:;
#ATTACKS:
;

//---------------dance-single - ----------------
#NOTEDATA:;
#CHARTNAME:;
#STEPSTYPE:dance-single;
#DESCRIPTION:;
#CHARTSTYLE:;
#DIFFICULTY:Challenge;
#METER:18;
#RADARVALUES:1.031847,1.855444,0.126718,0.136466,0.092602,741.000000,728.000000,13.000000,14.000000,0.000000,0.000000,0.000000,0.000000,0.000000,1.031847,1.855444,0.126718,0.136466,0.092602,741.000000,728.000000,13.000000,14.000000,0.000000,0.000000,0.000000,0.000000,0.000000;
#CREDIT:;
#NOTES:
// measure 0
0000
0000
0000
0000
,  // measure 1
0000
0000
0000
0000
,  // measure 2
0000
0000
0000
0000
,  // measure 3
0000
0000
0000
0000
,  // measure 4
0000
0000
0000
0000
,  // measure 5
0000
0000
0000
0000
,  // measure 6
0000
0000
0000
0000
,  // measure 7
0000
0000
0000
0000
,  // measure 8
0000
0000
0000
0000
,  // measure 9
0000
0000
0000
0000
,  // measure 10
1000
0000
0001
0100
0001
0100
0000
0000
,  // measure 11
0001
0000
1000
0100
1000
0100
0000
0000
,  // measure 12
1000
0000
0001
0010
0001
0010
0000
0000
,  // measure 13
0001
0000
1000
0010
1000
0010
0000
0000
,  // measure 14
1000
0000
0001
0100
0010
1000
0000
0000
,  // measure 15
0001
0000
1000
0100
0010
0001
0000
0000
,  // measure 16
2002
0000
0000
0000
,  // measure 17
0000
0000
0000
3003
,  // measure 18
1000
0000
0100
0010
0000
0010
0001
0000
,  // measure 19
0001
0100
0000
0100
0010
0000
1000
0000
,  // measure 20
0001
0000
0010
0100
0000
0100
0010
0000
,  // measure 21
0010
0001
0000
0001
0100
0000
0010
0000
,  // measure 22
1000
0000
0001
0100
0000
0100
0010
0000
,  // measure 23
1000
0001
0000
0001
0010
0000
0100
0000
,  // measure 24
1000
0100
1000
0100
0010
0001
0010
0001
,  // measure 25
1000
0010
0100
0010
1000
0100
0010
0000
,  // measure 26
0001
0000
0010
0100
0000
0100
0010
0000
,  // measure 27
0010
0001
0000
0001
0100
0000
0010
0000
,  // measure 28
1000
0000
0010
0100
0000
0100
0010
0000
,  // measure 29
0010
1000
0000
1000
0100
0000
0010
0000
,  // measure 30
0001
0000
1000
0010
0000
0010
0100
0000
,  // measure 31
0100
0001
0000
0001
0010
0000
0100
0000
,  // measure 32
1000
0010
1000
0010
0100
0001
0100
0001
,  // measure 33
1000
0100
0010
0100
1000
0010
0100
0000
,  // measure 34
0001
0010
0001
0000
1000
0010
0000
0000
,  // measure 35
1000
0100
1000
0000
0001
0100
0000
0000
,  // measure 36
0001
1000
0001
0000
1000
0010
0000
0000
,  // measure 37
1000
0001
1000
0000
0001
0010
0000
0000
,  // measure 38
0001
1000
0001
0000
1000
0100
0000
0000
,  // measure 39
1000
0001
1000
0000
0001
0100
0000
0000
,  // measure 40
0001
1000
0001
0000
1000
0010
1000
0010
,  // measure 41
1000
0100
0010
0001
0100
0010
1000
0001
,  // measure 42
1000
0100
1000
0000
0001
0100
0000
0000
,  // measure 43
0001
0010
0001
0000
1000
0010
0000
0000
,  // measure 44
1000
0001
1000
0000
0001
0100
0000
0000
,  // measure 45
0001
1000
0001
0000
1000
0100
0000
0000
,  // measure 46
1000
0001
1000
0000
0001
0010
0000
0000
,  // measure 47
0001
1000
0001
0000
1000
0010
0000
0000
,  // measure 48
1000
0100
1000
0000
0001
0100
0001
0100
,  // measure 49
0001
0010
0100
1000
0010
0100
0001
1000
,  // measure 50
0001
0000
1000
0010
0000
0010
0100
0000
,  // measure 51
0100
0001
0000
0001
0010
0000
0100
0000
,  // measure 52
1000
0000
0001
0010
0000
0010
0100
0000
,  // measure 53
0100
1000
0000
1000
0010
0000
0100
0000
,  // measure 54
0001
0000
1000
0100
0000
0100
0010
0000
,  // measure 55
0010
0001
0000
0001
0100
0000
0010
0000
,  // measure 56
1000
0100
1000
0100
0010
0001
0010
0001
,  // measure 57
1000
0010
0100
0010
1000
0100
0010
0000
,  // measure 58
0001
0000
1000
0010
0000
0010
1000
0000
,  // measure 59
1000
0100
0000
0100
0010
0000
0001
0000
,  // measure 60
1000
0000
0001
0010
0000
0010
0001
0000
,  // measure 61
0001
0100
0000
0100
0010
0000
1000
0000
,  // measure 62
0001
0000
1000
0100
0000
0100
0010
0000
,  // measure 63
0010
0001
0000
0001
1000
0000
0001
0000
,  // measure 64
1000
0010
1000
0010
0100
0001
0100
0001
,  // measure 65
1000
0100
0010
0100
1000
0010
0100
0000
,  // measure 66
0001
1000
0100
0000
1000
0010
0000
0000
,  // measure 67
1000
0001
0100
0000
0001
0010
0000
0000
,  // measure 68
0001
1000
0010
0000
1000
0100
0000
0000
,  // measure 69
1000
0001
0010
0000
0001
0100
0000
0000
,  // measure 70
0001
0010
0001
0000
1000
0010
0000
0000
,  // measure 71
1000
0100
1000
0000
0001
0100
0000
0000
,  // measure 72
0001
1000
0001
0000
0010
0100
0010
0100
,  // measure 73
1000
0001
0100
0010
0100
0001
1000
0100
,  // measure 74
1000
0001
0100
0000
0001
0010
0000
0000
,  // measure 75
0001
1000
0100
0000
1000
0010
0000
0000
,  // measure 76
1000
0001
0010
0000
0001
0100
0000
0000
,  // measure 77
0001
1000
0010
0000
1000
0100
0000
0000
,  // measure 78
1000
0010
1000
0000
0001
0010
0000
0000
,  // measure 79
0001
0100
0001
0000
1000
0100
0000
0000
,  // measure 80
1000
0001
1000
0000
0010
0100
0010
0100
,  // measure 81
0001
1000
0100
0010
0100
1000
0001
0100
,  // measure 82
0002
1000
1000
1000
1000
1000
1000
1003
,  // measure 83
2010
0010
0010
0010
0010
0010
0010
3010
,  // measure 84
0120
0100
0100
0100
0100
0100
0100
0130
,  // measure 85
0201
0001
0001
0301
0012
0010
0010
0013
,  // measure 86
1001
1000
0100
0010
,  // measure 87
0100
1000
0100
0001
,  // measure 88
0100
1000
0010
0100
,  // measure 89
0001
0010
0001
0000
1000
0010
1000
0000
,  // measure 90
1001
0001
0100
0010
,  // measure 91
0100
0001
0100
1000
,  // measure 92
0100
0001
0010
0100
,  // measure 93
1000
0010
1000
0000
0001
0010
0001
0000
,  // measure 94
1001
1000
0010
0100
,  // measure 95
0010
1000
0010
0001
,  // measure 96
0010
1000
0100
0010
,  // measure 97
0001
0100
0001
0000
1000
0100
1000
0000
,  // measure 98
1001
0001
0010
0100
,  // measure 99
0010
0001
0010
1000
,  // measure 100
0010
0001
0100
0010
1000
0100
0010
0001
,  // measure 101
0200
0000
0000
0000
,  // measure 102
0301
0000
0000
0000
1000
0000
0001
0000
0000
0000
1000
0000
0100
0000
0010
0100
,  // measure 103
0010
0000
0100
0000
0000
0000
1000
0000
0010
0000
0100
0001
0100
0000
0001
0000
,  // measure 104
0010
0000
0000
0000
0001
0000
1000
0000
0000
0000
0001
0000
0100
0000
0010
0100
,  // measure 105
0010
0000
1000
0010
1000
0100
0010
0000
0001
0000
0001
0000
1000
0001
1000
0001
,  // measure 106
1000
0100
1000
0000
0001
0100
0001
0000
,  // measure 107
1000
0010
1000
0010
0100
0001
0100
0001
,  // measure 108
1000
0010
1000
0000
0001
0010
0001
0000
,  // measure 109
1000
0100
1000
0100
0010
0001
0010
0001
,  // measure 110
1000
0100
0010
0000
0001
0100
0010
0000
,  // measure 111
1000
0001
1000
0001
0010
0100
0010
0100
,  // measure 112
1000
0010
1000
0010
0100
0001
0100
0001
,  // measure 113
1000
0100
1000
0100
0010
0001
0010
0001
,  // measure 114
0200
0000
0000
0000
,  // measure 115
0300
0000
0000
0000
0000
0000
0010
0110
,  // measure 116
0000
0000
0000
0000
,  // measure 117
0200
0000
0000
0000
0000
0000
0000
0301
,  // measure 118
2002
0000
0000
0000
0000
0000
0000
0000
3003
0000
0000
0000
0000
0000
1000
0010
,  // measure 119
2000
0000
0000
0000
0000
0000
0000
0000
3000
0000
0000
0000
0000
0000
0001
0010
,  // measure 120
0001
0000
1001
0000
0000
0000
1000
0001
0100
0001
1000
0000
0000
0000
1001
0000
,  // measure 121
1000
0001
1000
0001
0100
0010
0100
0010
1000
0001
1000
0001
0010
0100
0010
0100
,  // measure 122
1000
0000
0001
0100
0001
0100
0010
0000
,  // measure 123
1000
0000
0001
0010
0001
0010
0100
0000
,  // measure 124
1000
0000
0100
0010
0100
0010
0001
0000
,  // measure 125
1000
0000
0010
0100
0010
0100
0001
0000
,  // measure 126
1000
0000
0001
1000
0100
1000
0001
0000
,  // measure 127
1000
0000
0001
1000
0010
1000
0001
0000
,  // measure 128
1000
0000
0001
0100
0010
0100
0001
0000
,  // measure 129
1000
0000
0001
0010
0100
0010
0001
0000
,  // measure 130
1000
0100
0010
0001
0100
0010
1000
0000
,  // measure 131
0001
0010
0100
1000
0010
0100
0001
0000
,  // measure 132
1000
0001
0100
0001
1000
0100
0010
0000
,  // measure 133
0001
1000
0100
1000
0001
0100
0010
0000
,  // measure 134
1000
0100
0001
0100
1000
0010
0100
0000
,  // measure 135
0001
0100
1000
0100
0001
0010
0100
0000
,  // measure 136
1000
0100
0010
0100
1000
0010
0100
0001
,  // measure 137
0010
0100
0010
0001
0100
0010
1000
0001
,  // measure 138
0020
0000
0000
0000
,  // measure 139
0000
0000
0000
0000
,  // measure 140
0000
0000
0000
0000
,  // measure 141
0030
0000
0000
0000
;

//---------------dance-single - ----------------
#NOTEDATA:;
#CHARTNAME:;
#STEPSTYPE:dance-single;
#DESCRIPTION:;
#CHARTSTYLE:;
#DIFFICULTY:Hard;
#METER:16;
#RADARVALUES:0.845251,1.168243,0.009748,0.146213,0.029243,607.000000,606.000000,1.000000,15.000000,0.000000,0.000000,0.000000,0.000000,0.000000,0.845251,1.168243,0.009748,0.146213,0.029243,607.000000,606.000000,1.000000,15.000000,0.000000,0.000000,0.000000,0.000000,0.000000;
#CREDIT:;
#NOTES:
0000
0000
0000
0000
,
0000
0000
0000
0000
,
0000
0000
0000
0000
,
0000
0000
0000
0000
,
0000
0000
0000
0000
,
0000
0000
0000
0000
,
0000
0000
0000
0000
,
0000
0000
0000
0000
,
0000
0000
0000
0000
,
0000
0000
0000
0000
,
1000
0010
0100
0001
,
0010
0100
1000
0001
,
1000
0010
0100
0010
,
1000
0100
0010
0001
,
1000
0001
0100
0010
,
0100
0001
0010
0100
,
2002
0000
0000
0000
,
0000
0000
0000
3003
,
1000
0100
0010
0100
,
1000
0010
0000
1000
0010
0000
0100
0000
,
0001
0010
0100
0010
,
0001
0100
0000
0001
0100
0000
0010
0000
,
1000
0001
0100
0001
,
1000
0100
0000
1000
0001
0000
1000
0000
,
0001
0010
0001
0000
1000
0100
1000
0000
,
0001
0100
0001
0100
0010
1000
0010
1000
,
0001
0100
0010
0100
,
0001
0010
0000
0001
0010
0000
0100
0000
,
1000
0010
0100
0010
,
1000
0100
0000
1000
0100
0000
0010
0000
,
0001
1000
0100
1000
,
0001
0100
0000
0001
1000
0000
0001
0000
,
1000
0010
1000
0000
0001
0100
0001
0000
,
1000
0010
1000
0010
0100
0001
0100
0001
,
1000
0010
1000
0000
0001
0010
0000
0000
,
0001
0100
0001
0000
1000
0100
0000
0000
,
1000
0010
1000
0000
0001
0010
0000
0000
,
0001
0100
0001
0000
1000
0100
0000
0000
,
1000
0010
1000
0000
0001
0010
0000
0000
,
0001
0100
0001
0000
1000
0100
0000
0000
,
1000
0010
1000
0000
0001
0000
0010
0000
,
0100
1000
0010
0100
,
0001
0010
0001
0000
1000
0010
0000
0000
,
1000
0100
1000
0000
0001
0100
0000
0000
,
0001
0010
0001
0000
1000
0010
0000
0000
,
1000
0100
1000
0000
0001
0100
0000
0000
,
0001
0010
0001
0000
1000
0010
0000
0000
,
1000
0100
1000
0000
0001
0100
0000
0000
,
0001
0010
0001
0000
1000
0000
0010
0000
,
0100
0001
0010
0100
,
1000
0100
0001
0100
,
1000
0100
0000
1000
0001
0000
0100
0000
,
0001
0010
1000
0010
,
0001
0010
0000
0001
1000
0000
0010
0000
,
1000
0100
0001
0100
,
1000
0100
0000
1000
0001
0000
0100
0000
,
0001
0010
0001
0000
1000
0100
1000
0000
,
0001
0100
0001
0100
0010
1000
0010
1000
,
0001
0010
1000
0010
,
0001
0010
0000
0001
1000
0000
0010
0000
,
1000
0100
0001
0100
,
1000
0100
0000
1000
0001
0000
0100
0000
,
0001
0010
1000
0010
,
0001
0010
0000
0001
1000
0000
0010
0000
,
1000
0100
1000
0000
0001
0010
0001
0000
,
1000
0100
1000
0100
0010
0001
0010
0001
,
1000
0001
1000
0000
0001
0100
0000
0000
,
0001
1000
0001
0000
1000
0100
0000
0000
,
1000
0001
1000
0000
0001
0010
0000
0000
,
0001
1000
0001
0000
1000
0010
0000
0000
,
1000
0001
1000
0000
0001
0100
0000
0000
,
0001
1000
0001
0000
1000
0100
0000
0000
,
1000
0001
1000
0000
0001
0000
0100
0000
,
0010
1000
0100
0010
,
0001
1000
0001
0000
1000
0010
0000
0000
,
1000
0001
1000
0000
0001
0010
0000
0000
,
0001
1000
0001
0000
1000
0100
0000
0000
,
1000
0001
1000
0000
0001
0100
0000
0000
,
0001
1000
0001
0000
1000
0010
0000
0000
,
1000
0001
1000
0000
0001
0010
0000
0000
,
0001
1000
0001
0000
1000
0000
0010
0000
,
0100
0001
0010
0100
,
2000
0010
0010
0010
0010
0010
0010
3010
,
0020
0100
0100
0100
0100
0100
0100
0130
,
0200
0001
0001
0001
0001
0001
0001
0301
,
0002
0010
0010
0013
0020
0100
0100
0130
,
1000
0001
1000
0001
,
0010
0100
0010
0100
,
1000
0001
1000
0001
,
1000
0010
1000
0000
0001
0010
0001
0000
,
1000
0001
1000
0001
,
0100
0010
0100
0010
,
1000
0001
1000
0001
,
1000
0100
1000
0000
0001
0100
0001
0000
,
1000
0010
1000
0010
,
0100
0001
0100
0001
,
1000
0100
1000
0100
,
1000
0001
1000
0000
0001
1000
0001
0000
,
0010
0001
0010
0001
,
1000
0010
1000
0010
,
1000
0100
0010
0001
0100
0010
1000
0100
,
0020
0000
0000
0000
,
0031
0000
1000
0010
0000
0100
0001
0010
,
0100
1000
0000
0001
0100
0010
0100
0001
,
1000
0000
0001
0010
0000
0100
1000
0010
,
0100
0000
0001
0010
0001
1000
0001
0000
1000
0000
1000
0000
0001
0000
0000
0000
,
1000
0100
0010
0100
,
1000
0010
0100
0001
,
1000
0001
0010
0100
,
0010
0001
0100
0010
,
1000
0001
1000
0001
,
0010
0100
0010
0100
,
1000
0010
1000
0010
0100
0001
0100
0001
,
0020
0000
0000
0000
,
0032
0000
0000
0000
,
0003
0000
0000
0000
0000
0000
1000
1000
,
0000
0000
0000
0000
,
0020
0000
0000
0000
0000
0000
0000
0130
,
0200
0000
0000
0000
0000
0000
0000
0000
0300
0000
0000
0000
0000
0000
0010
0100
,
0020
0000
0000
0000
0000
0000
0000
0000
0030
0000
0000
0000
0000
0000
1000
0001
,
1000
0000
0001
0000
0000
0000
1000
0100
0010
0100
1000
0000
0000
0000
0001
0000
,
0200
0000
0000
0000
,
0301
0100
0010
1000
,
0100
0010
0001
0100
,
0010
0100
0001
0010
,
0100
1000
0010
0100
,
0001
0010
0100
0010
,
0001
1000
0010
0100
,
0001
1000
0100
0010
,
0001
1000
0001
0100
,
0001
0000
1000
0000
0001
0010
0001
0000
,
1000
0000
0001
0000
1000
0010
1000
0000
,
0001
0000
1000
0000
0001
0100
0001
0000
,
1000
0000
0001
0000
1000
0100
1000
0000
,
0001
0000
1000
0000
0010
0100
0010
0000
,
1000
0000
0001
0000
0100
0010
0100
0000
,
0001
1000
0001
0000
1000
0010
1000
0000
,
0001
0100
0001
0100
0010
1000
0010
1000
,
0200
0000
0000
0000
,
0000
0000
0000
0000
,
0000
0000
0000
0000
,
0300
0000
0000
0000
;

//---------------dance-single - ----------------
#NOTEDATA:;
#CHARTNAME:;
#STEPSTYPE:dance-single;
#DESCRIPTION:;
#CHARTSTYLE:;
#DIFFICULTY:Medium;
#METER:13;
#RADARVALUES:0.679543,1.168243,0.009748,0.087728,0.019495,488.000000,487.000000,1.000000,9.000000,0.000000,0.000000,0.000000,0.000000,0.000000,0.679543,1.168243,0.009748,0.087728,0.019495,488.000000,487.000000,1.000000,9.000000,0.000000,0.000000,0.000000,0.000000,0.000000;
#CREDIT:;
#NOTES:
0000
0000
0000
0000
,
0000
0000
0000
0000
,
0000
0000
0000
0000
,
0000
0000
0000
0000
,
0000
0000
0000
0000
,
0000
0000
0000
0000
,
0000
0000
0000
0000
,
0000
0000
0000
0000
,
0000
0000
0000
0000
,
0000
0000
0000
0000
,
1000
0001
1000
0000
,
0001
0100
0010
0000
,
1000
0100
0010
0000
,
0001
1000
0001
0000
,
0100
0010
0100
0000
,
0010
1000
0010
0000
,
2002
0000
0000
0000
,
0000
0000
0000
3003
,
1000
0000
0000
1000
0000
0000
0001
0000
,
0000
0001
0000
0000
1000
0000
0100
0000
,
0010
0000
0000
0010
0000
0000
0100
0000
,
0000
0100
0000
0000
1000
0000
0001
0000
,
0010
0000
0000
0010
0000
0000
0100
0000
,
0000
0100
0000
0000
1000
0000
0001
0000
,
1000
0010
0100
0010
,
1000
0100
0010
0001
,
1000
0000
0000
1000
0000
0000
0010
0000
,
0000
0010
0000
0000
0100
0000
0001
0000
,
0010
0000
0000
0010
0000
0000
0100
0000
,
0000
0100
0000
0000
1000
0000
0001
0000
,
1000
0000
0000
1000
0000
0000
0010
0000
,
0000
0010
0000
0000
0100
0000
0001
0000
,
1000
0010
0100
0001
,
0010
0100
1000
0010
,
1000
0001
0000
0000
0001
0100
0000
0000
,
0100
0010
0000
0000
0010
1000
0000
0000
,
1000
0100
0000
0000
0100
0010
0000
0000
,
0010
0001
0000
0000
0001
0100
0000
0000
,
0100
0010
0000
0000
0010
1000
0000
0000
,
1000
0001
0000
0000
0001
0010
0000
0000
,
0010
0100
0000
0000
0100
0000
0010
0000
,
0001
0100
0010
1000
,
0001
1000
0000
0000
1000
0010
0000
0000
,
0010
0100
0000
0000
0100
0001
0000
0000
,
0001
0010
0000
0000
0010
0100
0000
0000
,
0100
1000
0000
0000
1000
0010
0000
0000
,
0010
0100
0000
0000
0100
0001
0000
0000
,
0001
0010
0000
0000
0010
0100
0000
0000
,
0100
1000
0000
0000
1000
0000
0010
0000
,
0100
0010
1000
0100
,
0010
0000
0000
0010
0000
0000
0100
0000
,
0000
0100
0000
0000
1000
0000
0010
0000
,
0100
0000
0000
0100
0000
0000
0001
0000
,
0000
0001
0000
0000
0010
0000
0100
0000
,
1000
0000
0000
1000
0000
0000
0001
0000
,
0000
0001
0000
0000
1000
0000
0100
0000
,
0010
0001
0100
0010
,
1000
0001
0100
0001
,
0010
0000
0000
0010
0000
0000
0001
0000
,
0000
0001
0000
0000
1000
0000
0010
0000
,
0100
0000
0000
0100
0000
0000
0010
0000
,
0000
0010
0000
0000
1000
0000
0100
0000
,
1000
0000
0000
1000
0000
0000
0010
0000
,
0000
0010
0000
0000
0100
0000
0001
0000
,
0010
0100
1000
0010
,
0100
0001
1000
0100
,
1000
0001
0000
0000
0001
0100
0000
0000
,
0100
0010
0000
0000
0010
1000
0000
0000
,
1000
0100
0000
0000
0100
0010
0000
0000
,
0010
0001
0000
0000
0001
0100
0000
0000
,
0100
0010
0000
0000
0010
1000
0000
0000
,
1000
0100
0000
0000
0100
0010
0000
0000
,
0001
0100
0000
0000
0100
0000
0001
0000
,
0010
0100
0010
0001
,
1000
0001
0000
0000
0001
0100
0000
0000
,
0100
0010
0000
0000
0010
1000
0000
0000
,
1000
0100
0000
0000
0100
0010
0000
0000
,
0010
0001
0000
0000
0001
0100
0000
0000
,
0100
0010
0000
0000
0010
1000
0000
0000
,
1000
0100
0000
0000
0100
0010
0000
0000
,
0010
0001
0000
0000
0001
0000
0100
0000
,
0010
1000
0100
0010
,
0001
0001
0001
0001
0001
0001
0001
0001
,
1000
1000
1000
1000
1000
1000
1000
1000
,
0010
0010
0010
0010
0010
0010
0010
0010
,
0100
0100
0100
0100
0002
0000
0000
0003
,
1000
0001
1000
0001
,
0100
0010
0100
0010
,
1000
0001
1000
0001
,
1000
0001
1000
0000
0001
1000
0001
0000
,
1000
0001
1000
0001
,
0010
0100
0010
0100
,
1000
0001
1000
0001
,
1000
0001
1000
0000
0001
1000
0001
0000
,
1000
0001
1000
0001
,
0100
0010
0100
0010
,
1000
0001
1000
0001
,
1000
0001
1000
0000
0001
1000
0001
0000
,
1000
0010
1000
0010
,
0100
0001
0100
0001
,
0010
0000
0100
0000
1000
0000
0001
0100
,
0002
0000
0000
0000
,
1003
0000
0010
0100
0000
0010
1000
0100
,
0010
0001
0000
0100
0000
0010
1000
0010
,
0100
0000
0001
0010
0000
0001
1000
0100
,
0010
0100
1000
0010
0100
0001
0010
0000
,
0001
0100
0010
0100
,
0001
0010
0100
1000
,
0001
0010
0100
0010
,
0001
0100
0010
1000
,
0001
0010
0001
1000
,
0010
1000
0100
0010
,
0001
0000
1000
0000
0001
0000
1000
0001
,
2000
0000
0000
0000
,
3002
0000
0000
0000
,
0003
0000
0000
0000
0000
0000
0100
0100
,
0000
0000
0000
0000
0000
0000
0000
0020
,
0000
0000
0000
0000
0000
0000
0000
0130
,
0100
0000
0000
0000
0000
0000
0000
0000
0000
0000
0000
0000
0000
0000
0001
1000
,
0001
0000
0000
0000
0000
0000
0000
0000
0000
0000
0000
0000
0000
0000
1000
0001
,
1000
0000
0001
0000
0000
0000
1000
0010
1000
0010
1000
0000
0000
0000
0002
0000
,
0000
0000
0000
0000
,
1003
0100
0010
0100
,
0001
0100
0010
0100
,
1000
0100
0010
0100
,
0001
0100
0010
0100
,
1000
0010
0100
0010
,
0001
0010
0100
0010
,
1000
0010
0100
0010
,
0001
0010
0100
0010
,
1000
0100
0010
0100
,
0001
0100
0010
0100
,
1000
0100
0010
0100
,
0001
0100
0010
0100
,
1000
0010
0100
0010
,
0001
0010
0100
0010
,
1000
0010
0100
0010
,
0001
0010
0100
0010
,
2000
0000
0000
0000
,
0000
0000
0000
0000
,
0000
0000
0000
0000
,
3000
0000
0000
0000
;

//---------------dance-single - ----------------
#NOTEDATA:;
#CHARTNAME:;
#STEPSTYPE:dance-single;
#DESCRIPTION:;
#CHARTSTYLE:;
#DIFFICULTY:Easy;
#METER:8;
#RADARVALUES:0.395472,0.618481,0.000000,0.087728,0.000000,284.000000,284.000000,0.000000,9.000000,0.000000,0.000000,0.000000,0.000000,0.000000,0.395472,0.618481,0.000000,0.087728,0.000000,284.000000,284.000000,0.000000,9.000000,0.000000,0.000000,0.000000,0.000000,0.000000;
#CREDIT:;
#NOTES:
0000
0000
0000
0000
,
0000
0000
0000
0000
,
0000
0000
0000
0000
,
0000
0000
0000
0000
,
0000
0000
0000
0000
,
0000
0000
0000
0000
,
0000
0000
0000
0000
,
0000
0000
0000
0000
,
0000
0000
0000
0000
,
0000
0000
0000
0000
,
1000
0000
0001
0000
,
1000
0000
0001
0000
,
0100
0000
0010
0000
,
0100
0000
0010
0000
,
1000
0000
0001
0000
,
1000
0000
0001
0000
,
2000
0000
0000
0000
,
0000
0000
0000
0000
,
3001
0000
0001
0000
,
1000
0001
1000
0000
,
0001
0000
0001
0000
,
1000
0001
1000
0000
,
0010
0000
0010
0000
,
0100
0010
0100
0000
,
0010
0000
0010
0000
,
0100
0000
0100
0000
,
0001
0000
0001
0000
,
1000
0001
1000
0000
,
0001
0000
0001
0000
,
1000
0001
1000
0000
,
0100
0000
0100
0000
,
0010
0100
0010
0000
,
0100
0000
0100
0000
,
1000
0000
1000
0000
,
0001
0000
0100
0000
,
0001
0000
0010
0000
,
0001
0000
0100
0000
,
0001
0000
0010
0000
,
0001
0000
0100
0000
,
0001
0000
0010
0000
,
0001
0000
0100
0000
,
0010
1000
0010
1000
,
0001
0000
0100
0000
,
0001
0000
0010
0000
,
0001
0000
0100
0000
,
0001
0000
0010
0000
,
0001
0000
0100
0000
,
0001
0000
0010
0000
,
0001
0000
0100
0000
,
0001
0010
0001
1000
,
0001
0000
1000
0000
,
0001
1000
0001
0000
,
1000
0000
1000
0000
,
0001
1000
0001
0000
,
0100
0000
0100
0000
,
0010
0100
0010
0000
,
0100
0000
0100
0000
,
0010
0000
0010
0000
,
1000
0000
1000
0000
,
0001
1000
0001
0000
,
1000
0000
1000
0000
,
0001
1000
0001
0000
,
0010
0000
0010
0000
,
0100
0010
0100
0000
,
0010
0000
0010
0000
,
0100
0000
0100
0000
,
1000
0000
0010
0000
,
1000
0000
0100
0000
,
1000
0000
0010
0000
,
1000
0000
0100
0000
,
1000
0000
0010
0000
,
1000
0000
0100
0000
,
1000
0000
0010
0000
,
0100
0001
0100
0001
,
1000
0000
0010
0000
,
1000
0000
0100
0000
,
1000
0000
0010
0000
,
1000
0000
0100
0000
,
1000
0000
0010
0000
,
1000
0000
0100
0000
,
1000
0000
0010
0000
,
0100
0001
0100
0001
,
0020
0000
0030
0000
,
0002
0000
0003
0000
,
0200
0000
0300
0000
,
0020
0000
2030
0000
,
3001
0000
0001
0000
,
1000
0000
1000
0000
,
0001
0000
0001
0000
,
1000
0001
1000
0001
,
1000
0000
1000
0000
,
0001
0000
0001
0000
,
1000
0000
1000
0000
,
0001
1000
0001
1000
,
0001
0000
0001
0000
,
1000
0000
1000
0000
,
0001
0000
0001
0000
,
1000
0001
1000
0001
,
1000
0000
1000
0000
,
0001
0000
0001
0000
,
1000
0001
1000
0001
,
2000
0000
0000
0000
,
3001
0000
0000
0100
0000
0000
0010
0000
,
1000
0000
0000
0100
0000
0000
0010
0000
,
0001
0000
0000
0100
0000
0000
0010
0000
,
1000
0100
0010
0001
,
1000
0000
0001
0000
,
1000
0000
0001
0000
,
0010
0000
0100
0000
,
0010
0000
0100
0000
,
1000
0000
0001
0000
,
1000
0000
0001
0000
,
1000
0100
1000
0001
,
0100
0000
0000
0000
,
0002
0000
0000
0000
,
0003
0000
0000
0000
0000
0000
0001
1000
,
0000
0000
0000
0000
,
0000
0000
0000
0000
0000
0000
0000
1000
,
0001
0000
0000
0000
0000
0000
0000
0001
,
1000
0000
0000
0000
0000
0000
0000
1000
,
0001
1000
0000
0001
1000
0001
0000
1000
,
0000
0000
0000
0000
,
0001
0000
0100
0000
,
0001
0000
0100
0000
,
0010
0000
1000
0000
,
0010
0000
1000
0000
,
0001
0000
0010
0000
,
0001
0000
0010
0000
,
0100
0000
1000
0000
,
0100
0000
1000
0000
,
0001
0000
1000
0000
,
0001
0000
0100
0000
,
0001
0000
0010
0000
,
0001
0000
1000
0000
,
0010
0000
1000
0000
,
0100
0000
1000
0000
,
0001
0000
1000
0000
,
0001
0100
0001
0100
,
0020
0000
0000
0000
,
0000
0000
0000
0000
,
0000
0000
0000
0000
,
0030
0000
0000
0000
;

//---------------dance-single - ----------------
#NOTEDATA:;
#CHARTNAME:;
#STEPSTYPE:dance-single;
#DESCRIPTION:;
#CHARTSTYLE:;
#DIFFICULTY:Beginner;
#METER:5;
#RADARVALUES:0.179633,0.274881,0.000000,0.058485,0.000000,129.000000,129.000000,0.000000,6.000000,0.000000,0.000000,0.000000,0.000000,0.000000,0.179633,0.274881,0.000000,0.058485,0.000000,129.000000,129.000000,0.000000,6.000000,0.000000,0.000000,0.000000,0.000000,0.000000;
#CREDIT:;
#NOTES:
0000
0000
0000
0000
,
0000
0000
0000
0000
,
0000
0000
0000
0000
,
0000
0000
0000
0000
,
0000
0000
0000
0000
,
0000
0000
0000
0000
,
0000
0000
0000
0000
,
0000
0000
0000
0000
,
0000
0000
0000
0000
,
0000
0000
0000
0000
,
1000
0000
0000
0000
,
0000
0000
0000
0000
,
0001
0000
0000
0000
,
0000
0000
0000
0000
,
1000
0000
0000
0000
,
0000
0000
0000
0000
,
0001
0000
0000
0000
,
0000
0000
0000
0000
,
1000
0000
0000
0000
,
1000
0000
0000
0000
,
0001
0000
0000
0000
,
0001
0000
0000
0000
,
0100
0000
0000
0000
,
0100
0000
0000
0000
,
0010
0000
0000
0000
,
0010
0000
0000
0000
,
1000
0000
0000
0000
,
1000
0000
0000
0000
,
0100
0000
0000
0000
,
0100
0000
0000
0000
,
0010
0000
0000
0000
,
0010
0000
0000
0000
,
0001
0000
0000
0000
,
0001
0000
0000
0000
,
1000
0000
0000
0000
,
0010
0000
0000
0000
,
1000
0000
0000
0000
,
0001
0000
0000
0000
,
0100
0000
0000
0000
,
0001
0000
0000
0000
,
0010
0000
0000
0000
,
0100
0000
0000
0000
,
1000
0000
0000
0000
,
0010
0000
0000
0000
,
0100
0000
0000
0000
,
0001
0000
0000
0000
,
0010
0000
0000
0000
,
0001
0000
0000
0000
,
1000
0000
0000
0000
,
0010
0000
0000
0000
,
1000
0000
0000
0000
,
1000
0000
0000
0000
,
0001
0000
0000
0000
,
0001
0000
0000
0000
,
0100
0000
0000
0000
,
0100
0000
0000
0000
,
0010
0000
0000
0000
,
0010
0000
0000
0000
,
1000
0000
0000
0000
,
1000
0000
0000
0000
,
0100
0000
0000
0000
,
0100
0000
0000
0000
,
0010
0000
0000
0000
,
0010
0000
0000
0000
,
0001
0000
0000
0000
,
0001
0000
0000
0000
,
1000
0000
0000
0000
,
0010
0000
0000
0000
,
0100
0000
0000
0000
,
0001
0000
0000
0000
,
1000
0000
0000
0000
,
0010
0000
0000
0000
,
1000
0000
0000
0000
,
0100
0000
0000
0000
,
1000
0000
0000
0000
,
0100
0000
0000
0000
,
0010
0000
0000
0000
,
0001
0000
0000
0000
,
1000
0000
0000
0000
,
0010
0000
0000
0000
,
0100
0000
0000
0000
,
0001
0000
0000
0000
,
2000
0000
3000
0000
,
0020
0000
0030
0000
,
0200
0000
0300
0000
,
0002
0000
0023
0000
,
0130
0000
0000
0000
,
0100
0000
0000
0000
,
0100
0000
0000
0000
,
1000
0000
0001
0000
,
0010
0000
0000
0000
,
0010
0000
0000
0000
,
0010
0000
0000
0000
,
0001
0000
1000
0000
,
0100
0000
0000
0000
,
0100
0000
0000
0000
,
0100
0000
0000
0000
,
1000
0000
0001
0000
,
0010
0000
0000
0000
,
0010
0000
0000
0000
,
0010
0000
0001
0000
,
1000
0000
0000
0000
,
0001
0000
0000
0000
,
1000
0000
0000
0000
,
0001
0000
0000
0000
,
1000
0000
0000
0000
,
0010
0000
0000
0000
,
0100
0000
0000
0000
,
0010
0000
0000
0000
,
0100
0000
0000
0000
,
0001
0000
0000
0000
,
1000
0000
0000
0000
,
0001
0000
0000
0000
,
1000
0000
0000
0000
,
0001
0000
0000
0000
,
0000
0000
0000
1000
,
0000
0000
0000
0000
,
0000
0000
0000
0000
,
0010
0000
0000
0000
,
0100
0000
0000
0000
,
0001
0000
0000
0000
1000
0000
0000
1000
,
0000
0000
0000
0000
,
0001
0000
0000
0000
,
0001
0000
0000
0000
,
1000
0000
0000
0000
,
1000
0000
0000
0000
,
0010
0000
0000
0000
,
0010
0000
0000
0000
,
0100
0000
0000
0000
,
0100
0000
0000
0000
,
0001
0000
0000
0000
,
0001
0000
0000
0000
,
0010
0000
0000
0000
,
0010
0000
0000
0000
,
0100
0000
0000
0000
,
0100
0000
0000
0000
,
1000
0000
0000
0000
,
1000
0000
0000
0000
,
0020
0000
0000
0000
,
0000
0000
0000
0000
,
0000
0000
0000
0000
,
0030
0000
0000
0000
;
