#TITLE:Crazy Party Night ~ぱんぷきんの逆襲~;
#SUBTITLE:;
#ARTIST:きゃりーぱみゅぱみゅ;
#TITLETRANSLIT:Crazy Party Night ~Pumpkin no Gyakushu~;
#SUBTITLETRANSLIT:Kyary Pamyu Pamyu;
#ARTISTTRANSLIT:;
#GENRE:J-POP;
#CREDIT:;
#BANNER:Crazy Party Night ~Pumpkin no Gyakushu~.png;
#BACKGROUND:Crazy Party Night ~Pumpkin no Gyakushu~-bg.png;
#LYRICSPATH:;
#CDTITLE:cdtitle.png;
#MUSIC:Crazy Party Night ~Pumpkin no Gyakushu~.ogg;
#OFFSET:-0.040000;
#SAMPLESTART:63.296913;
#SAMPLELENGTH:15.097187;
#SELECTABLE:YES;
#BPMS:0.000000=128.000000
;
#STOPS:
;
#BGCHANGES:0.000=Crazy Party Night ~Pumpkin no Gyakushu~.avi=1.000=0=0=0=StretchNoLoop==CrossFade_Fastest==,
99999=-nosongbg-=1.000=0=0=0 // don't automatically add -songbackground-
;
#KEYSOUNDS:;
#ATTACKS:;

//---------------dance-single - ----------------
#NOTES:
     dance-single:
     :
     Hard:
     10:
     0.415201,0.494018,0.146542,0.130259,0.032565,357.000000,339.000000,18.000000,16.000000,0.000000,0.000000,0.415201,0.494018,0.146542,0.130259,0.032565,357.000000,339.000000,18.000000,16.000000,0.000000,0.000000:
// measure 0
0000
0000
0000
0000
,  // measure 1
0000
0000
0000
0000
,  // measure 2
0000
0000
0000
0000
,  // measure 3
0000
0000
0000
0000
,  // measure 4
0000
0000
0000
0000
,  // measure 5
0000
0000
0000
0000
,  // measure 6
1001
0001
0100
0100
,  // measure 7
0010
0010
1000
1000
,  // measure 8
0001
0011
1000
1010
,  // measure 9
0001
0101
1000
1100
,  // measure 10
0001
0000
1000
0100
0010
0000
0010
0100
,  // measure 11
1000
0000
0001
0100
0010
0000
0010
0100
,  // measure 12
0001
1000
0100
0010
0001
1000
0010
0100
,  // measure 13
0001
0010
0100
1000
0001
0100
0010
1000
,  // measure 14
0002
0000
0000
0000
,  // measure 15
0000
0000
1003
0001
,  // measure 16
1000
0000
0000
0000
1100
0000
0000
0000
1010
0000
0000
0000
0001
0000
0100
0010
,  // measure 17
0100
0010
1000
0100
0010
0001
0100
0000
,  // measure 18
0001
0000
0000
0000
0011
0000
0000
0000
0101
0000
0000
0000
1000
0000
0010
0100
,  // measure 19
0010
0000
0100
0000
0001
0000
0010
0000
0100
0000
1000
0001
1000
0000
0001
0000
,  // measure 20
2000
0000
3020
0000
0230
0000
0301
0010
,  // measure 21
0200
0000
0310
0001
0100
0010
1000
0000
,  // measure 22
0002
0000
0000
0000
0023
0000
0000
0000
0230
0000
0000
0000
1300
0000
0001
1000
,  // measure 23
0001
0100
0010
0100
0001
1000
1001
0000
,  // measure 24
1000
1000
1100
0000
0001
0001
0101
0000
,  // measure 25
1000
0000
0100
0000
0010
0000
0001
1000
0001
0000
0010
0000
0100
0000
0000
0000
,  // measure 26
1000
1000
1010
0000
0001
0001
0011
0000
,  // measure 27
1000
0000
0010
0000
0100
0000
0001
1000
0001
0000
0100
0000
0010
0000
0000
0000
,  // measure 28
1000
1000
1001
0000
0001
0001
1001
0000
,  // measure 29
1000
0000
0100
0000
0010
0000
0001
0100
0001
0000
0010
0000
0100
0000
0000
0000
,  // measure 30
1000
1000
1000
0000
0010
0010
0010
0000
,  // measure 31
0100
0000
0001
0010
0100
0010
0001
1000
,  // measure 32
0010
0000
0100
0010
0100
0000
0001
0000
1000
0000
0100
0000
0010
0000
0000
0000
,  // measure 33
0001
0100
1000
0100
0001
0000
1000
1000
,  // measure 34
0020
0000
1030
0100
0010
0000
0100
0000
,  // measure 35
1000
0010
0001
0010
1000
0001
0010
0000
,  // measure 36
0001
0100
0010
1000
0100
0010
0001
1000
,  // measure 37
0001
0001
1000
1000
0100
0000
1000
0001
,  // measure 38
0020
0000
0031
0100
0010
0000
0100
0000
,  // measure 39
0001
0010
1000
0010
0001
1000
0010
0000
,  // measure 40
1000
0100
0010
0001
0100
0000
0010
0000
,  // measure 41
1000
1000
0001
0001
0010
0001
1000
1000
,  // measure 42
0200
0000
1300
0010
0100
0000
0010
0000
,  // measure 43
1000
0100
0001
0100
1000
0001
0100
0000
,  // measure 44
0001
0010
0100
1000
0010
0100
0001
1000
,  // measure 45
0001
0001
1000
1000
0010
0000
1000
0001
,  // measure 46
0200
0000
0301
0010
0100
0000
0010
0000
,  // measure 47
0001
0100
1000
0100
0001
1000
0100
0000
,  // measure 48
1000
0010
0100
0001
0010
0000
0100
0000
,  // measure 49
1001
0000
1000
0000
0001
0001
0100
0010
,  // measure 50
1000
0000
0100
0010
0002
0000
1003
0000
,  // measure 51
0001
0100
1000
0100
0001
1000
0001
0000
,  // measure 52
1000
1000
0100
0010
0001
0100
0010
1000
,  // measure 53
0001
0010
1000
0010
0001
0000
1000
0001
,  // measure 54
1000
0000
0010
0100
0002
0000
1003
0000
,  // measure 55
0001
0010
1000
0010
0001
1000
0001
0000
,  // measure 56
1000
1000
0010
0100
0001
0010
0100
0000
,  // measure 57
1000
0010
0001
0010
1000
0100
0010
0000
,  // measure 58
0001
0100
1000
0100
0001
0010
0100
0000
,  // measure 59
1000
0000
0010
0100
0100
0000
0001
0000
,  // measure 60
2002
0000
0000
0000
,  // measure 61
0000
0003
0000
0000
0000
0000
0000
0000
,  // measure 62
0000
0000
0000
0000
,  // measure 63
0000
0000
0000
0000
0000
0000
0000
3000
;

//---------------dance-single - ----------------
#NOTES:
     dance-single:
     :
     Medium:
     8:
     0.320996,0.373223,0.024424,0.032565,0.000000,276.000000,273.000000,3.000000,4.000000,0.000000,0.000000,0.320996,0.373223,0.024424,0.032565,0.000000,276.000000,273.000000,3.000000,4.000000,0.000000,0.000000:
0000
0000
0000
0000
,
0000
0000
0000
0000
,
0000
0000
0000
0000
,
0000
0000
0000
0000
,
0000
0000
0000
0000
,
0000
0000
0000
0000
,
0001
0100
0001
0100
,
0010
1000
0010
1000
,
0001
0010
0001
0010
,
0100
1000
0100
1000
,
0001
0000
1000
0010
1000
0000
0001
0010
,
0001
0000
1000
0100
1000
0000
0001
0100
,
0002
0000
0103
0100
,
0002
0000
0013
0010
,
0200
0000
0000
0000
,
0000
0000
1300
0001
,
1000
0010
1000
0000
,
0001
0010
0100
0000
1000
0010
0100
0000
,
0001
0010
0001
0000
,
1000
0010
1000
0010
0100
0000
0000
0000
,
0001
0000
1000
0000
0001
0000
1000
0010
,
1000
0000
0001
0010
0100
0010
0001
0000
,
1000
0000
0001
0000
1000
0000
0001
1000
,
0010
1000
0001
1000
0100
0000
1000
0000
,
0001
0001
0001
0000
1000
1000
1000
0000
,
0001
0100
0001
0000
1000
0100
1000
0000
,
0001
0001
0001
0000
1000
1000
1000
0000
,
0001
0010
0001
0000
1000
0010
1000
0000
,
0100
0100
0100
0000
0010
0010
0010
0000
,
0001
0100
0010
0000
1000
0100
0010
0000
,
0001
0010
0001
0000
1000
0001
1000
0000
,
0100
0100
0010
0010
,
0001
0000
1000
0000
,
0001
1000
0001
1000
0010
0000
1000
0001
,
1000
0000
0001
1000
0001
0000
0010
0000
,
0001
0000
1000
0000
0100
0010
0100
0000
,
1000
0001
1000
0000
0001
0100
0001
0000
,
1000
0001
1000
0001
1000
0000
0000
0001
,
1000
0000
0001
0100
0001
0000
1000
0000
,
0010
0000
1000
0000
0100
0010
0100
0000
,
1000
0001
1000
0000
0001
0000
0100
0000
,
0001
1000
0001
1000
0001
0000
1000
0001
,
1000
0000
0001
1000
0001
0000
0010
0000
,
0100
0000
1000
0000
0010
0100
0010
0000
,
1000
0100
1000
0000
0001
0100
0001
0000
,
1000
0001
1000
0001
0010
0000
0000
0001
,
1000
0000
0001
0010
0001
0000
0100
0000
,
0001
0010
0001
0000
1000
0010
1000
0000
,
0001
1000
0001
1000
0001
0000
0100
0000
,
0110
0010
1000
0001
,
1000
0000
0100
0010
0001
0000
0100
0000
,
0001
0000
0010
0000
0001
1000
0001
0000
,
1000
0100
1000
0000
0001
0100
0001
0000
,
1000
0001
1000
0001
1000
0000
0000
0001
,
0100
0000
0001
1000
0001
0000
1000
0000
,
0100
0000
0010
0000
0001
0100
0001
0000
,
1000
0010
1000
0000
0001
0010
0001
0000
,
1000
0001
1000
0001
1000
0000
1001
0000
,
0001
1000
0001
1000
0001
0000
1001
0000
,
1000
0100
0010
0001
,
0200
0000
0000
0000
,
0000
0300
0000
0000
0000
0000
0000
0000
;

//---------------dance-single - ----------------
#NOTES:
     dance-single:
     :
     Easy:
     5:
     0.210508,0.298579,0.048847,0.048847,0.000000,181.000000,175.000000,6.000000,6.000000,0.000000,0.000000,0.210508,0.298579,0.048847,0.048847,0.000000,181.000000,175.000000,6.000000,6.000000,0.000000,0.000000:
0000
0000
0000
0000
,
0000
0000
0000
0000
,
0000
0000
0000
0000
,
0000
0000
0000
0000
,
0000
0000
0000
0000
,
0000
0000
0000
0000
,
1000
0000
0001
0000
,
1000
0000
0001
0000
,
1000
0000
0001
0000
,
1000
0000
0001
0000
,
0010
0010
0100
0100
,
1000
1000
0001
0001
,
2000
0000
3020
0000
,
0230
0000
0302
0000
,
0023
0000
0000
0000
,
0000
0000
0031
1000
,
0001
0100
0001
0000
,
1000
0010
1000
0010
,
1000
0100
1000
0000
,
0001
0100
0001
0000
,
1000
0010
1000
0100
,
0010
0001
1000
0001
,
0100
0010
0100
0000
,
0001
1000
0001
0000
,
1000
1001
0001
1001
,
1000
0100
0010
0001
,
0100
0110
0010
0110
,
0100
0001
0010
0100
,
1000
1001
0001
1001
,
1000
0010
0100
0001
,
1000
1000
0001
0001
,
1000
0100
0010
0001
,
0100
0000
0000
0000
,
0010
0000
0000
1000
,
0001
0010
0001
1000
,
0010
1000
0100
0010
,
0001
0100
0001
0010
,
0001
1000
0001
0000
,
1000
0100
1000
0010
,
0100
0001
0010
0100
,
1000
0001
1000
0010
,
0100
0100
0001
1000
,
0001
1000
0100
0010
,
0001
0100
0001
0010
,
0001
1000
0010
0100
,
0001
1000
0001
0000
,
1000
0100
0010
0100
,
1000
0010
0100
0001
,
0010
0010
0100
0100
,
0000
0000
1000
0001
,
1000
0000
0001
0000
,
1000
0010
1000
0100
,
1000
0000
0001
0000
,
0100
0010
0100
0000
,
0001
0000
1000
0000
,
0001
0010
0001
0100
,
0001
0000
1000
0000
,
0100
0010
0100
0000
,
1000
0001
1000
0000
,
0001
0001
1000
1000
,
0002
0000
0000
0000
,
0000
0003
0000
0000
0000
0000
0000
0000
;

//---------------dance-single - ----------------
#NOTES:
     dance-single:
     :
     Beginner:
     2:
     0.108162,0.149289,0.000000,0.032565,0.000000,93.000000,93.000000,0.000000,4.000000,0.000000,0.000000,0.108162,0.149289,0.000000,0.032565,0.000000,93.000000,93.000000,0.000000,4.000000,0.000000,0.000000:
0000
0000
0000
0000
,
0000
0000
0000
0000
,
0000
0000
0000
0000
,
0000
0000
0000
0000
,
0000
0000
0000
0000
,
0000
0000
0000
0000
,
1000
0000
0000
0000
,
0001
0000
0000
0000
,
1000
0000
0000
0000
,
0001
0000
0000
0000
,
1000
0000
0000
0000
,
0001
0000
0000
0000
,
2000
0000
3000
0000
,
0002
0000
0003
0000
,
2000
0000
0000
0000
,
3000
0000
0001
1000
,
0001
0000
0001
0000
,
1000
0000
1000
0000
,
0010
0000
0010
0000
,
0100
0000
0100
0000
,
0001
0000
0001
0000
,
1000
0000
1000
0000
,
0100
0000
0100
0000
,
0010
0000
0010
0000
,
0001
0000
1000
0000
,
0001
0000
0000
0000
,
1000
0000
0001
0000
,
1000
0000
0000
0000
,
0010
0000
0100
0000
,
0010
0000
0000
0000
,
0100
0000
0010
0000
,
0100
0000
0000
0000
,
0001
0000
0000
0000
,
1000
0000
0000
0000
,
0001
0000
0001
0000
,
1000
0000
1000
0000
,
0100
0000
0100
0000
,
0010
0000
0010
0000
,
0001
0000
0001
0000
,
1000
0000
1000
0000
,
0010
0000
0010
0000
,
0100
0000
0100
0000
,
0001
0000
0001
0000
,
0010
0000
0010
0000
,
0100
0000
0100
0000
,
1000
0000
1000
0000
,
0001
0000
0001
0000
,
0100
0000
0100
0000
,
0010
0000
0010
0000
,
1000
0000
0000
0000
,
0001
0000
0001
0000
,
1000
0000
1000
0000
,
0001
0000
0001
0000
,
1000
0000
1000
0000
,
0100
0000
0100
0000
,
0010
0000
0010
0000
,
0100
0000
0100
0000
,
1000
0000
0000
0001
,
1000
0000
0000
0001
,
1000
0000
0001
0000
,
2000
0000
0000
0000
,
0000
3000
0000
0000
0000
0000
0000
0000
;
