#VERSION:0.83;
#TITLE:Clione -猫叉Master Remix-;
#SUBTITLE:;
#ARTIST:Remixed by 猫叉Master;
#TITLETRANSLIT:Clione -Nekomata Master Remix-;
#SUBTITLETRANSLIT:;
#ARTISTTRANSLIT:Remixed by Nekomata Master;
#GENRE:WORLD/ELECTRONICA;
#ORIGIN:;
#CREDIT:;
#BANNER:Clione -Nekomata Master Remix-.png;
#BACKGROUND:Clione -Nekomata Master Remix--bg.png;
#PREVIEWVID:;
#JACKET:Clione -Nekomata Master Remix--jacket.png;
#CDIMAGE:;
#DISCIMAGE:;
#LYRICSPATH:;
#CDTITLE:cdtitle.png;
#MUSIC:Clione -Nekomata Master Remix-.ogg;
#OFFSET:0.040000;
#SAMPLESTART:71.950005;
#SAMPLELENGTH:17.455000;
#SELECTABLE:YES;
#BPMS:0.000=110.000;
#STOPS:;
#DELAYS:;
#WARPS:;
#TIMESIGNATURES:0.000=4=4;
#TICKCOUNTS:0.000=4;
#COMBOS:0.000=1;
#SPEEDS:0.000=1.000=0.000=0;
#SCROLLS:0.000=1.000;
#FAKES:;
#LABELS:0.000=Song Start;
#BGCHANGES:;
#KEYSOUNDS:;
#ATTACKS:
;

//---------------dance-single - ----------------
#NOTEDATA:;
#CHARTNAME:;
#STEPSTYPE:dance-single;
#DESCRIPTION:;
#CHARTSTYLE:;
#DIFFICULTY:Hard;
#METER:9;
#RADARVALUES:0.344577,0.405281,0.272327,0.241204,0.116712,310.000000,275.000000,35.000000,31.000000,0.000000,0.000000,0.000000,0.000000,0.000000,0.344577,0.405281,0.272327,0.241204,0.116712,310.000000,275.000000,35.000000,31.000000,0.000000,0.000000,0.000000,0.000000,0.000000;
#CREDIT:;
#NOTES:
0000
0000
0000
0000
,
0000
0000
0000
0000
,
0000
0000
0000
0000
,
0000
0000
0000
0000
,
2001
0000
3020
0000
,
1030
0001
0200
0000
,
0301
0010
0100
1000
,
1002
0000
0100
0000
,
1003
0010
0100
0001
,
1000
0010
1000
0000
0200
0000
0310
0000
,
0001
0000
1000
0000
0001
0010
1000
0010
,
0002
0000
0000
0000
0103
0000
0000
0000
2000
0000
0000
0000
3010
0000
0000
0001
,
1000
1100
0001
0011
,
1000
0100
0010
0000
0110
0000
1001
0000
,
0010
0000
1010
0000
1000
0010
0001
0010
,
0100
0000
0000
0000
0000
0000
0000
0000
0101
0000
0000
0000
0000
0000
0000
1000
0010
0000
0000
0000
0000
0000
0000
0000
1000
0000
0000
0000
0000
0000
0000
0000
,
1001
0000
0000
0001
0100
0000
0010
0000
0100
0000
0000
0100
0001
0000
1000
0000
,
0010
0000
0000
0010
1000
0000
0001
0000
2000
0000
0000
0000
3002
0000
0000
0000
,
0103
0000
0000
0100
0010
0000
1000
0000
0001
0000
0000
0001
0010
0000
0100
0000
,
1000
0000
0000
1000
0001
0000
0100
0000
0020
0000
0000
0000
2030
0000
0000
0000
,
3001
0000
0000
0001
0100
0000
0010
0000
1000
0000
0000
1000
0100
0000
0001
0000
,
0100
0000
0000
0100
0010
0000
0001
0000
2000
0000
0000
0000
3200
0000
0000
0000
,
0310
0000
0000
0010
0001
0000
1000
0000
0010
0000
0000
0010
0100
0000
1000
0000
,
0100
0000
0000
0100
0001
0000
1000
0000
0020
0000
0000
0000
0230
0000
0000
0000
,
0301
0000
0000
0000
1000
0000
0100
0000
0010
0000
0000
0000
0100
1000
0000
1000
,
0001
0000
1001
0000
1000
0010
0100
0010
,
1000
0000
0000
0000
0001
0000
0010
0000
0100
0000
0000
0000
0010
0001
0000
0001
,
1000
0000
1001
0000
0001
0100
0010
0100
,
0001
0000
0000
0000
1000
0000
0100
0000
0001
0000
0000
0000
0100
1000
0000
1000
,
0001
0000
0000
0000
1000
0100
0010
0001
,
0010
0000
0000
0000
0001
0000
0100
0000
1000
0000
0000
0000
0100
0001
0000
0001
,
1000
0000
0000
0000
0001
0010
0100
1000
,
0001
0000
0001
0000
1000
0000
0010
0000
0100
0010
0100
0000
0001
0000
1000
0000
,
0001
0000
0000
0000
0101
0000
0000
0000
1010
0000
0000
0000
1000
0000
0100
0010
,
0002
0000
1000
0000
0010
0000
0103
0010
,
1000
0000
0000
0000
1001
0000
0000
0000
0001
0000
0000
0000
0101
0000
0000
0100
,
0010
0000
0000
0000
1010
0000
0000
1000
0001
0000
0000
0000
0100
0000
0000
0000
,
0120
0001
2030
0100
,
3010
0011
0101
0110
,
2010
0000
0000
0000
0100
0000
0000
0000
0001
0000
0000
0000
3010
0000
0100
0001
,
0100
0001
0010
0100
0001
0100
1000
0001
,
0010
0000
0000
0000
0011
0000
0000
0000
1001
0000
0000
0000
1000
0000
0001
0010
,
0200
0000
0010
0000
0001
0000
1300
0001
,
0010
0000
0000
0000
0011
0000
0000
0000
0001
0000
0000
0000
1001
0000
0000
1000
,
0010
0000
0000
0000
0110
0000
0000
0010
1000
0000
0000
0000
0001
0000
0000
0000
,
0210
1000
0302
0010
,
1003
1100
0110
0011
,
1001
0001
0010
0100
0010
0001
0010
0100
,
1000
0010
0100
0010
1000
0010
0100
0010
,
2000
0000
3002
0000
,
1003
0100
0020
0000
,
0031
0100
0010
1000
,
0200
0000
0001
0000
,
2300
0000
3002
0000
,
1003
0001
0201
0000
,
0310
1010
1000
1001
,
0220
0000
0000
0000
,
0000
0000
0000
0000
0000
0000
0000
0330
;

//---------------dance-single - ----------------
#NOTEDATA:;
#CHARTNAME:;
#STEPSTYPE:dance-single;
#DESCRIPTION:;
#CHARTSTYLE:;
#DIFFICULTY:Medium;
#METER:6;
#RADARVALUES:0.223419,0.315218,0.093369,0.171177,0.046685,201.000000,189.000000,12.000000,22.000000,0.000000,0.000000,0.000000,0.000000,0.000000,0.223419,0.315218,0.093369,0.171177,0.046685,201.000000,189.000000,12.000000,22.000000,0.000000,0.000000,0.000000,0.000000,0.000000;
#CREDIT:;
#NOTES:
// measure 0
0000
0000
0000
0000
,  // measure 1
0000
0000
0000
0000
,  // measure 2
0000
0000
0000
0000
,  // measure 3
0000
0000
0000
0000
,  // measure 4
2000
0000
3002
0000
,  // measure 5
0013
0100
2000
0000
,  // measure 6
3010
0100
0001
1000
,  // measure 7
0020
0000
0030
0000
,  // measure 8
1001
0001
1000
0010
,  // measure 9
1000
0100
0010
0000
0001
0000
0100
0000
,  // measure 10
0010
0000
1000
0000
0001
0010
0001
0010
,  // measure 11
0100
0010
0001
1000
,  // measure 12
1001
0001
1000
1000
,  // measure 13
0100
0010
0100
0000
0010
0000
0010
0000
,  // measure 14
0001
0000
0001
0000
1000
0010
1000
0010
,  // measure 15
0100
0001
0011
1100
,  // measure 16
1010
0000
0000
1000
0000
0000
0000
0000
0010
0000
0000
0010
0000
0000
0000
0000
,  // measure 17
0100
0000
0000
0100
0000
0000
0000
0000
0001
0000
0000
0000
1000
0000
0000
0000
,  // measure 18
1100
0000
0000
0100
0000
0000
0000
0000
0010
0000
0000
0010
0000
0000
0000
0000
,  // measure 19
0001
0000
0000
0001
0000
0000
0000
0000
1000
0000
0000
0000
0010
0000
0000
0000
,  // measure 20
0110
0000
0000
0100
0000
0000
0000
0000
0001
0000
0000
0001
0000
0000
0000
0000
,  // measure 21
0010
0000
0000
0010
0000
0000
0000
0000
0100
0000
0000
0000
1000
0000
0000
0000
,  // measure 22
1001
0000
0000
0001
0000
0000
0000
0000
0100
0000
0000
0100
0000
0000
0000
0000
,  // measure 23
0010
0000
0000
0010
0000
0000
0000
0000
1000
0000
0000
0000
0001
0000
0000
0000
,  // measure 24
1001
0000
0001
0100
0010
0000
1000
0100
,  // measure 25
0010
0000
0100
0000
1000
0001
1000
0010
,  // measure 26
1000
0000
0001
0010
0100
0000
1000
0010
,  // measure 27
0100
0000
0001
0000
0010
0001
1000
0001
,  // measure 28
1000
0000
0100
0010
0001
0000
0100
0010
,  // measure 29
1000
0000
0000
0000
0001
0100
0001
1000
,  // measure 30
0001
0000
1000
0010
0100
0000
0001
0010
,  // measure 31
0100
0000
0000
0000
1000
0001
0010
0001
,  // measure 32
1000
0000
0000
0001
,  // measure 33
0101
0000
0010
0000
2000
0000
0000
3100
,  // measure 34
0020
0000
0000
0000
0000
0000
0000
0031
,  // measure 35
2000
0000
3002
0000
,  // measure 36
0203
0000
0310
1000
,  // measure 37
0200
0000
0320
0000
,  // measure 38
0030
0001
0100
0001
,  // measure 39
2000
0000
0000
0000
0000
0000
3000
0001
,  // measure 40
0100
0010
0100
0000
0010
1000
0010
0000
,  // measure 41
1001
0000
0100
0000
0020
0000
0000
1030
,  // measure 42
0200
0000
0000
0000
0000
0000
0000
0310
,  // measure 43
0002
0000
2003
0000
,  // measure 44
3020
0000
1030
0001
,  // measure 45
0020
0000
0032
0000
,  // measure 46
0003
1000
0001
1000
,  // measure 47
0200
0000
0000
0000
,  // measure 48
0300
0000
0000
0000
,  // measure 49
1001
0000
0001
0000
,  // measure 50
1000
0010
0100
0000
,  // measure 51
0001
0010
0100
1000
,  // measure 52
0020
0000
0000
0000
,  // measure 53
0130
0000
0001
0000
,  // measure 54
1000
0100
0010
0000
,  // measure 55
0100
1000
0010
0100
,  // measure 56
0002
0000
0000
0000
,  // measure 57
0000
0000
0000
0000
0000
0000
0000
0003
;

//---------------dance-single - ----------------
#NOTEDATA:;
#CHARTNAME:;
#STEPSTYPE:dance-single;
#DESCRIPTION:;
#CHARTSTYLE:;
#DIFFICULTY:Easy;
#METER:4;
#RADARVALUES:0.157838,0.180125,0.000000,0.023342,0.000000,142.000000,142.000000,0.000000,3.000000,0.000000,0.000000,0.000000,0.000000,0.000000,0.157838,0.180125,0.000000,0.023342,0.000000,142.000000,142.000000,0.000000,3.000000,0.000000,0.000000,0.000000,0.000000,0.000000;
#CREDIT:;
#NOTES:
0000
0000
0000
0000
,
0000
0000
0000
0000
,
0000
0000
0000
0000
,
0000
0000
0000
0000
,
1000
0000
0001
0000
,
1000
0001
1000
0000
,
0001
0001
0100
0100
,
0010
0000
0000
0000
,
1000
0010
1000
0010
,
1000
0001
1000
0000
,
0001
0010
0001
1000
,
0001
0000
0100
0000
,
0001
0001
1000
1000
,
0010
0010
0100
0000
,
0001
0001
0010
0010
,
0100
0000
1000
0001
,
1000
0000
0001
0000
,
0010
0000
0100
1000
,
0100
0000
1000
0000
,
0001
0000
1000
0010
,
1000
0000
0100
0000
,
0010
0000
0001
1000
,
0001
0000
0010
0000
,
0100
0000
1000
0010
,
1000
0001
0001
0010
,
0100
0000
1000
0001
,
1000
0100
0100
0010
,
0001
0000
1000
0010
,
1000
0001
0001
0010
,
0100
0000
0010
0001
,
1000
0010
0010
1000
,
0100
0000
0010
0001
,
0010
0000
0001
0000
,
1000
0010
0100
0000
,
0001
0000
0000
0000
,
1000
0000
0010
0000
,
0100
0000
0001
0010
,
0001
0000
1000
0000
,
0100
0000
0010
0000
,
0001
0000
0000
0000
,
1000
0010
0100
0001
,
1000
0100
0010
0000
,
0100
0000
0000
0000
,
1000
0000
0001
0000
,
0100
0000
0010
1000
,
0010
0000
1000
0000
,
0100
0010
0001
1000
,
0002
0000
0000
0003
,
2000
0000
0000
3000
,
0001
0000
1000
0000
,
0100
0010
0100
0000
,
1000
0001
1000
0010
,
0100
0000
0000
0000
,
0001
0000
0100
0000
,
0010
1000
0100
0000
,
0010
0001
1000
0001
,
2000
0000
0000
0000
,
0000
0000
0000
0000
0000
0000
0000
3000
;

//---------------dance-single - ----------------
#NOTEDATA:;
#CHARTNAME:;
#STEPSTYPE:dance-single;
#DESCRIPTION:;
#CHARTSTYLE:;
#DIFFICULTY:Beginner;
#METER:1;
#RADARVALUES:0.074473,0.112578,0.000000,0.007781,0.000000,67.000000,67.000000,0.000000,1.000000,0.000000,0.000000,0.000000,0.000000,0.000000,0.074473,0.112578,0.000000,0.007781,0.000000,67.000000,67.000000,0.000000,1.000000,0.000000,0.000000,0.000000,0.000000,0.000000;
#CREDIT:;
#NOTES:
0000
0000
0000
0000
,
0000
0000
0000
0000
,
0000
0000
0000
0000
,
0000
0000
0000
0000
,
1000
0000
0000
0000
,
0001
0000
0000
0000
,
1000
0000
0000
0000
,
0010
0000
0000
0000
,
0100
0000
0000
0000
,
0000
0000
0000
0000
,
0000
0000
0000
0000
,
0000
0000
0000
0000
,
0010
0000
0010
0000
,
0100
0000
0100
0000
,
0001
0000
0001
0000
,
1000
0000
1000
0000
,
0001
0000
0000
0000
,
1000
0000
0000
0000
,
0010
0000
0000
0000
,
0100
0000
0000
0000
,
0001
0000
0000
0000
,
0010
0000
0000
0000
,
0100
0000
0000
0000
,
1000
0000
0000
0000
,
0010
0000
0000
0000
,
0100
0000
0000
0000
,
0001
0000
0000
0000
,
1000
0000
0000
0000
,
0010
0000
0000
0000
,
1000
0000
0000
0000
,
0010
0000
0000
0000
,
0100
0000
0000
0000
,
0001
0000
0000
0000
,
1000
0000
1000
0000
,
0010
0000
0010
0000
,
0100
0000
0100
0000
,
0001
0000
0001
0000
,
0010
0000
0010
0000
,
0100
0000
0100
0000
,
1000
0000
1000
0000
,
0001
0000
0000
0000
,
0100
0000
0100
0000
,
0010
0000
0010
0000
,
1000
0000
1000
0000
,
0001
0000
0001
0000
,
1000
0000
1000
0000
,
0100
0000
0100
0000
,
0010
0000
0000
0000
,
0001
0000
0000
0000
,
1000
0000
0000
0000
,
0000
0000
0000
0000
,
0000
0000
0000
0000
,
0000
0000
0000
0000
,
0001
0000
0001
0000
,
1000
0000
1000
0000
,
0010
0000
0010
0000
,
0200
0000
0000
0000
,
0000
0000
0000
0000
0000
0000
0000
0300
;
