#TITLE:Chirality;
#SUBTITLE:;
#ARTIST:かめりあ;
#TITLETRANSLIT:;
#SUBTITLETRANSLIT:;
#ARTISTTRANSLIT:Camellia;
#GENRE:DRUMSTEP;
#CREDIT:;
#BANNER:Chirality.png;
#BACKGROUND:Chirality-bg.png;
#LYRICSPATH:;
#CDTITLE:cdtitle.png;
#MUSIC:Chirality.ogg;
#OFFSET:-1.020000;
#SAMPLESTART:20.070999;
#SAMPLELENGTH:9.513000;
#SELECTABLE:YES;
#BPMS:0.000000=201.000000
;
#STOPS:
;
#BGCHANGES:;
#KEYSOUNDS:;
#ATTACKS:;

//---------------dance-single - ----------------
#NOTES:
     dance-single:
     :
     Challenge:
     15:
     0.766415,0.914307,0.676743,0.147118,0.387411,547.000000,478.000000,69.000000,15.000000,0.000000,0.000000,0.766415,0.914307,0.676743,0.147118,0.387411,547.000000,478.000000,69.000000,15.000000,0.000000,0.000000:
// measure 0
0000
0000
0000
0000
,  // measure 1
0000
0000
0000
0000
,  // measure 2
0000
0000
0000
0000
,  // measure 3
0000
0000
0000
0000
,  // measure 4
0000
0000
0000
0000
,  // measure 5
0000
0000
0000
0000
,  // measure 6
0000
0000
0000
0000
,  // measure 7
0000
0000
0000
0000
,  // measure 8
1001
0000
0000
0000
0100
0010
0000
1010
,  // measure 9
0000
0000
0000
0000
,  // measure 10
0110
0000
0000
0000
1000
0001
0000
0101
,  // measure 11
0000
0000
0000
0000
,  // measure 12
1100
0000
0000
0000
0001
0100
0000
0110
,  // measure 13
0000
0000
0000
0000
,  // measure 14
0101
0000
0000
0000
0000
0000
0000
0000
0100
0000
0010
1000
0010
1000
0010
1000
,  // measure 15
0010
0000
0000
0000
0000
1000
0100
0010
,  // measure 16
0101
0000
0000
0000
1000
0010
0100
0010
1000
0000
0001
0100
0000
0100
0010
0000
,  // measure 17
2000
0000
0000
0000
3001
0100
0010
0000
,  // measure 18
0110
0000
0000
0000
0001
0100
0010
0100
0001
0000
1000
0010
0000
0010
0100
0000
,  // measure 19
0002
0000
0000
1003
0100
1000
0010
0000
,  // measure 20
0101
0000
0000
0000
0010
1000
0100
1000
0010
0000
0100
0001
0000
0001
0010
0000
,  // measure 21
0200
0000
0000
0000
2300
3000
0020
0030
0002
0003
0020
0030
2000
3000
0000
0000
,  // measure 22
1001
0000
0110
0010
,  // measure 23
0000
0000
1000
0000
1000
0000
0000
0000
1001
0000
0001
0000
0100
0000
0010
1000
,  // measure 24
0010
0000
0000
0000
0100
0001
0010
0001
1000
0000
0001
0010
0000
0010
0100
0000
,  // measure 25
2000
0000
0000
0000
3001
0100
0010
0000
,  // measure 26
1100
0000
0000
0000
0001
1000
0100
1000
0010
0000
1000
0001
0000
0001
0010
0000
,  // measure 27
0200
0000
0000
0310
0001
1000
0001
0000
,  // measure 28
0101
0000
0000
0000
0000
0000
0000
0000
0001
0000
0000
0000
1000
0000
0000
0000
0100
0000
0000
0000
1000
0000
0000
0000
0001
0000
0000
0000
0100
0000
0000
0000
0001
0000
0000
0000
0010
0000
0000
0000
0000
0000
0001
0000
0000
0100
0000
0000
,  // measure 29
0001
1000
0001
0010
0100
0000
1000
0000
1010
0000
0100
0000
0100
0000
0000
0000
,  // measure 30
0001
0000
1001
0000
1000
0010
0100
0000
,  // measure 31
0001
0000
0000
0000
0110
0000
0000
0000
1000
0000
0010
0000
0100
0001
0100
0001
,  // measure 32
0010
0100
0000
1000
1001
0000
1000
0010
,  // measure 33
0000
0000
0010
0000
0100
0000
0000
0000
0001
0000
1000
0000
1000
0000
0001
0100
,  // measure 34
0001
0010
0000
0100
1100
0000
0001
0100
,  // measure 35
0000
0100
0010
0000
1000
0100
0010
0001
,  // measure 36
0100
0001
0000
0010
0110
0000
1000
0001
,  // measure 37
0000
0000
0001
0000
0100
0000
0000
0000
0010
0000
1000
0000
1000
0000
0010
0100
,  // measure 38
0010
1000
0000
0100
0110
0000
0001
0100
,  // measure 39
0000
0100
0010
0000
2001
0000
3100
0000
,  // measure 40
0011
0011
0000
1100
1100
0000
0101
0101
,  // measure 41
0000
0000
1010
0000
1010
0000
0000
0000
1000
0000
0001
0100
0001
0000
0010
0000
,  // measure 42
0110
0110
0000
1001
1001
0000
1010
1010
,  // measure 43
0000
0101
0101
0000
1002
0000
0013
0000
,  // measure 44
1100
1100
0000
0101
0101
0000
0011
0011
,  // measure 45
0000
1010
1010
0000
0200
0000
0300
0000
,  // measure 46
1001
1001
0000
1100
1100
0000
0101
0101
,  // measure 47
0000
0000
0110
0000
0110
0000
0000
0000
1000
0000
0010
0000
0001
0010
0001
0010
,  // measure 48
1000
0000
0000
0000
0001
0100
0000
0110
,  // measure 49
0000
0000
0000
0000
,  // measure 50
1001
0000
0000
0000
1000
0100
0000
0110
,  // measure 51
0000
0000
0000
1000
0000
0000
0001
0000
0010
0000
0100
0000
1000
0000
0100
0000
0010
0000
0001
0000
0100
0000
0010
0000
,  // measure 52
1000
0000
0000
0000
0001
0010
0000
1100
,  // measure 53
0000
0000
0000
0000
,  // measure 54
0011
0000
0000
0000
0000
0000
0000
0000
0001
0000
0010
0100
0010
0100
0010
0100
,  // measure 55
0010
0000
0000
0000
0000
0000
0001
0100
,  // measure 56
0001
0010
1000
0010
0100
0010
0001
0100
,  // measure 57
0010
0000
1000
0000
0100
0000
0010
0000
0100
0000
1000
0000
0001
0100
0001
0000
,  // measure 58
1000
0100
0001
0100
0010
0100
1000
0010
,  // measure 59
0100
0000
0001
0000
0010
0000
1000
0000
0010
0000
0001
0000
1000
0100
1000
0000
,  // measure 60
0001
0100
1000
0100
0001
0010
0100
0001
,  // measure 61
0100
0000
1000
0000
0010
0000
0100
0000
0010
0000
1000
0001
1000
0000
0100
0000
,  // measure 62
0010
0000
0001
1000
0000
0100
1000
0000
0001
0000
1000
0010
0000
0100
0001
0000
,  // measure 63
0010
0000
0100
0000
1000
0010
1000
0000
0000
0000
0001
0000
0100
0001
0100
0000
,  // measure 64
0020
0000
1030
0100
0010
0100
1000
0001
,  // measure 65
0010
0000
1000
0000
0010
0000
0100
0000
0010
0000
0001
0000
0100
0010
0100
0000
,  // measure 66
0001
0100
0010
0001
0010
1000
0100
0010
,  // measure 67
0001
0000
0010
0000
1000
0000
0010
0000
0100
0000
0010
0000
0001
1000
0001
0000
,  // measure 68
0100
0010
1000
0100
0010
0001
0100
0010
,  // measure 69
1000
0000
0001
0000
0010
0000
0100
0000
1000
0000
0001
0100
0001
0000
0010
0000
,  // measure 70
0100
0000
1000
0010
0000
1000
0001
0000
0100
0000
0001
0100
0000
0010
1000
0100
,  // measure 71
1000
0000
0100
0010
0000
0001
0010
0000
0001
0000
0100
0000
0001
1000
0001
1000
,  // measure 72
0001
0001
0000
0100
0110
0010
0010
0000
,  // measure 73
1100
0000
0100
0100
0110
0010
0000
0001
,  // measure 74
0001
0000
0101
0000
1010
1000
0000
1001
,  // measure 75
0000
0100
0100
0000
0011
0000
0001
0001
,  // measure 76
1000
0100
1000
0000
0001
0100
0001
0000
0120
0000
0000
0000
0100
0000
0130
0000
,  // measure 77
0001
0100
0001
0100
0010
1000
0010
1000
,  // measure 78
0100
0000
0010
0000
0001
0000
1000
0010
1000
0010
0100
0001
0100
0000
0010
0000
,  // measure 79
0100
0010
1000
0100
1000
0100
0010
0001
,  // measure 80
0100
0000
0000
0000
0000
0000
0010
0000
0000
0000
0000
0000
1000
0000
0000
0010
0000
0000
1000
0000
0000
0010
0000
0000
0100
0000
0000
0000
0000
0000
0000
0000
0001
0000
0000
0000
0000
0000
0000
0000
1000
0000
0000
0000
0000
0000
0000
0000
,  // measure 81
0000
0010
0000
0000
0000
0000
0000
0000
0000
0000
0000
0000
0000
0000
0000
0000
;

//---------------dance-single - ----------------
#NOTES:
     dance-single:
     :
     Hard:
     12:
     0.596879,0.795050,0.205965,0.088271,0.186349,426.000000,405.000000,21.000000,9.000000,0.000000,0.000000,0.596879,0.795050,0.205965,0.088271,0.186349,426.000000,405.000000,21.000000,9.000000,0.000000,0.000000:
0000
0000
0000
0000
,
0000
0000
0000
0000
,
0000
0000
0000
0000
,
0000
0000
0000
0000
,
0000
0000
0000
0000
,
0000
0000
0000
0000
,
0000
0000
0000
0000
,
0000
0000
0000
0000
,
1001
0000
0000
0000
1000
0010
0000
1010
,
0000
0000
0000
0000
,
0101
0000
0000
0000
0001
0010
0000
0011
,
0000
0000
0000
0000
,
0110
0000
0000
0000
0100
1000
0000
1100
,
0000
0000
0000
0000
,
1001
0000
0000
0000
1000
0010
0000
0100
,
0110
0000
0000
0000
0000
0010
1000
0100
,
1000
0000
0000
0000
0001
0100
0001
0000
0010
0000
0000
0100
0000
0000
1000
0000
,
0020
0000
0000
0000
0130
0001
0100
0000
,
0001
0000
0000
0000
1000
0100
1000
0000
0010
0000
0000
0100
0000
0000
0001
0000
,
0020
0000
0000
0130
1000
0000
0001
0000
,
1000
0000
0000
0000
0100
0010
0100
0000
1000
0000
0000
0001
0000
0000
1000
0000
,
0200
0000
0310
0001
1000
0001
0100
0000
,
0110
0000
0010
1000
,
0000
0100
0100
0000
0010
0000
0000
0000
,
0001
0000
0000
0000
1000
0010
1000
0000
0001
0000
0000
0010
0000
0000
0100
0000
,
2000
0000
0000
0000
3010
0100
0010
0000
,
1000
0000
0000
0000
0001
0010
0001
0000
1000
0000
0000
0010
0000
0000
0100
0000
,
0002
0000
0000
0013
0100
0000
1000
0000
,
0010
0000
0000
1000
0100
1000
0001
0100
0001
0010
0000
0000
,
0001
1000
0001
0000
1000
0000
0100
0000
0001
0000
0100
0000
1000
0000
0000
0000
,
0001
0011
1000
1010
,
1000
0000
0000
0000
0001
0000
0000
0000
1000
0000
0010
0000
0100
0001
0100
0001
,
0010
0001
0000
0001
1000
0000
0010
0100
,
0000
0001
0010
0000
0001
1000
0001
0000
,
1000
0100
0000
0100
0010
0000
0001
1000
,
0000
0001
0100
0000
0001
0010
1000
0010
,
0001
0100
0000
0100
0010
0000
1000
0100
,
0000
0000
1000
0000
0010
0000
0000
0000
0100
0000
0001
0000
0010
0000
0001
1000
,
0001
0100
0000
0100
0010
0000
1000
0100
,
0000
1000
0001
0000
0020
0000
0000
0000
,
0031
1000
0000
0100
0010
0000
0100
1000
,
0000
0000
0010
0000
0100
0000
0000
0000
0001
0000
1000
0001
1000
0000
0100
0000
,
0010
0001
0000
0100
0010
0000
0100
0001
,
0000
1000
0100
1000
0010
0100
0001
0010
,
0001
0100
0000
0010
1000
0000
0001
0010
,
0000
0100
0010
0000
0002
0000
0003
0000
,
1000
0100
0000
0100
0010
0000
0010
0001
,
0000
0000
0001
0000
0100
0000
0000
0000
0100
0000
0010
0000
1000
0001
1000
0001
,
1000
0000
0000
0000
0010
0100
0000
0110
,
0000
0000
0000
0000
,
1010
0000
0000
0000
1000
0100
0000
0110
,
0000
0000
0000
0000
,
0011
0000
0000
0000
0001
0100
0000
0110
,
0000
0000
0000
0000
,
1001
0000
0000
0000
0000
0000
0000
0000
1000
0000
0001
0100
0001
0100
0010
1000
,
0010
0000
0000
0000
0000
0000
1000
0001
,
1000
0100
0000
1000
0010
0000
1000
0001
,
0000
0010
0100
0000
1000
0010
0001
0010
,
1000
0001
0000
1000
0010
0000
1000
0100
,
0000
0010
0001
0000
1000
0100
0001
0100
,
1000
0001
0000
0010
0100
0000
1000
0010
,
0000
0100
0001
0000
0010
1000
0010
0001
,
1000
0000
0010
0100
0000
0000
0100
0000
0010
0000
1000
0001
0000
0000
0001
0000
,
0010
0000
0100
0000
0010
0000
0001
0000
0000
0000
1000
0000
0010
0100
0020
0000
,
0000
0000
1030
0100
0001
0100
0010
0100
,
1000
0010
0001
0010
1000
0100
0010
0001
,
1000
0010
0100
0010
0001
0010
0100
0010
,
1000
0100
0001
0100
1000
0010
0100
0001
,
0010
0100
0010
0001
1000
0010
0100
0010
,
1000
0001
0100
0001
1000
0100
0010
0001
,
1000
0000
0010
0100
0000
0000
0100
0000
0001
0000
0010
0100
0000
0000
0100
0000
,
1000
0000
0001
0010
0000
0000
0010
0000
0001
0000
1000
0010
0000
0000
0010
0000
,
0100
0001
0000
1000
0001
0010
0100
0000
,
0110
0000
0010
0001
1000
0001
0000
1000
,
0010
0000
1010
0000
1000
0001
0000
0011
,
0000
0010
0100
0000
1010
0000
1000
0100
,
0010
0100
1000
0010
0200
0000
0000
0000
,
0301
0010
0001
0010
0100
1000
0100
1000
,
0001
0000
0100
0000
0001
0000
0100
0010
0100
0010
0100
0000
0001
0000
1000
0000
,
0001
1000
0100
0010
0100
0010
0001
1000
,
0001
0000
0000
0000
0000
0000
1000
0000
0000
0000
0000
0000
0010
0000
0000
0100
0000
0000
0010
0000
0000
0100
0000
0000
0010
0000
0000
0000
0000
0000
0000
0000
1000
0000
0000
0000
0000
0000
0000
0000
0100
0000
0000
0000
0000
0000
0000
0000
,
0000
0010
0000
0000
0000
0000
0000
0000
0000
0000
0000
0000
0000
0000
0000
0000
;

//---------------dance-single - ----------------
#NOTES:
     dance-single:
     :
     Medium:
     9:
     0.459569,0.556535,0.205965,0.078463,0.000000,328.000000,307.000000,21.000000,8.000000,0.000000,0.000000,0.459569,0.556535,0.205965,0.078463,0.000000,328.000000,307.000000,21.000000,8.000000,0.000000,0.000000:
0000
0000
0000
0000
,
0000
0000
0000
0000
,
0000
0000
0000
0000
,
0000
0000
0000
0000
,
0000
0000
0000
0000
,
0000
0000
0000
0000
,
0000
0000
0000
0000
,
0000
0000
0000
0000
,
1001
0000
0000
0000
0001
0100
0000
0110
,
0000
0000
0000
0000
,
1001
0000
0000
0000
1000
0100
0000
0110
,
0000
0000
0000
0000
,
1001
0000
0000
0000
0001
0010
0000
0110
,
0000
0000
0000
0000
,
1001
0000
0000
0000
1000
0100
0000
0010
,
0100
0000
0000
0000
0000
0000
1000
0001
,
1000
0000
0001
0100
0010
0000
1000
0001
,
1000
0000
0200
0320
,
0031
0000
1000
0100
0010
0000
0100
1000
,
0001
0000
0100
0010
,
1000
0000
0001
0010
0001
0000
1000
0010
,
1000
0000
0001
0000
1000
0001
0010
0000
,
0001
0000
0101
1000
,
0000
0100
0010
0000
0110
0000
0000
0000
,
1000
0000
0010
0100
0001
0000
1000
0010
,
1000
0000
0200
0320
,
0031
0000
1000
0001
0010
0000
0001
1000
,
0010
0000
1000
0001
,
1000
1000
0010
0010
,
0100
0010
0100
0001
0010
0100
1000
0000
,
0001
0101
1000
1100
,
0001
0000
1001
0000
1000
0010
1000
0001
,
0010
0001
0000
0100
0000
0010
0000
1000
,
0000
0100
0000
0010
0000
0001
0000
1000
,
0010
1000
0000
0001
0000
0010
0000
0100
,
0000
1000
0000
0010
0000
0100
0000
0001
,
0010
0001
0000
1000
0000
0010
0000
0100
,
0000
0001
0000
0010
0000
0100
0000
1000
,
0001
1000
0000
0100
0000
0001
0000
0100
,
0000
1000
0000
0010
0200
0000
0000
0000
,
0301
0010
0000
0010
0100
0000
0100
1000
,
0000
1000
0010
0000
0100
0001
0100
0000
,
0001
1000
0000
1000
0100
0000
0100
0010
,
0000
0010
0001
0000
0200
0000
0000
0000
,
0301
1000
0000
1000
0010
0000
0010
0100
,
0000
0100
0001
0000
0020
0000
0030
0000
,
0100
1000
0000
1000
0001
0000
0001
0100
,
0000
0100
0010
0000
1000
0001
1000
0001
,
1000
0000
0000
0000
0001
0100
0000
0110
,
0000
0000
0000
0000
,
1001
0000
0000
0000
1000
0100
0000
0110
,
0000
0000
0000
0000
,
1001
0000
0000
0000
0001
0010
0000
0110
,
0000
0000
0000
0000
,
1001
0000
0000
0000
1000
0010
0000
0100
,
0010
0000
0000
0000
0000
0000
1000
0100
,
1000
0010
0001
0010
,
1000
0000
0100
0000
1000
0010
1000
0001
,
1000
0100
0001
0100
,
1000
0000
0010
0000
1000
0100
1000
0001
,
1000
0001
0100
1000
,
0100
0000
0001
0000
0010
0001
0100
0010
,
1000
1010
0001
0011
,
1000
0100
0010
0100
0000
1000
0001
1000
,
0000
0001
0010
1000
,
0010
0000
0001
0000
0100
0001
1000
0010
,
1000
0100
0001
0100
,
1000
0000
0010
0000
0100
0001
0100
0001
,
0010
0100
1000
0010
,
0001
0000
0010
0000
1000
0100
1000
0001
,
0010
0000
1001
0000
,
0001
1000
0010
0100
,
0001
1000
0000
0100
0000
0010
0100
0000
,
1000
0000
0010
0100
0000
0001
0000
0010
,
0100
0000
0010
0000
0001
1000
0000
0010
,
0000
1000
0100
0000
1000
0000
0001
0100
,
0001
0010
0001
1000
0001
0000
0000
0000
,
1000
0010
0100
0001
,
0010
0000
0100
1000
0001
1000
0001
0000
,
0100
0010
1000
0100
,
0010
0000
0001
1000
0002
0000
0000
0000
,
0000
0003
0000
0000
0000
0000
0000
0000
0000
0000
0000
0000
0000
0000
0000
0000
;

//---------------dance-single - ----------------
#NOTES:
     dance-single:
     :
     Easy:
     5:
     0.242394,0.357497,0.000000,0.000000,0.000000,173.000000,173.000000,0.000000,0.000000,0.000000,0.000000,0.242394,0.357497,0.000000,0.000000,0.000000,173.000000,173.000000,0.000000,0.000000,0.000000,0.000000:
0000
0000
0000
0000
,
0000
0000
0000
0000
,
0000
0000
0000
0000
,
0000
0000
0000
0000
,
0000
0000
0000
0000
,
0000
0000
0000
0000
,
0000
0000
0000
0000
,
0000
0000
0000
0000
,
1000
0000
0000
0000
0001
0000
0000
0001
,
0000
0000
0000
0000
,
0010
0000
0000
0000
0100
0000
0000
0100
,
0000
0000
0000
0000
,
1000
0000
0000
0000
0100
0000
0000
0100
,
0000
0000
0000
0000
,
0010
0000
0000
0000
0001
0000
0000
0001
,
0000
0000
0000
0000
,
1000
0000
0010
0000
,
1000
0000
0100
0000
,
0010
0000
0001
0000
,
0100
0000
0010
1000
,
0001
0000
0100
0000
,
0010
0000
1000
0000
,
0100
0000
1000
0001
,
0000
0000
0100
0000
,
0001
0000
0010
0000
,
0100
0000
1000
0000
,
0010
0000
0100
0000
,
0001
0000
1000
0010
,
1000
1000
0010
0010
,
1000
0100
0010
0001
,
1000
0001
1000
0001
,
0100
0010
0100
0010
,
1000
0000
0001
0000
,
0100
0000
0010
0000
,
1000
0000
0100
0000
,
0010
0000
0001
0000
,
1000
0000
0001
0000
,
0010
0000
0100
0000
,
0010
0000
0001
0000
,
1000
0000
0010
0000
,
0100
0000
0010
0000
,
1000
0000
0100
0000
,
0010
0000
0001
0000
,
1000
0000
0010
0000
,
0100
0000
0001
0000
,
1000
0000
0001
0000
,
0100
0000
0000
0100
0000
0000
0010
0000
,
0000
0010
0000
0000
1000
0000
0001
0000
,
1000
0000
0000
0000
0010
0000
0000
0010
,
0000
0000
0000
0000
,
1000
0000
0000
0000
0001
0000
0000
0001
,
0000
0000
0000
0000
,
0010
0000
0000
0000
0100
0000
0000
0100
,
0000
0000
0000
0000
,
1000
0000
0000
0000
0100
0000
0000
0100
,
0000
0000
0000
0000
,
1000
0010
1000
0010
,
0100
0001
0100
0001
,
1000
0100
1000
0100
,
0010
0001
0010
0001
,
1000
0001
1000
0001
,
0010
0100
0010
0100
,
1000
0000
0001
0000
,
1000
0000
0000
0010
0000
0000
0100
0000
,
0000
0001
1000
0010
,
0100
0001
0100
0001
,
1000
0100
1000
0100
,
0010
0001
0010
0001
,
1000
0001
1000
0001
,
0010
0100
0010
0100
,
1000
0000
0010
0000
,
0100
0000
0001
0000
,
0010
0000
0100
0000
,
1000
0000
0010
0000
,
0100
0000
0001
0000
,
0010
0000
0100
0000
,
1000
0001
1000
0000
,
0001
0000
0000
0000
,
1000
0000
0000
0100
,
0000
0000
0000
0010
,
0000
0000
0001
0000
,
1000
0000
0000
0000
;

//---------------dance-single - ----------------
#NOTES:
     dance-single:
     :
     Beginner:
     3:
     0.155525,0.276337,0.000000,0.000000,0.000000,111.000000,111.000000,0.000000,0.000000,0.000000,0.000000,0.155525,0.276337,0.000000,0.000000,0.000000,111.000000,111.000000,0.000000,0.000000,0.000000,0.000000:
0000
0000
0000
0000
,
0000
0000
0000
0000
,
0000
0000
0000
0000
,
0000
0000
0000
0000
,
0000
0000
0000
0000
,
0000
0000
0000
0000
,
0000
0000
0000
0000
,
0000
0000
0000
0000
,
0001
0000
0000
0000
,
0000
0000
0000
0000
,
1000
0000
0000
0000
,
0000
0000
0000
0000
,
0001
0000
0000
0000
,
0000
0000
0000
0000
,
1000
0000
0000
0000
,
0000
0000
0000
0000
,
0001
0000
0001
0000
,
1000
0000
1000
0000
,
0010
0000
0010
0000
,
0100
0000
0100
0000
,
0001
0000
0001
0000
,
1000
0000
1000
0000
,
0100
0000
0100
0000
,
0000
0000
0010
0000
,
0001
0000
0001
0000
,
1000
0000
1000
0000
,
0010
0000
0010
0000
,
0100
0000
0100
0000
,
0001
0000
0001
0000
,
1000
0000
1000
0000
,
0100
0100
0000
0010
,
0001
0001
0000
1000
,
0001
0000
0001
0000
,
0000
0000
1000
0000
,
0010
0000
0010
0000
,
0000
0000
0100
0000
,
0001
0000
0001
0000
,
0000
0000
1000
0000
,
0100
0000
0100
0000
,
0000
0000
0010
0000
,
0001
0000
0001
0000
,
0000
0000
1000
0000
,
0010
0000
0010
0000
,
0000
0000
0100
0000
,
0010
0000
0010
0000
,
0000
0000
1000
0000
,
0100
0000
0000
0100
,
0000
0000
0000
0000
,
0010
0000
0000
0000
,
0000
0000
0000
0000
,
0001
0000
0000
0000
,
0000
0000
0000
0000
,
1000
0000
0000
0000
,
0000
0000
0000
0000
,
0001
0000
0000
0000
,
0000
0000
0000
0000
,
1000
0000
1000
0000
,
0010
0000
0010
0000
,
0100
0000
0100
0000
,
0001
0000
0001
0000
,
1000
0000
1000
0000
,
0100
0000
0100
0000
,
0010
0000
0010
0000
,
0001
0001
0000
0000
,
0000
1000
1000
0000
,
0010
0000
0010
0000
,
0100
0000
0100
0000
,
0001
0000
0001
0000
,
1000
0000
1000
0000
,
0100
0000
0100
0000
,
0010
0000
0010
0000
,
0001
0000
0001
0000
,
1000
0000
0001
0000
,
1000
0000
0001
0000
,
1000
0000
0001
0000
,
1000
0000
0001
0000
,
1000
0000
0001
0000
,
1000
0000
0000
0000
,
0100
0000
0000
0010
,
0000
0000
0000
0001
,
0000
0000
1000
0000
;
