#TITLE:Bamboo on Bamboo;
#SUBTITLE:;
#ARTIST:sampling masters MEGA;
#TITLETRANSLIT:;
#SUBTITLETRANSLIT:;
#ARTISTTRANSLIT:;
#GENRE:ROTTERDAM TECHNO;
#CREDIT:;
#BANNER:Bamboo on Bamboo.png;
#BACKGROUND:Bamboo on Bamboo-bg.png;
#LYRICSPATH:;
#CDTITLE:cdtitle.png;
#MUSIC:Bamboo on Bamboo.ogg;
#OFFSET:-0.200000;
#SAMPLESTART:88.977859;
#SAMPLELENGTH:9.634995;
#SELECTABLE:YES;
#BPMS:0.000000=200.000000
;
#STOPS:92.000000=0.600000,
154.000000=0.600000
;
#BGCHANGES:;
#KEYSOUNDS:;
#ATTACKS:;

//---------------dance-single - ----------------
#NOTES:
     dance-single:
     :
     Challenge:
     15:
     0.814116,1.041494,0.418334,0.031572,0.173648,722.000000,669.000000,53.000000,4.000000,0.000000,0.000000,0.814116,1.041494,0.418334,0.031572,0.173648,722.000000,669.000000,53.000000,4.000000,0.000000,0.000000:
0000
0000
0000
0000
,
0000
0000
0000
0000
,
0000
0000
0000
0000
,
0000
0000
0000
0000
,
1000
0100
0010
0100
0000
0010
0001
0000
,
0001
0100
0010
0100
0000
0010
1000
0000
,
1000
0010
0100
0010
0000
0100
0001
0000
,
0001
0000
1000
0000
0010
0000
1000
0000
0100
0000
1000
0000
0001
1000
0001
1000
,
0001
0100
0010
0100
1000
0100
0001
1000
,
0000
0100
1000
0001
1000
0000
0101
0000
,
1000
1000
1010
0100
0001
0001
0101
0010
,
1000
0000
0100
0000
0010
0000
0001
0000
0100
0000
0010
0000
1000
0001
1000
0001
,
1000
0100
0010
0100
0001
0100
1000
0001
,
0000
1000
0010
0100
0010
0000
1100
0000
,
0001
0001
0101
0010
1000
1000
1010
0100
,
0001
0000
0010
0000
0001
0000
0010
0000
0100
0000
1000
0000
0010
0100
0010
0100
,
0010
1000
0001
0100
0001
0100
1000
0100
,
0010
1000
0100
0010
1000
0010
0001
0100
,
0010
1000
0100
0010
0001
1000
0001
0010
,
0200
0000
0000
0000
0000
0000
0000
0000
0000
0000
0300
0000
1000
0001
1000
0001
,
1000
0100
0001
0100
0010
0100
1000
0100
,
0010
0001
0010
1000
0010
0100
1000
0001
,
0010
0100
0001
0100
1000
0001
0100
0010
,
1000
0000
1001
0000
1000
0010
0100
0010
,
0001
0010
1000
0001
0000
1000
0100
0010
,
0100
0000
0011
0000
1000
1000
1100
0010
,
0001
0001
0101
0100
0010
1000
0100
0010
,
0001
0000
1000
0000
0001
1000
0001
1000
0001
0000
0010
0000
0100
0000
0010
0000
,
1000
0010
0001
1000
0000
0001
0100
0010
,
0100
0000
1010
0000
1000
1000
1010
0100
,
0001
0001
0011
0010
0100
1000
0100
1000
,
0001
0000
0010
0000
0001
1000
0001
1000
0001
0000
0010
0000
1000
0000
0010
0000
,
0001
0100
1000
0100
0010
1000
0100
0010
,
0100
0001
0100
0010
0001
1000
0001
0010
,
0100
1000
0010
0100
0002
0000
0000
0000
,
0000
0000
0003
0000
0100
0010
0100
0010
0100
0000
0001
0000
0010
0000
0100
0000
,
0010
0001
1000
0100
0001
0100
0010
0001
,
1000
0010
0100
1000
0100
0001
0010
0100
,
1000
0000
0010
0000
0100
0000
0001
0000
1000
0000
0000
0000
0001
0100
0001
0100
,
0001
1000
0000
0010
0000
1000
1100
0100
,
0000
0010
0000
0001
0101
0100
0010
1000
,
0110
0010
0000
1000
0000
0100
0011
0001
,
0000
0100
0000
0010
1010
0000
0100
0000
,
1001
0001
0000
0010
0000
0100
0110
0010
,
0000
0001
0000
1000
1010
0010
0100
0001
,
0011
0010
0000
0100
0000
1000
1010
0100
,
0000
0000
0000
0001
0000
0000
0000
0000
0000
1000
0000
0000
0001
0000
0010
0000
0100
0000
1000
0000
0100
0000
0010
0000
,
0001
1000
0000
0100
0000
0010
0011
0001
,
0000
1000
0100
0000
1100
0100
0010
0001
,
0101
0100
0000
0010
0000
1000
1001
0001
,
0000
0010
0100
1000
0110
0000
0010
0000
,
1100
1000
0000
0001
0000
0010
0110
0100
,
0000
1000
0001
0000
1010
1000
0010
0100
,
0101
0001
0000
0011
0000
0010
0110
0100
,
0000
0000
0000
1100
0000
0000
0000
0000
0000
1000
0000
0000
0001
0000
0100
0000
0010
0000
1000
0000
0010
0000
0100
0000
,
0001
0010
0100
1000
0000
1000
0010
0100
,
0001
0010
0000
0010
0001
1000
0100
0010
,
0000
0010
0100
1000
0001
0100
0000
0100
,
0001
0010
1000
0010
0000
0010
0001
0100
,
1000
0100
0000
0100
0001
0010
0100
0001
,
0000
0000
0001
0000
0100
0000
0000
0000
0000
0000
1000
0100
1000
0000
0010
0000
,
1000
0100
0010
0001
0000
0001
0100
0010
,
1000
0100
0000
0100
0010
0001
0100
0010
,
0000
0010
1000
0010
0001
1000
0000
1000
,
0001
0010
0100
0001
0000
0001
1000
0100
,
0001
1000
0000
1000
0001
0100
0010
0001
,
0000
0001
0100
0010
1000
0100
0000
0100
,
0011
0000
0000
0101
0000
0000
1100
0000
,
0000
1010
0000
0000
0010
0001
0010
0001
,
0010
0001
1000
0010
1000
0100
0010
0001
,
1000
0100
0000
1000
0100
0000
1000
0000
0010
0000
0100
0000
0001
0100
0000
0001
,
0100
0000
0001
0000
0010
0000
0100
0000
1000
0001
1000
0001
1000
0001
1000
0001
,
1000
0100
0010
0001
1000
0100
0010
0001
2000
0000
0000
0000
0000
0000
0000
0000
,
3001
0010
1000
0010
0000
0010
0001
0100
,
0010
1000
0000
1000
0100
0010
0001
0010
,
0100
0100
1100
0001
0010
0010
0101
1000
,
0001
0000
0100
0000
0010
0000
1000
0000
0100
0000
0010
0000
0001
1000
0001
1000
,
0001
0010
0100
1000
0000
1000
0100
0001
,
0100
0010
0000
0010
0001
0100
0010
1000
,
0010
0010
1010
0001
0100
0100
0011
0001
,
1000
0000
0100
0000
0010
0000
0001
0000
0100
0000
0010
0000
1000
0100
1000
0100
,
1000
0001
0010
0100
0001
0100
1000
0000
,
0001
0001
0100
0100
0010
1000
0001
0100
,
0010
1000
0100
0010
1000
0010
0001
0000
,
1000
0001
0100
0100
0001
0010
0100
1000
,
0001
0100
0010
0100
0001
1000
0100
0000
,
0010
0010
0001
0001
0100
0010
1000
0010
,
0100
0001
0010
1000
0010
0001
0100
0000
,
0011
0101
1100
1010
,
1001
0001
0010
0100
1000
0001
0100
0010
,
1000
0000
1100
0000
0000
0011
0000
1001
,
1000
0001
0100
0010
0100
0001
0010
0100
,
1000
0000
0011
0000
0000
1100
0100
0100
,
0010
0001
0100
1000
0000
1000
0100
0001
,
0010
0000
0000
0000
0010
0000
1000
0000
0010
0000
0001
0000
1000
0100
1000
0000
,
0010
1000
0100
0010
0001
1000
0100
1000
,
0010
0000
0100
0000
0010
0000
0001
0000
0010
0000
0100
0000
0010
1000
0010
1000
,
0001
0020
0000
0000
,
0000
0000
0000
0000
,
0000
0000
0000
0000
,
0000
0000
0000
0000
,
0000
0000
0030
0000
;

//---------------dance-single - ----------------
#NOTES:
     dance-single:
     :
     Hard:
     13:
     0.700230,0.761092,0.260472,0.007893,0.063145,621.000000,588.000000,33.000000,1.000000,0.000000,0.000000,0.700230,0.761092,0.260472,0.007893,0.063145,621.000000,588.000000,33.000000,1.000000,0.000000,0.000000:
0000
0000
0000
0000
,
0000
0000
0000
0000
,
0000
0000
0000
0000
,
0000
0000
0000
0000
,
1000
0001
1000
0000
0000
0100
0010
0000
,
0001
1000
0001
0000
0000
0100
0010
0000
,
1000
0100
1000
0000
0000
0001
0100
0000
,
0001
0000
0000
0000
1001
0000
0000
0000
1000
0000
0000
0000
0001
1000
0001
1000
,
0001
0010
0000
0001
1000
0100
0010
0100
,
0000
1000
0010
0000
0110
0000
0100
0000
,
1001
0000
1000
0100
0010
0000
0010
0100
,
1000
0000
1000
0000
0010
0000
0100
0000
0001
0000
0000
0000
0001
1000
0001
1000
,
0001
0100
0000
0001
1000
0010
0100
0010
,
0000
1000
0100
0000
0110
0000
0010
0000
,
1001
0000
0001
0100
0010
0000
0010
0100
,
0001
0001
0010
0100
1000
0010
0100
0001
,
1000
0010
0100
0010
0001
0010
0100
0010
,
1000
0100
0010
0100
0001
0100
0010
0100
,
1000
0010
0100
0010
0001
0010
0100
0010
,
1000
0000
0000
0000
0000
0000
0000
0000
0000
0000
0000
0000
0001
1000
0001
1000
,
0001
0100
0010
0100
1000
0100
0010
0100
,
0001
0010
0100
0010
1000
0010
0100
0010
,
0001
0100
0010
0100
1000
0100
0010
0100
,
0001
0000
1001
0000
1000
0010
0000
1000
,
0100
0010
0001
0100
0000
0010
1000
0000
,
1001
0000
0001
0000
0110
0000
0100
0001
,
0010
0000
0001
1000
0100
0100
0010
0100
,
1000
0000
0000
0000
0001
1000
0001
1000
0001
0000
0010
0000
0000
0000
0001
0000
,
0100
0010
1000
0100
0000
0010
0001
0000
,
1001
0000
1000
0000
0110
0000
0100
0001
,
0010
0000
0001
1000
0001
0001
0010
0100
,
1000
0010
0100
0001
1000
0010
0100
0010
,
0001
0010
0100
0010
1000
0100
0010
0100
,
0001
0100
0010
0100
1000
0010
0100
0010
,
0001
0010
0100
0010
1000
0000
0000
0000
,
0000
0000
0000
0000
0001
1000
0001
1000
0001
0000
0100
0000
0010
0000
0100
0000
,
1000
0100
0010
0100
0001
0010
0100
0010
,
1000
0010
0100
0010
0001
0100
0010
0100
,
1000
0100
0010
0100
0001
0000
1001
0000
,
1000
0010
0000
0100
0000
0001
0010
0001
,
0000
1000
0000
0001
0010
1000
0010
0001
,
1000
0100
0000
0010
0000
0001
0100
0001
,
0000
1000
0000
0010
0100
0000
0000
0000
,
0001
0010
0000
0100
0000
1000
0010
1000
,
0000
0001
0000
1000
0010
0001
0010
1000
,
0001
0100
0000
0010
0000
1000
0100
1000
,
0000
0001
0000
0010
0001
0000
0000
0000
,
1000
0100
0000
0010
0000
0100
1000
0001
,
0000
0100
0000
0001
0100
1000
0100
0001
,
1000
0010
0000
0100
0000
0010
1000
0001
,
0000
0010
0000
0001
1000
0000
0000
0000
,
0001
0100
0000
0010
0000
0100
0001
1000
,
0000
0100
0000
1000
0100
0001
0100
1000
,
0001
0010
0000
0100
0000
0010
0001
1000
,
0000
0100
0000
0010
0001
1000
0001
1000
,
0001
0100
0001
0100
0000
0010
1000
0010
,
1000
0100
0000
0010
0001
0010
0001
1000
,
0000
0100
1000
0010
1000
0010
0000
0100
,
0001
1000
0001
1000
0000
0010
0100
0010
,
0100
0001
0000
1000
0010
1000
0010
0100
,
0000
0001
1001
0000
0000
0000
0000
0000
,
1000
0100
0010
0001
0000
0100
0010
1000
,
0001
0010
0000
0001
0100
0010
1000
0100
,
0000
1000
0010
0100
0010
0001
0000
0010
,
1000
0100
1000
0001
0000
0010
0100
0010
,
0001
1000
0000
0100
1000
0010
0100
0001
,
0000
0010
0001
0100
0010
1000
0000
0001
,
1000
0000
0000
1001
0000
0000
0101
0000
,
0000
1001
0000
0000
1000
0100
0010
0100
,
1000
0010
0100
0001
0010
0100
0010
0001
,
1000
0100
0000
1000
0100
0000
0010
0000
0001
0000
0100
0000
0001
0010
0000
0001
,
0010
0100
1000
0010
1000
0100
0010
1000
,
0010
0001
1000
0010
0100
1000
0100
0001
,
0010
0001
1000
0100
0000
1000
0001
1000
,
0001
0010
0000
0001
0100
0010
1000
0100
,
1000
0000
0001
0100
0001
0000
1000
0010
,
0100
0000
0100
0000
0001
0000
0010
0000
0100
0000
0000
0000
1000
0001
1000
0001
,
0100
0001
1000
0010
0000
1000
0001
1000
,
0001
0100
0000
0001
0010
0100
1000
0010
,
1000
0000
0001
0010
0001
0000
1000
0100
,
0010
0010
0001
0100
0010
1000
0001
0010
,
0001
1000
1010
1001
,
1000
0010
1000
0010
0100
0001
0010
0000
,
0001
1000
1100
1001
,
1000
0000
0010
0100
0010
0100
0001
0010
,
0001
0100
1010
1001
,
0001
0100
0001
0100
0010
1000
0100
0000
,
1000
0010
0101
1001
,
0011
0011
1001
1001
,
1000
0010
1000
0010
0000
0000
0101
0000
,
0011
0000
1001
0000
0000
0001
0000
1000
,
0001
0010
0001
0010
0000
0000
1100
0000
,
1010
0000
1001
0000
0000
1000
0100
0010
,
0001
0100
0001
0100
0000
0010
1000
0010
,
1000
0000
0100
0010
0100
0001
0100
0010
,
0100
1000
0010
0100
0001
0010
0100
1000
,
0010
1000
0100
1000
0010
0100
0001
0010
,
0001
0200
0000
0000
,
0000
0000
0000
0000
,
0000
0000
0000
0000
,
0000
0000
0000
0000
,
0000
0000
0300
0000
;

//---------------dance-single - ----------------
#NOTES:
     dance-single:
     :
     Medium:
     10:
     0.487117,0.560804,0.228900,0.063145,0.000000,432.000000,403.000000,29.000000,8.000000,0.000000,0.000000,0.487117,0.560804,0.228900,0.063145,0.000000,432.000000,403.000000,29.000000,8.000000,0.000000,0.000000:
// measure 0
0000
0000
0000
0000
,  // measure 1
0000
0000
0000
0000
,  // measure 2
0000
0000
0000
0000
,  // measure 3
0000
0000
0000
0000
,  // measure 4
1000
0000
0001
0000
0000
1000
0001
0000
,  // measure 5
0010
0000
0100
0000
0000
0010
0100
0000
,  // measure 6
1000
0000
0001
0000
0000
1000
0001
0000
,  // measure 7
1000
0000
1010
0000
1001
0000
0001
0010
,  // measure 8
0200
0000
0300
0000
1000
0010
0000
0100
,  // measure 9
0000
0001
0010
0000
0001
0000
1000
0000
,  // measure 10
0001
0000
1000
0010
1000
0000
0000
0000
,  // measure 11
0100
0010
0100
1000
0001
0000
0000
0000
,  // measure 12
0200
0000
0300
0000
0001
0010
0000
0100
,  // measure 13
0000
1000
0010
0000
1000
0000
0001
0000
,  // measure 14
1000
0000
0001
0010
0001
0000
0000
0000
,  // measure 15
0100
0010
0100
0001
1000
0100
0010
0001
,  // measure 16
1000
1000
0010
0010
,  // measure 17
0100
0100
0001
0001
,  // measure 18
0010
0000
0010
0000
0100
0000
1000
0001
,  // measure 19
1000
0000
0000
0000
0000
0000
0001
0100
,  // measure 20
0001
0001
0010
0010
,  // measure 21
0100
0100
1000
1000
,  // measure 22
0010
0000
0010
0000
0100
0000
0001
1000
,  // measure 23
0001
1000
0020
0030
,  // measure 24
1000
0100
0000
0010
0000
0001
0100
0000
,  // measure 25
0001
0000
1000
0000
0001
0000
1000
0100
,  // measure 26
1000
0000
0000
0000
0010
0100
0010
1000
,  // measure 27
0001
0000
0020
0030
,  // measure 28
0001
0100
0000
0010
0000
1000
0100
0000
,  // measure 29
1000
0000
0001
0000
1000
0000
0001
0100
,  // measure 30
0001
0000
0000
0000
0010
0100
0010
0001
,  // measure 31
1000
0010
0100
0001
1000
0000
1000
0000
,  // measure 32
0100
0100
0010
0010
,  // measure 33
0001
0001
0100
0100
,  // measure 34
0010
0000
1000
0001
1000
0000
0000
0000
,  // measure 35
0000
0000
0001
1000
0001
0000
0001
0000
,  // measure 36
0100
0100
0010
0010
,  // measure 37
1000
1000
0100
0100
,  // measure 38
0010
0000
0001
1000
0001
0000
0000
0000
,  // measure 39
1001
0000
0000
0000
0000
0000
1000
1100
,  // measure 40
0000
0000
0101
0000
,  // measure 41
0011
0000
0000
0000
0000
0000
0001
1001
,  // measure 42
0000
0000
0110
0000
,  // measure 43
1010
0000
0000
0000
0000
0000
1000
1100
,  // measure 44
0000
0000
0110
0000
,  // measure 45
0011
0000
0000
0000
0000
0000
0001
0101
,  // measure 46
0000
0000
1010
0000
,  // measure 47
1000
0100
0000
0000
0000
1000
0010
1000
,  // measure 48
0000
0001
0100
0000
0001
0010
0001
0000
,  // measure 49
1000
0010
0000
0000
0000
1000
0100
1000
,  // measure 50
0000
0001
0010
0000
0001
0000
1001
0000
,  // measure 51
1000
0010
0000
0000
0000
0100
0001
0100
,  // measure 52
0000
0000
0001
0000
1000
0100
1000
0000
,  // measure 53
0011
0000
0000
1010
0000
0000
1100
0000
,  // measure 54
0000
0101
0000
0000
1001
0000
0000
0000
,  // measure 55
1000
0000
1000
0100
0000
0100
0010
0000
,  // measure 56
0010
0001
0000
0001
0100
0000
0100
0010
,  // measure 57
0000
0010
1000
0000
1000
0001
0000
0000
,  // measure 58
1000
0000
1000
0010
0000
0010
0100
0000
,  // measure 59
0100
0001
0000
0001
0010
0000
0010
0100
,  // measure 60
0000
0100
1000
0000
0000
0000
0000
0000
,  // measure 61
0001
0000
0001
0010
0000
0010
0100
0000
,  // measure 62
0100
1000
0000
1000
0010
0000
0010
0100
,  // measure 63
0000
0100
0001
0000
0001
1000
0000
0000
,  // measure 64
0001
0000
0001
0100
0000
0100
0010
0000
,  // measure 65
0010
1000
0000
1000
0100
0000
0100
0010
,  // measure 66
0000
0010
0001
0000
0001
1000
0000
1000
,  // measure 67
0001
0000
0000
0101
0000
0000
1010
0000
,  // measure 68
0000
1100
0000
0000
1000
0000
0000
0010
,  // measure 69
0000
0000
0100
0000
0000
0001
0000
0000
,  // measure 70
0010
0001
0010
0001
1000
0000
0010
0100
,  // measure 71
0010
0100
0001
0000
2000
0000
0000
0000
,  // measure 72
3200
0000
0320
0000
,  // measure 73
0031
1000
0000
0100
0000
1000
0010
1000
,  // measure 74
0000
0001
0000
0010
0100
0010
0001
1000
,  // measure 75
0001
0100
0000
0010
0000
1000
0100
0010
,  // measure 76
0000
0100
0000
1000
0010
1000
0001
1000
,  // measure 77
0001
1000
0000
0010
0000
1000
0100
1000
,  // measure 78
0000
0001
0000
0100
0010
0100
0001
1000
,  // measure 79
0001
0010
0000
0100
0000
1000
0010
0100
,  // measure 80
0000
0010
0000
1000
0100
1000
0001
1000
,  // measure 81
0001
0001
0100
0100
,  // measure 82
0010
1000
0010
0000
1000
0001
1000
0000
,  // measure 83
0010
0010
1000
1000
,  // measure 84
0100
0010
0100
0000
1000
0001
1000
0000
,  // measure 85
0001
0101
1000
1100
,  // measure 86
0001
0010
0001
0000
1000
0010
1000
0000
,  // measure 87
0001
0011
1000
1010
,  // measure 88
0001
1001
1000
1001
,  // measure 89
1000
0100
0010
0100
,  // measure 90
1000
0000
0010
0000
0000
0100
0000
0100
,  // measure 91
0001
0010
0100
0010
,  // measure 92
0001
0000
0100
0000
0000
0010
0100
0010
,  // measure 93
0100
0010
1000
0100
,  // measure 94
0010
0001
0100
0010
,  // measure 95
1000
1000
0010
0010
,  // measure 96
0100
0000
0100
0000
0001
0000
1000
0001
,  // measure 97
1000
0020
0000
0000
,  // measure 98
0000
0000
0000
0000
,  // measure 99
0000
0000
0000
0000
,  // measure 100
0000
0000
0000
0000
,  // measure 101
0000
0000
0030
0000
;

//---------------dance-single - ----------------
#NOTES:
     dance-single:
     :
     Easy:
     7:
     0.327000,0.480690,0.134183,0.047359,0.000000,290.000000,273.000000,17.000000,6.000000,0.000000,0.000000,0.327000,0.480690,0.134183,0.047359,0.000000,290.000000,273.000000,17.000000,6.000000,0.000000,0.000000:
0000
0000
0000
0000
,
0000
0000
0000
0000
,
0000
0000
0000
0000
,
0000
0000
0000
0000
,
1000
0100
0000
0100
,
0000
0100
0000
0100
,
1000
0010
0000
0010
,
0100
0100
0001
0001
,
1000
0100
0010
0001
,
0010
0100
1000
0000
,
0001
0000
1000
0000
,
0001
0010
0100
0000
,
1000
0010
0100
0001
,
0100
0010
1000
0000
,
0001
0000
1000
0000
,
0001
0001
1000
1000
,
0001
0010
0100
0010
,
0001
1000
0010
1000
,
0001
0100
0010
0100
,
0001
0000
0000
0000
,
1000
0100
0010
0100
,
1000
0010
0100
0001
,
1000
0010
0100
0010
,
1000
0000
0001
0010
,
0100
1000
0100
0010
,
0001
0000
1000
0000
,
0001
0000
1000
0100
,
0010
0000
0001
0100
,
0010
1000
0010
0100
,
0001
0000
1000
0000
,
0001
0000
1000
1000
,
0010
0010
1000
0100
,
0010
0100
1000
0010
,
0100
0001
1000
0010
,
0100
0010
1000
0000
,
0000
0000
0001
0010
,
0100
0010
0001
0100
,
0010
1000
0001
0100
,
0010
0100
0001
0000
,
1001
0000
0000
0000
0000
0000
0010
0100
,
0000
0000
1001
0000
,
1001
0000
0000
0000
0000
0000
0100
0010
,
0000
0000
1001
0000
,
0110
0000
0000
0000
0000
0000
1000
0001
,
0000
0000
0110
0000
,
0110
0000
0000
0000
0000
0000
0001
1000
,
0000
0000
0110
0000
,
1000
0001
0000
0000
0000
0000
0001
1000
,
0000
0000
1001
0000
,
0010
0100
0000
0000
0000
0000
0100
0010
,
0000
0000
0110
0000
,
1000
0001
0000
0000
0000
0000
0001
1000
,
0000
0000
1001
0000
,
1010
0000
0000
0101
0000
0000
0011
0000
,
0000
1100
0000
0000
1001
0000
0000
0000
,
1000
0000
0000
0010
0000
0000
0100
0000
,
0000
0001
0000
0000
0010
0000
0000
0100
,
0000
0000
1000
0000
0000
0010
0000
0000
,
1000
0000
0000
0001
0000
0000
1000
0000
,
0000
0100
0000
0000
1000
0000
0000
0001
,
0000
1001
0000
0000
,
0001
0000
0000
0100
0000
0000
0010
0000
,
0000
1000
0000
0000
0100
0000
0000
0010
,
0000
0000
0001
0000
0000
0100
0000
0000
,
0001
0000
0000
0010
0000
0000
0001
0000
,
0000
1000
0000
0000
0100
0000
0000
0010
,
0000
0000
0100
0000
0000
1000
0000
0000
,
0001
0000
0000
0001
0000
0000
1000
0000
,
0000
1000
0000
0000
0001
0000
0000
0010
,
0000
0000
0100
0000
0000
1000
0000
0000
,
2000
0000
0000
3002
,
0000
0000
0203
0000
,
0320
0000
2030
0000
,
3001
0010
0100
1000
,
0100
0010
0001
0100
,
0010
0000
1000
0000
,
0001
0001
1000
1000
,
0001
0100
0010
1000
,
0010
0100
0001
0010
,
0100
0000
1000
0000
,
0001
0001
1000
1000
,
0001
0100
0001
0100
,
0010
0010
0010
0010
,
1000
0010
1000
0010
,
0100
0100
0100
0100
,
0001
0010
0001
0010
,
0100
0100
0100
0100
,
1000
0100
1000
0100
,
0010
0010
0010
0010
,
0001
0000
1000
0000
,
0100
0100
0000
0000
,
0010
0000
0001
0000
,
0100
0100
0000
0000
,
0010
0000
1000
0000
,
0001
0000
1000
0000
,
0100
0000
0010
0000
,
0001
0010
0100
1000
,
0020
0000
0000
0000
,
0000
0000
0000
0000
,
0000
0000
0000
0000
,
0000
0000
0000
0000
,
0000
0000
0030
0000
;

//---------------dance-single - ----------------
#NOTES:
     dance-single:
     :
     Beginner:
     4:
     0.173648,0.320460,0.031572,0.007893,0.000000,154.000000,150.000000,4.000000,1.000000,0.000000,0.000000,0.173648,0.320460,0.031572,0.007893,0.000000,154.000000,150.000000,4.000000,1.000000,0.000000,0.000000:
0000
0000
0000
0000
,
0000
0000
0000
0000
,
0000
0000
0000
0000
,
0000
0000
0000
0000
,
1000
0001
0000
0001
,
0000
0001
0000
0001
,
1000
0001
0000
0001
,
1000
1000
0001
0001
,
1000
0000
1000
0000
,
0010
0000
0010
0000
,
0100
0000
0100
0000
,
0001
0000
0001
0000
,
0010
0000
0010
0000
,
0100
0000
0100
0000
,
1000
0000
1000
0000
,
0010
0000
0010
0000
,
1000
0000
0000
0000
,
0001
0000
0000
0000
,
1000
0000
0000
0000
,
0010
0000
0000
0000
,
1000
0000
0000
0000
,
0100
0000
0000
0000
,
0010
0000
0000
0000
,
0001
0000
1000
0000
,
1000
0000
0010
0000
,
0010
0000
0100
0000
,
0100
0000
0001
0000
,
0001
0000
0010
0000
,
0010
0000
0100
0000
,
0100
0000
1000
0000
,
1000
0000
0001
0000
,
0001
0000
1000
0000
,
0000
0000
0010
0000
,
0000
0000
1000
0000
,
0000
0000
0001
0000
,
0000
0000
1000
0000
,
0000
0000
0100
0000
,
0000
0000
0010
0000
,
0000
0000
0001
0000
,
1000
0000
0000
1000
,
0000
0000
0001
0000
,
0001
0000
0000
1000
,
0000
0000
0001
0000
,
1000
0000
0000
1000
,
0000
0000
0001
0000
,
0001
0000
0000
1000
,
0000
0000
0001
0000
,
1000
0000
0000
1000
,
0000
0000
0001
0000
,
0001
0000
0000
1000
,
0000
0000
0001
0000
,
1000
0000
0000
1000
,
0000
0000
0001
0000
,
0001
0000
0000
1000
,
0000
0000
0001
0000
,
1000
0000
0000
0100
,
0000
0000
0010
0000
,
0000
0001
0000
0000
,
0100
0000
0000
0010
,
0000
0000
1000
0000
,
0000
0100
0000
0000
,
1000
0000
0000
0010
,
0000
0000
0100
0000
,
0000
0001
0000
0000
,
0010
0000
0000
0001
,
0000
0000
1000
0000
,
0000
0100
0000
0000
,
1000
0000
0000
1000
,
0000
0000
0001
0000
,
0000
0001
0000
0000
,
1000
0000
0000
0001
,
0000
0000
1000
0000
,
0010
0000
0100
0000
,
0001
0000
0001
0000
,
0010
0000
0010
0000
,
0100
0000
0100
0000
,
1000
0000
1000
0000
,
0100
0000
0100
0000
,
0010
0000
0010
0000
,
0001
0000
0001
0000
,
1000
0000
1000
0000
,
0001
0000
0000
0000
,
1001
0000
0000
0000
,
1000
0000
0000
0000
,
1001
0000
0000
0000
,
0001
0000
0000
0000
,
1001
0000
0000
0000
,
1000
0000
0000
0000
,
1001
0000
0000
0000
,
0001
0000
1000
0000
,
0100
0100
0000
0000
,
0010
0000
0001
0000
,
1000
1000
0000
0000
,
0010
0000
0100
0000
,
0001
0000
1000
0000
,
0100
0000
0010
0000
,
0001
0000
1000
0000
,
0002
0000
0000
0000
,
0000
0000
0000
0000
,
0000
0000
0000
0000
,
0000
0000
0000
0000
,
0000
0000
0003
0000
;
