#VERSION:0.83;
#TITLE:B.B.K.K.B.K.K.;
#SUBTITLE:;
#ARTIST:nora2r;
#TITLETRANSLIT:;
#SUBTITLETRANSLIT:;
#ARTISTTRANSLIT:;
#GENRE:UK HARDCORE;
#ORIGIN:;
#CREDIT:;
#BANNER:B.B.K.K.B.K.K.png;
#BACKGROUND:B.B.K.K.B.K.K-bg.png;
#PREVIEWVID:;
#JACKET:B.B.K.K.B.K.K-jacket.png;
#CDIMAGE:;
#DISCIMAGE:;
#LYRICSPATH:;
#CDTITLE:cdtitle.png;
#MUSIC:B.B.K.K.B.K.K.ogg;
#OFFSET:0.000000;
#SAMPLESTART:101.611679;
#SAMPLELENGTH:11.342354;
#SELECTABLE:YES;
#BPMS:0.000=170.000;
#STOPS:;
#DELAYS:;
#WARPS:;
#TIMESIGNATURES:0.000=4=4;
#TICKCOUNTS:0.000=4;
#COMBOS:0.000=1;
#SPEEDS:0.000=1.000=0.000=0;
#SCROLLS:0.000=1.000;
#FAKES:;
#LABELS:0.000=Song Start;
#BGCHANGES:0.000=B.B.K.K.B.K.K.avi=1.000=0=0=0=StretchNoLoop==CrossFade_Fastest==,
99999=-nosongbg-=1.000=0=0=0 // don't automatically add -songbackground-
;
#KEYSOUNDS:;
#ATTACKS:
;

//---------------dance-single - ----------------
#NOTEDATA:;
#CHARTNAME:;
#STEPSTYPE:dance-single;
#DESCRIPTION:;
#CHARTSTYLE:;
#DIFFICULTY:Challenge;
#METER:16;
#RADARVALUES:0.792080,1.006381,0.063096,0.063096,0.768982,703.000000,695.000000,8.000000,8.000000,0.000000,0.000000,0.000000,0.000000,0.000000,0.792080,1.006381,0.063096,0.063096,0.768982,703.000000,695.000000,8.000000,8.000000,0.000000,0.000000,0.000000,0.000000,0.000000;
#CREDIT:;
#NOTES:
// measure 0
0000
0000
0000
0000
,  // measure 1
0000
0000
0000
0000
,  // measure 2
0000
0000
0000
0000
,  // measure 3
0000
0000
0000
0000
,  // measure 4
1000
1000
0001
0001
,  // measure 5
1000
0001
0001
0000
,  // measure 6
0100
0100
0010
0010
,  // measure 7
0110
0000
1000
0010
0100
0000
1001
0000
,  // measure 8
1000
0000
0000
1000
0001
0000
0010
0000
1000
0000
0000
0010
0100
0000
0010
0000
,  // measure 9
0001
0000
0000
0001
1000
0000
0010
0000
0001
0000
0000
0010
0100
0000
0010
0000
,  // measure 10
1000
0000
0000
1000
0001
0000
0100
0000
1000
0000
0000
0100
0010
0000
0100
0000
,  // measure 11
0001
0000
0000
0001
1000
0000
0100
0000
0010
0000
0000
0000
1001
0000
0000
0000
,  // measure 12
1000
0000
0000
1000
0010
0000
0100
0000
0001
0000
0000
0010
1000
0000
0010
0000
,  // measure 13
0001
0000
0000
0001
0100
0000
0010
0000
1000
0000
0100
0000
0001
0000
0100
0000
,  // measure 14
1000
0000
0000
1000
0001
0000
0010
0000
0100
0000
0000
0010
0001
0000
1000
0000
,  // measure 15
0010
0000
0000
0100
0000
0000
0001
0000
0010
0000
0000
0100
0000
0000
1000
0000
,  // measure 16
0001
0000
1000
0100
0000
1000
0000
0010
0000
0100
0000
0001
0000
0010
0001
0000
,  // measure 17
1000
0000
0001
0100
0000
0001
0000
0010
0000
0100
0000
1000
0000
0010
1000
0000
,  // measure 18
0001
0000
1000
0010
0000
1000
0000
0100
0000
0010
0000
0001
0000
0100
0001
0000
,  // measure 19
1000
0000
0001
0010
0000
0001
0000
0100
0010
0000
0000
0000
1001
0000
0000
0000
,  // measure 20
1000
0000
0100
0010
0000
0100
0000
1000
0000
0010
0000
0100
0000
0001
0010
0000
,  // measure 21
0001
0000
0100
0010
0000
0100
0000
0001
0000
0010
0000
0100
0000
1000
0010
0000
,  // measure 22
1000
0000
0001
0100
0000
0001
0000
1000
0000
0100
0000
0010
0000
0001
0100
0000
,  // measure 23
0010
0000
0000
1001
,  // measure 24
1000
0010
0100
0010
0001
0010
0100
0010
,  // measure 25
1000
0100
0000
1000
0001
0010
0100
1000
,  // measure 26
0001
0010
0100
0010
1000
0010
0100
0010
,  // measure 27
0001
0100
0000
0001
1000
0010
0100
0000
,  // measure 28
0001
0100
0010
0100
1000
0100
0010
0100
,  // measure 29
0001
0010
0000
0001
1000
0100
0010
0001
,  // measure 30
1000
0100
0010
0100
0001
0100
0010
0100
,  // measure 31
1000
0001
1000
1000
0010
0010
0100
0100
,  // measure 32
0001
0010
0100
0001
0100
1000
0010
0100
,  // measure 33
0001
1000
0100
0010
1000
0010
0001
0000
,  // measure 34
1000
0010
0100
1000
0100
0001
0010
0100
,  // measure 35
1000
0001
0100
0010
0001
0010
1000
0000
,  // measure 36
0001
0000
0000
0000
0000
0000
1000
0100
1000
0000
0000
0001
0000
0000
0100
0000
,  // measure 37
0010
0000
0000
1000
0000
0000
0001
0010
0001
0000
1000
0000
0100
0000
0010
0000
,  // measure 38
0001
0100
0010
0100
0001
0010
0100
1000
0010
0100
0010
1000
0100
0010
0001
0100
,  // measure 39
0000
0000
0001
0010
0100
0000
1001
0000
,  // measure 40
2000
0000
0000
3000
0001
0100
0001
0100
,  // measure 41
0020
0000
0000
0030
1000
0100
1000
0100
,  // measure 42
0020
0000
0000
0030
0001
0010
0001
0010
,  // measure 43
0200
0000
0000
1300
0010
1000
0010
0100
,  // measure 44
0002
0000
0000
0003
1000
0001
1000
0001
,  // measure 45
0020
0000
0000
0030
0001
1000
0001
1000
,  // measure 46
0020
0000
0000
0030
1000
0001
1000
0001
,  // measure 47
0200
0000
0000
0301
1000
0001
1000
0100
,  // measure 48
0010
0000
0000
0001
1000
0000
0010
0000
1000
0000
0000
1000
0100
0000
0010
0000
,  // measure 49
0001
0000
0000
1000
0010
0000
0100
0000
0010
0000
0000
0010
0100
0000
0001
0000
,  // measure 50
0010
0000
0000
0001
1000
0000
0010
0000
1000
0000
0000
1000
0001
0000
0010
0000
,  // measure 51
0100
0000
0000
1000
0010
0000
0100
0000
0001
0000
0000
0001
1000
0000
0010
0000
,  // measure 52
1000
0100
0010
0100
1000
0100
0001
0100
,  // measure 53
1000
0010
0100
0010
1000
0010
0001
0010
,  // measure 54
1000
0100
0010
0100
1000
0010
0100
0001
0010
0100
0010
0001
0100
0010
1000
0100
,  // measure 55
0010
0000
0000
0001
0100
0001
1000
0100
,  // measure 56
0010
0000
0000
0100
1000
0000
0010
0000
0100
0000
0000
0001
0010
0000
0001
0000
,  // measure 57
1000
0000
0000
0010
0100
0000
0010
0000
1000
0100
0000
1000
0001
1000
0001
0000
,  // measure 58
0100
0000
0000
0010
1000
0000
0100
0000
0010
0000
0000
0001
0100
0000
0001
0000
,  // measure 59
1000
0000
0000
0100
0010
0000
0100
0000
1000
0010
0000
1000
0001
1000
0001
0000
,  // measure 60
0010
0000
0000
0001
0100
0000
0010
0000
1000
0000
0000
0001
0010
0000
0100
0000
,  // measure 61
0010
0000
0000
0001
1000
0000
0010
0000
0100
0010
0000
1000
0001
1000
0001
0000
,  // measure 62
1000
0000
0000
0001
0100
0000
0001
0000
0010
0000
0000
0100
1000
0000
0010
0000
,  // measure 63
0100
0001
1000
1000
0100
0100
0010
0010
,  // measure 64
0001
0000
1000
0000
0001
0000
0010
0001
0000
1000
0000
0010
0000
0100
0001
0100
,  // measure 65
0001
0000
1000
0000
0001
0000
0100
0001
0000
1000
0000
0100
0000
0010
0100
0010
,  // measure 66
0100
0000
1000
0000
0010
0000
0100
0001
0000
0010
0000
0001
0000
1000
0010
1000
,  // measure 67
0010
0000
0100
0000
0001
0000
0010
0100
0000
1000
0000
0010
0000
1000
0001
1000
,  // measure 68
0001
0000
1000
0000
0001
0000
1000
0010
1000
0000
0001
0000
1000
0000
0001
0010
,  // measure 69
0001
0000
1000
0000
0001
0000
1000
0100
1000
0000
0001
0000
1000
0000
0001
0100
,  // measure 70
0001
0010
0001
0010
0100
1000
0100
1000
,  // measure 71
0001
0000
0000
1000
0000
0000
0010
0000
0100
0000
0010
0000
0100
0000
0000
0001
0000
0000
1001
0000
0000
0000
0000
0000
,  // measure 72
1000
0000
0010
0100
0000
0001
1000
0000
0001
0000
0010
0100
0000
0010
0001
0000
,  // measure 73
1000
0000
0010
0100
0000
0010
1000
0000
0001
0010
0001
0010
0100
1000
0100
1000
,  // measure 74
0001
0000
0100
0010
0000
1000
0001
0000
1000
0000
0100
0010
0000
0100
1000
0000
,  // measure 75
0001
0000
0100
0010
0000
0100
0001
0000
1000
0100
1000
0100
0010
0001
0010
0001
,  // measure 76
1000
0000
0001
0100
0000
0001
0010
0000
0001
0000
1000
0100
0000
1000
0010
0000
,  // measure 77
1000
0000
0001
0010
0000
0001
0100
0000
0001
0010
0001
0010
0100
1000
0100
1000
,  // measure 78
0001
0000
1000
0010
0000
1000
0100
0000
1000
0000
0001
0010
0000
0001
0100
0000
,  // measure 79
0001
0000
1000
0100
0000
1000
0010
0000
1000
0100
1000
0001
0000
0010
0000
0001
,  // measure 80
1000
0000
0000
0010
1000
0000
0001
0000
1000
0100
0000
1000
0010
0000
0100
0000
,  // measure 81
0001
0000
0000
0010
0001
0000
1000
0000
0001
0100
0001
0100
0010
1000
0010
1000
,  // measure 82
0001
0000
0000
0100
0001
0000
1000
0000
0001
0010
0000
0001
0100
0000
0010
0000
,  // measure 83
1000
0000
0000
0100
1000
0000
0001
0000
1000
0010
1000
0010
0100
0001
0100
0001
,  // measure 84
1000
0010
0100
0010
1000
0100
0001
0100
,  // measure 85
1000
0000
0001
0000
1000
0000
0001
0000
1000
0010
1000
0010
0100
0001
0100
0001
,  // measure 86
1000
0100
0010
0100
1000
0010
0100
0001
0010
0100
0010
0001
0100
0010
1000
0100
,  // measure 87
0010
0000
0001
0100
0010
0000
1000
0000
,  // measure 88
1001
0000
0000
0000
;

//---------------dance-single - ----------------
#NOTEDATA:;
#CHARTNAME:;
#STEPSTYPE:dance-single;
#DESCRIPTION:;
#CHARTSTYLE:;
#DIFFICULTY:Hard;
#METER:13;
#RADARVALUES:0.610679,0.659353,0.063096,0.063096,0.248440,542.000000,534.000000,8.000000,8.000000,0.000000,0.000000,0.000000,0.000000,0.000000,0.610679,0.659353,0.063096,0.063096,0.248440,542.000000,534.000000,8.000000,8.000000,0.000000,0.000000,0.000000,0.000000,0.000000;
#CREDIT:;
#NOTES:
0000
0000
0000
0000
,
0000
0000
0000
0000
,
0000
0000
0000
0000
,
0000
0000
0000
0000
,
1000
1000
0001
0001
,
1000
0001
0001
0000
,
0100
0100
0010
0010
,
0110
0000
0000
0000
,
1000
0000
0000
1000
0010
0000
0100
0000
0001
0000
0000
0000
0010
0000
0000
0000
,
0001
0000
0000
0001
0100
0000
0010
0000
1000
0000
0000
0000
0100
0000
0000
0000
,
1000
0000
0000
1000
0010
0000
0100
0000
0001
0000
0000
0000
0010
0000
0000
0000
,
0001
0000
0000
0001
0100
0000
0010
0000
1000
0000
0000
0000
1001
0000
0000
0000
,
0001
0000
0000
0001
0100
0000
0010
0000
1000
0000
0100
0000
0010
0000
0001
0000
,
0100
0000
0000
0100
0010
0000
1000
0000
0001
0000
0010
0000
0100
0000
1000
0000
,
0010
0000
0000
0010
0100
0000
0001
0000
1000
0000
0100
0000
0010
0000
0001
0000
,
1000
0000
0000
0010
0000
0000
0010
0000
0100
0000
0000
0001
0000
0000
0001
0000
,
1000
0000
0000
0100
1000
0000
0001
0000
1000
0000
0010
0000
0100
0000
0000
0000
,
0001
0000
0000
0010
0001
0000
1000
0000
0001
0000
0100
0000
0010
0000
0000
0000
,
1000
0000
0000
0010
0100
0000
0010
0000
1000
0000
0100
0000
0010
0000
0000
0000
,
0001
0000
0000
0100
0010
0000
0100
0000
0001
0000
0000
0000
1001
0000
0000
0000
,
1000
0000
0000
0100
0010
0000
0100
0000
1000
0000
0010
0000
0100
0000
0000
0000
,
0001
0000
0000
0010
0100
0000
0010
0000
0001
0000
0100
0000
0010
0000
0000
0000
,
1000
0000
0000
0001
0100
0000
0010
0000
1000
0000
0100
0000
0010
0000
0001
0000
,
0100
0000
0000
1001
,
0001
0100
0010
0100
1000
0100
0010
0100
,
0000
0001
0000
1000
0100
0010
0001
0000
,
1000
0100
0010
0100
0001
0100
0010
0100
,
0000
1000
0000
0001
0100
0010
1000
0000
,
0001
0010
0100
0010
1000
0010
0100
0010
,
0000
0001
0000
1000
0010
0100
0001
0000
,
1000
0010
0100
0010
0001
0010
0100
0010
,
1000
0001
0000
0010
0100
0100
1000
1000
,
0001
0010
0100
0010
0001
0100
1000
0100
,
0001
0010
0100
1000
0010
0100
0001
0000
,
1000
0010
0100
0010
1000
0100
0001
0100
,
1000
0010
0100
0001
0010
0100
1000
0000
,
0001
0000
0000
0000
0000
0000
1000
0010
1000
0000
0000
0001
0000
0000
0010
0000
,
0100
0000
0000
1000
0000
0000
0010
0100
0010
0000
1000
0000
0001
0000
0010
0000
,
0100
1000
0010
0100
0001
0010
0100
1000
,
0000
0000
0000
0000
,
0002
0000
0000
0003
1000
0100
1000
0100
,
0020
0000
0000
0030
0001
0100
0001
0100
,
0020
0000
0000
0030
1000
0010
1000
0010
,
0200
0000
0000
0301
0010
0001
0010
0100
,
2000
0000
0000
3000
0001
1000
0001
1000
,
0020
0000
0000
0030
1000
0001
1000
0001
,
0020
0000
0000
0030
0001
1000
0001
1000
,
0200
0000
0000
1300
0001
1000
0001
0100
,
0010
0010
0100
0100
,
0001
0001
0010
0010
,
0100
0100
1000
1000
,
0010
0010
0100
0100
,
0001
0010
0100
0010
0001
1000
0010
1000
,
0001
0010
0100
1000
0010
0100
0001
0010
,
0001
1000
0100
0010
0001
0010
0100
1000
,
0010
0000
0000
1000
0001
0010
0100
0010
,
0100
0000
0000
0100
1000
0000
0010
0000
0100
0000
0000
0000
0001
0000
0000
0000
,
0100
0000
0000
0100
0001
0000
0010
0000
0100
0000
1000
0000
0010
0000
0000
0000
,
1000
0000
0000
1000
0100
0000
0010
0000
0001
0000
0000
0000
0100
0000
0000
0000
,
0001
0000
0000
0001
0010
0000
0100
0000
0010
0000
0001
0000
1000
0000
0000
0000
,
0100
0000
0000
0100
0010
0000
0001
0000
0100
0000
0000
0000
0010
0000
0000
0000
,
1000
0000
0000
1000
0001
0000
0010
0000
0100
0000
0010
0000
0001
0000
0000
0000
,
0100
0000
0000
0100
0010
0000
1000
0000
0001
0000
0000
0000
0010
0000
0000
0000
,
0001
0000
1000
1000
0100
0100
0010
0010
,
0001
0000
0000
0100
0000
0000
0010
0000
0000
1000
0000
0000
0100
0000
0000
0000
,
0010
0000
0000
0001
0000
0000
0100
0000
0010
0000
0000
0000
0110
0000
0000
0000
,
1000
0000
0000
0001
0000
0000
0100
0000
0010
0000
0100
0000
0001
0000
0010
0000
,
0100
0000
1000
0000
0000
0001
0000
0000
1000
0000
0000
0100
0000
0000
0010
0000
,
0001
0000
0000
1000
0000
0000
0010
0000
0000
0100
0000
0010
0000
0000
0000
0000
,
1000
0000
0000
0001
0000
0000
0100
0000
0010
0000
0000
0000
0110
0000
0000
0000
,
1000
0000
0000
0001
0000
0000
0001
0000
0100
0000
0000
0010
0000
0000
0010
0000
,
1000
0000
0000
1000
0000
0000
0001
0000
0010
0000
0001
0000
0010
0000
0000
0100
0000
0000
1001
0000
0000
0000
0000
0000
,
1000
0000
1000
0010
0000
0000
0100
0000
0001
0000
0001
0010
0000
0000
0100
0000
,
1000
0000
1000
0001
0000
0000
0100
0000
0001
0000
0010
0000
0100
0000
0010
0000
,
0001
0000
0001
0100
0000
0000
0010
0000
1000
0000
1000
0100
0000
0000
0010
0000
,
0001
0000
0001
1000
0000
0000
0100
0000
1000
0000
0010
0000
0100
0000
0010
0000
,
1000
0000
1000
0100
0000
0000
0010
0000
0001
0000
0001
0100
0000
0000
0010
0000
,
1000
0000
1000
0001
0000
0000
0010
0000
0001
0000
0100
0000
0010
0000
0100
0000
,
0001
0000
0001
0010
0000
0000
0100
0000
1000
0000
1000
0010
0000
0000
0100
0000
,
0001
0000
0001
1000
0000
0000
0010
0000
1000
0001
1000
0001
0000
0010
0000
0100
,
1000
0000
0000
1000
0010
0000
1000
0000
0001
0000
0000
0001
0010
0000
0001
0000
,
1000
0000
0000
1000
0100
0000
1000
0000
0001
0000
0010
0000
0100
0000
1000
0000
,
0001
0000
0000
0001
0100
0000
0001
0000
1000
0000
0000
1000
0100
0000
1000
0000
,
0001
0000
0000
0001
0010
0000
0001
0000
1000
0000
0100
0000
0010
0000
0001
0000
,
1000
0010
0100
0010
1000
0100
0001
0100
,
1000
0010
0100
0001
0010
0100
1000
0010
,
1000
0100
0001
0100
1000
0010
0001
0010
,
1000
0000
0000
0000
,
1001
0000
0000
0000
;

//---------------dance-single - ----------------
#NOTEDATA:;
#CHARTNAME:;
#STEPSTYPE:dance-single;
#DESCRIPTION:;
#CHARTSTYLE:;
#DIFFICULTY:Medium;
#METER:10;
#RADARVALUES:0.482233,0.555244,0.055209,0.063096,0.055209,428.000000,421.000000,7.000000,8.000000,0.000000,0.000000,0.000000,0.000000,0.000000,0.482233,0.555244,0.055209,0.063096,0.055209,428.000000,421.000000,7.000000,8.000000,0.000000,0.000000,0.000000,0.000000,0.000000;
#CREDIT:;
#NOTES:
0000
0000
0000
0000
,
0000
0000
0000
0000
,
0000
0000
0000
0000
,
0000
0000
0000
0000
,
1000
1000
0001
0001
,
1000
0001
0001
0000
,
0100
0100
0010
0010
,
0110
0000
0000
0000
,
1000
0001
1000
0000
0001
0000
0010
0000
,
0001
1000
0001
0000
1000
0000
0010
0000
,
1000
0100
1000
0000
0001
0000
1000
0000
,
0001
0100
0001
0000
0010
0000
0010
0000
,
0001
0000
1000
0000
0010
0100
0010
0000
,
1000
0000
0001
0000
1000
0100
0010
0100
,
1000
0000
0001
0000
0100
0010
0100
0000
,
0001
0000
0000
1000
0001
0000
0000
0000
,
1000
0000
1010
0000
0001
0010
0001
0000
,
1000
0000
1100
0000
0001
0100
0001
0000
,
0001
0000
0101
0000
1000
0100
1000
0000
,
0001
0011
1000
1000
,
0001
0000
0010
0000
0001
0100
0010
1000
,
0100
0000
0010
0000
0100
1000
0010
0100
,
0001
0000
1000
0000
0100
1000
0100
0010
,
0001
0000
0000
1001
,
1000
0010
0000
0100
0001
0100
0001
0010
,
0000
0001
0000
1000
0010
1000
0010
0000
,
1000
0100
0000
0010
0001
0010
0001
0100
,
0000
0001
0000
1000
0100
1000
0100
0000
,
0010
0001
0000
1000
0010
0100
0010
1000
,
0000
0001
0000
0010
0100
0010
0001
0000
,
0100
0001
0000
1000
0100
0010
0100
1000
,
0000
0001
0000
0100
0010
0100
0001
0000
,
1000
1000
0010
0010
,
0100
0001
0001
0010
,
0100
0100
1000
1000
,
0010
0100
0100
0001
,
1000
0000
0000
0000
0000
0000
1000
0000
0100
0000
0000
0010
0000
0000
0001
0000
,
0100
0000
0000
0100
0000
0000
0010
0000
1000
0000
0001
0000
0010
0000
0001
0000
,
1000
0010
1000
0010
0100
0001
0100
0001
,
0000
0000
0000
0000
,
2000
0000
0000
3000
0001
0100
0001
0100
,
0020
0000
0000
0030
1000
0100
1000
0100
,
0020
0000
0000
0030
0001
0010
0001
0010
,
0200
0000
0000
1300
0010
1000
0010
0100
,
0002
0000
0000
0003
1000
0001
1000
0001
,
0020
0000
0000
0030
0001
1000
0001
1000
,
0020
0000
0000
0030
1000
0001
1000
0001
,
0200
0000
0000
0301
1000
0001
1000
0100
,
0010
0010
0100
0100
,
1000
1000
0001
0001
,
0100
0100
0010
0010
,
1000
1000
0001
0001
,
1000
0010
1000
0000
0001
0100
0001
0000
,
0010
0001
0010
0000
0100
1000
0100
0000
,
1000
0010
1000
0010
0100
0001
0100
0001
,
0010
0000
0000
0000
,
0001
0001
0100
0100
,
0010
1000
1000
0100
,
0010
0010
0001
0001
,
1000
1000
0010
0010
,
0001
0001
0010
0010
,
0100
0001
0001
1000
,
0100
0100
0010
0010
,
0001
0000
0000
0000
,
1000
0000
0001
0100
0001
0000
1000
0000
,
0010
0000
0100
0001
0100
0000
0010
0000
,
1000
0000
0100
0010
0100
0000
1000
0000
,
0001
0000
0100
0010
0100
0000
0001
0000
,
1000
0100
0010
0000
0010
0100
1000
0000
,
1000
0010
0001
0000
0001
0010
1000
0000
,
0001
0100
0001
0000
1000
0100
1000
0000
,
0001
0001
0000
0000
1000
0010
0100
0000
,
0001
0000
0000
0001
0000
0000
1000
0000
0100
0000
0000
0100
0000
0000
0010
0000
,
0001
0000
0000
0001
0000
0000
1000
0000
0010
0000
1000
0000
0010
0000
0000
0000
,
1000
0000
0000
1000
0000
0000
0100
0000
0010
0000
0000
0010
0000
0000
0001
0000
,
0100
0000
0000
0100
0000
0000
0001
0000
1000
0000
0001
0000
1000
0000
0000
0000
,
0001
0000
0000
0001
0000
0000
0100
0000
0010
0000
0000
0010
0000
0000
1000
0000
,
0100
0000
0000
0100
0000
0000
0010
0000
0001
0000
0010
0000
0001
0000
0000
0000
,
1000
0000
0000
1000
0000
0000
0001
0000
0100
0000
0000
0100
0000
0000
0001
0000
,
0010
0000
0000
0010
0000
0000
0100
0000
1000
0000
0100
0000
1000
0000
0001
0000
,
1000
0100
1000
0000
0001
0100
0001
0000
,
1000
0010
1000
0000
0001
0100
0001
0100
,
0001
0010
0001
0000
1000
0010
1000
0000
,
0001
0100
0001
0000
1000
0100
1000
0100
,
0010
0100
0010
0000
1000
0001
1000
0000
,
0001
0010
0001
0000
1000
0010
1000
0010
,
0100
0001
0100
0000
0001
0010
0001
0000
,
1000
0000
0000
0000
,
1001
0000
0000
0000
;

//---------------dance-single - ----------------
#NOTEDATA:;
#CHARTNAME:;
#STEPSTYPE:dance-single;
#DESCRIPTION:;
#CHARTSTYLE:;
#DIFFICULTY:Easy;
#METER:7;
#RADARVALUES:0.340267,0.451136,0.031548,0.063096,0.000000,302.000000,298.000000,4.000000,8.000000,0.000000,0.000000,0.000000,0.000000,0.000000,0.340267,0.451136,0.031548,0.063096,0.000000,302.000000,298.000000,4.000000,8.000000,0.000000,0.000000,0.000000,0.000000,0.000000;
#CREDIT:;
#NOTES:
0000
0000
0000
0000
,
0000
0000
0000
0000
,
0000
0000
0000
0000
,
0000
0000
0000
0000
,
1000
1000
0001
0001
,
1000
0001
0001
0000
,
0100
0100
0010
0010
,
0110
0000
0000
0000
,
1000
0010
1000
0001
,
1000
0100
1000
0001
,
0100
0001
0010
0100
,
1000
0001
0100
0000
,
0001
0010
0001
0100
,
0001
1000
0100
1000
,
0010
0100
0001
1000
,
0001
0000
1000
0000
,
0001
0001
1000
0010
,
1000
1000
0010
0100
,
0001
0001
1000
0100
,
0010
0010
0100
0000
,
1000
1000
0010
0100
,
0001
0001
0010
0100
,
0010
0010
0001
1000
,
0010
0000
0000
1001
,
1000
1000
0010
0010
,
0100
0001
0001
0000
,
0010
0010
0100
0100
,
1000
1000
0001
0001
,
0100
0100
0010
0010
,
1000
0001
0001
0000
,
1000
1000
0100
0100
,
1000
0000
1000
0000
0001
0100
0001
0100
,
0001
0001
0010
0010
,
0100
1000
1000
0000
,
0010
0010
0100
0100
,
0001
0001
1000
1000
,
0001
0000
0000
0001
1000
0000
0000
0000
,
1000
0000
0000
1000
0010
0000
0000
0000
,
0010
0010
0100
0100
,
0000
0000
0000
0000
,
0002
0000
0003
0000
,
2000
0000
3000
0000
,
0020
0000
0030
0000
,
0200
0000
0300
0000
,
0002
0000
0003
0000
,
0020
0000
0030
0000
,
0200
0000
0300
0000
,
2000
0000
3000
0000
,
0001
1000
0001
1000
,
0010
0100
0010
0100
,
0001
1000
0001
1000
,
0100
0010
0100
0010
,
0001
0001
0100
0100
,
0010
0010
1000
1000
,
0100
0000
0100
0000
0010
0000
0010
0001
,
1000
0000
0000
0000
,
0001
0001
0100
0100
,
0010
1000
1000
0000
,
0100
0100
0010
0010
,
0001
0001
1000
1000
,
0010
0010
0100
0100
,
0001
0010
0010
0000
,
0100
0100
1000
1000
,
0010
0000
0010
0000
1000
0100
1000
0100
,
1000
0000
1000
0000
0001
0100
0001
0000
,
0010
0000
0001
1000
0001
0000
0100
0000
,
0010
0000
0010
0000
1000
0001
1000
0000
,
0100
0010
0001
0001
,
1000
0000
1000
0000
0010
0100
0010
0000
,
0100
0000
0100
0000
0001
0010
0001
0000
,
1001
0000
0000
0000
,
1000
0000
0010
0000
0100
0001
0100
0000
,
0001
0010
0001
0100
,
0010
1000
0100
0010
,
0001
1000
0010
0100
,
0001
1000
0100
0010
,
0001
0100
0010
1000
,
0100
1000
0010
0100
,
0001
0010
0001
0100
,
0010
0100
0001
0010
,
0100
0100
0010
0010
,
0001
0000
0001
0000
1000
0000
0001
1000
,
0001
0001
0100
0100
,
0010
0000
0010
0000
1000
0000
0010
0100
,
0010
0010
1000
1000
,
0100
0000
0100
0000
0010
0000
0001
1000
,
0001
0000
0010
0000
0100
0000
1000
0001
,
1000
0000
0000
0000
,
1001
0000
0000
0000
;

//---------------dance-single - ----------------
#NOTEDATA:;
#CHARTNAME:;
#STEPSTYPE:dance-single;
#DESCRIPTION:;
#CHARTSTYLE:;
#DIFFICULTY:Beginner;
#METER:3;
#RADARVALUES:0.159993,0.242919,0.007887,0.000000,0.000000,142.000000,141.000000,1.000000,0.000000,0.000000,0.000000,0.000000,0.000000,0.000000,0.159993,0.242919,0.007887,0.000000,0.000000,142.000000,141.000000,1.000000,0.000000,0.000000,0.000000,0.000000,0.000000,0.000000;
#CREDIT:;
#NOTES:
0000
0000
0000
0000
,
0000
0000
0000
0000
,
0000
0000
0000
0000
,
0000
0000
0000
0000
,
1000
0000
1000
0000
,
0001
0000
0001
0000
,
0100
0000
0100
0000
,
0010
0000
0000
0000
,
1000
0000
0000
0000
,
0001
0000
0000
0000
,
1000
0000
0000
0000
,
0001
0000
0000
0000
,
0100
0000
0000
0000
,
0010
0000
0000
0000
,
0100
0000
0000
0000
,
0010
0000
0010
0000
,
1000
0000
0000
0000
,
0001
0000
0000
0000
,
0100
0000
0000
0000
,
0010
0000
0000
0000
,
1000
0000
0000
0000
,
0001
0000
0000
0000
,
0010
0000
0000
0000
,
0100
0000
0000
0000
,
1000
0000
1000
0000
,
0001
0000
0001
0000
,
0100
0000
0100
0000
,
0010
0000
0010
0000
,
1000
0000
1000
0000
,
0001
0000
0001
0000
,
0010
0000
0010
0000
,
0100
0000
0100
0000
,
1000
0000
1000
0000
,
0010
0000
0010
0000
,
0100
0000
0100
0000
,
0001
0000
0001
0000
,
1000
0000
1000
0000
,
0100
0000
0100
0000
,
0010
0000
0010
0000
,
0000
0000
0000
0000
,
0001
0000
0000
0000
,
1000
0000
0000
0000
,
0001
0000
0000
0000
,
1000
0000
0000
0000
,
0010
0000
0000
0000
,
0100
0000
0000
0000
,
0010
0000
0000
0000
,
0100
0000
0000
0000
,
0001
0000
0000
0000
,
1000
0000
0000
0000
,
0001
0000
0000
0000
,
1000
0000
0000
0000
,
0100
0000
0100
0000
,
0010
0000
0010
0000
,
0001
0000
0001
0000
,
1000
0000
1000
0000
,
0010
0000
0010
0000
,
0100
0000
0100
0000
,
0001
0000
0001
0000
,
1000
0000
1000
0000
,
0100
0000
0100
0000
,
0010
0000
0010
0000
,
0001
0000
0001
0000
,
1000
1000
1000
1000
,
0001
0000
1000
0000
,
0100
0000
0010
0000
,
0001
0000
0100
0000
,
0010
0000
1000
0000
,
0001
0000
1000
0000
,
0010
0000
0100
0000
,
0001
0000
1000
0000
,
0100
0000
0000
0100
,
0010
0000
0010
0000
,
0001
0000
0001
0000
,
0100
0000
0100
0000
,
0010
0000
0010
0000
,
1000
0000
1000
0000
,
0001
0000
0001
0000
,
0100
0000
0100
0000
,
0001
0000
0001
0000
,
0010
0000
0010
0000
,
0100
0000
0100
0000
,
1000
0000
1000
0000
,
0010
0000
0010
0000
,
1000
0000
1000
0000
,
0100
0000
0100
0000
,
0010
0000
0001
0001
,
0001
0000
0000
0000
,
1001
0000
0000
0000
;
