#VERSION:0.83;
#TITLE:Army of Marionette;
#SUBTITLE:;
#ARTIST:RoughSketch;
#TITLETRANSLIT:;
#SUBTITLETRANSLIT:;
#ARTISTTRANSLIT:;
#GENRE:GABBA;
#ORIGIN:;
#CREDIT:;
#BANNER:Army of Marionette.png;
#BACKGROUND:Army of Marionette-bg.png;
#PREVIEWVID:;
#JACKET:Army of Marionette-jacket.png;
#CDIMAGE:;
#DISCIMAGE:;
#LYRICSPATH:;
#CDTITLE:cdtitle.png;
#MUSIC:Army of Marionette.ogg;
#OFFSET:-0.080000;
#SAMPLESTART:54.821999;
#SAMPLELENGTH:9.842999;
#SELECTABLE:YES;
#BPMS:0.000=195.000,
108.000=97.500,
124.000=195.000;
#STOPS:42.000=1.846;
#DELAYS:;
#WARPS:;
#TIMESIGNATURES:0.000=4=4;
#TICKCOUNTS:0.000=4;
#COMBOS:0.000=1;
#SPEEDS:0.000=1.000=0.000=0;
#SCROLLS:0.000=1.000;
#FAKES:;
#LABELS:0.000=Song Start;
#BGCHANGES:;
#KEYSOUNDS:;
#ATTACKS:
;

//---------------dance-single - ----------------
#NOTEDATA:;
#CHARTNAME:;
#STEPSTYPE:dance-single;
#DESCRIPTION:;
#CHARTSTYLE:;
#DIFFICULTY:Challenge;
#METER:15;
#RADARVALUES:0.836422,0.958969,0.389712,0.083510,0.463942,631.000000,589.000000,42.000000,9.000000,0.000000,0.000000,0.000000,0.000000,0.000000,0.836422,0.958969,0.389712,0.083510,0.463942,631.000000,589.000000,42.000000,9.000000,0.000000,0.000000,0.000000,0.000000,0.000000;
#CREDIT:;
#NOTES:
// measure 0
0000
0000
0000
0000
0000
0000
0000
0000
0001
0000
0000
0000
1000
0000
0000
1000
,  // measure 1
0010
0000
0100
0010
0100
0000
0010
1000
,  // measure 2
0010
0000
1000
0100
0010
0001
1000
0010
,  // measure 3
0100
0001
0010
0010
0200
0000
0000
0000
,  // measure 4
0000
0000
1300
0000
1001
0000
0000
0000
0010
0000
0000
0000
1000
0000
0000
1000
,  // measure 5
0100
0000
0010
0100
0000
0010
0000
0001
,  // measure 6
1000
0000
0001
0010
0100
0010
0001
0100
,  // measure 7
0010
1000
0100
0010
0000
0001
0000
1000
,  // measure 8
0001
1000
0001
0000
1000
0010
1000
0010
,  // measure 9
0100
0001
0010
0100
1000
0100
1000
0100
,  // measure 10
0010
0000
0001
0000
0100
0000
0001
0000
0010
0000
0001
1000
0001
0000
0000
0000
,  // measure 11
1001
0000
0100
0010
0100
0010
1000
0100
,  // measure 12
1000
0100
0010
0000
0011
0000
0001
1000
,  // measure 13
1100
0000
0001
0100
0001
0100
0010
1000
,  // measure 14
0010
1000
0001
0000
1100
1000
0001
0000
,  // measure 15
0110
0000
1000
0001
1000
0001
0100
0010
,  // measure 16
0100
0010
1000
0000
0011
0001
0000
1000
,  // measure 17
1001
0000
1000
0100
0010
0001
1000
0010
,  // measure 18
0100
0000
0101
0000
0000
0000
0001
1000
0001
0000
1000
0000
1010
0000
0000
0000
,  // measure 19
0100
0110
0010
1010
,  // measure 20
1000
0000
1001
0000
0001
0000
0110
0010
,  // measure 21
1000
1100
0001
0101
,  // measure 22
1000
0100
0010
0001
1000
0010
0100
0000
,  // measure 23
0011
0000
0001
0010
1000
0010
0001
0100
,  // measure 24
0010
1000
0100
0000
1000
1000
0001
0001
,  // measure 25
0100
0000
0000
0101
0000
0000
0011
0000
0000
1001
0000
0000
1000
0000
1010
0000
,  // measure 26
0010
0000
0000
0000
1000
0000
0001
0000
0100
0010
0100
0010
0100
0000
0000
0000
,  // measure 27
0001
0000
0000
0000
1000
0000
0000
0001
0100
0000
0000
0000
0010
0000
1000
0000
0000
0000
0100
0000
0000
0000
0010
0000
0001
0000
0000
0000
1000
0000
0100
0000
,  // measure 28
1000
0000
0001
0000
1000
0000
0000
0010
0100
0000
0000
0000
0001
0000
0100
0000
0001
0000
0100
0000
0000
0000
0010
0000
1000
0000
0000
0000
0001
0000
0100
0000
,  // measure 29
0001
0000
0000
0000
0010
0000
0000
0100
1000
0000
0000
0000
0001
0000
0100
0000
0000
0000
0010
0000
0000
0000
1000
0000
0100
0000
0000
0000
1000
0000
0000
0000
,  // measure 30
0001
0010
0000
0100
0010
0000
0001
0000
1000
0010
1000
0000
0001
1000
0001
1000
,  // measure 31
0010
0000
1000
0010
1000
0000
0001
0100
,  // measure 32
0010
0100
0001
0000
1001
0000
1000
0001
,  // measure 33
0100
0000
0010
0000
0110
0000
1000
0001
,  // measure 34
0010
0100
0010
0000
0001
0100
0001
0100
,  // measure 35
0010
0000
1000
0001
1000
0000
0100
0010
,  // measure 36
0001
1000
0001
0100
0010
1000
0001
0010
,  // measure 37
0100
0000
1000
0000
0001
0000
1000
0000
0001
0100
0001
0100
0010
1000
0010
1000
,  // measure 38
0020
0000
0000
0000
0000
1030
1001
0000
,  // measure 39
0010
0000
0000
0000
1010
0000
1000
0100
0000
0100
0010
0000
0001
0000
0100
0000
,  // measure 40
0010
1000
0000
0010
0100
0000
0010
0000
0100
0000
0001
0000
1000
0000
0100
0000
,  // measure 41
0010
0000
0000
0000
0011
0000
0001
1000
0000
1000
0010
0000
0100
0000
0001
0000
,  // measure 42
1000
0100
0000
1000
0010
0000
0100
0000
0000
0000
0001
0000
0010
0000
0100
0000
,  // measure 43
1000
0000
0000
0000
1010
0000
0010
0100
0000
0100
0001
0000
1000
0000
0100
0000
,  // measure 44
0010
0001
0000
1000
0001
0000
0010
0000
0100
0000
0010
0000
0000
0000
0001
0000
,  // measure 45
1000
0000
0001
0000
1000
0000
0010
0100
0000
0100
0001
0000
1000
0000
0010
0000
,  // measure 46
1000
0100
0010
0001
1000
0001
0100
0001
,  // measure 47
0011
0000
0001
0000
1001
0000
1000
0001
0000
0001
0100
0000
0010
0000
1000
0000
,  // measure 48
0001
0100
0000
0010
0100
0000
0001
0000
1000
0000
0100
0000
0010
0000
0001
0100
,  // measure 49
0001
0000
0000
0000
0011
0000
0010
0100
0000
0100
1000
0000
0001
0000
0100
0000
,  // measure 50
0010
0000
1000
0010
1000
0000
0001
1000
0001
0000
1000
0100
1000
0000
0001
0020
,  // measure 51
0000
0030
1001
1000
1000
0100
0000
0010
,  // measure 52
0001
1000
0000
1000
0010
0000
0100
0000
0000
0000
0001
0000
0010
0000
0001
0000
,  // measure 53
1000
0000
0000
1100
0000
0000
0110
0000
0000
0011
0000
0000
1001
0000
1000
0000
,  // measure 54
0020
0000
0230
0000
,  // measure 55
0301
0000
1000
0010
0000
0010
0100
0000
,  // measure 56
0001
0000
1001
0000
0100
0010
0100
0000
,  // measure 57
0001
0000
0010
0100
0000
0100
1000
0001
,  // measure 58
1000
1010
0000
0001
0000
1010
1000
0000
,  // measure 59
0001
0010
1000
0010
0001
0100
1000
0100
,  // measure 60
0001
0010
1000
0010
0001
1000
1000
0000
,  // measure 61
0010
0100
0000
0100
0001
0000
1000
0000
,  // measure 62
1001
0000
0000
0000
0000
0000
0000
0000
0000
0000
0100
0010
0100
0000
0000
0000
,  // measure 63
0020
0000
0000
0000
0000
0000
0000
0000
1030
0100
1000
0100
0010
0000
0001
0000
,  // measure 64
0000
0000
1000
0000
1000
0000
0001
0000
0100
0010
0100
0010
0100
0000
0000
0000
,  // measure 65
1010
0000
0000
0000
1001
0000
0000
0000
1000
0010
1000
0010
0100
0001
0100
0001
,  // measure 66
0010
0000
0001
0000
0000
0000
1001
0000
0000
0000
1000
0000
0010
0100
0010
0000
,  // measure 67
1000
0000
1000
0000
0010
0000
0010
0000
0100
0001
0100
0000
0010
0000
1000
0000
,  // measure 68
0000
0000
0001
0000
0010
0000
0100
0000
1000
0001
1000
0001
1000
0000
0010
0000
,  // measure 69
0100
0000
0001
1000
0001
0000
1000
0100
1000
0100
0010
0001
0010
0000
0001
0000
,  // measure 70
1000
0100
1000
0000
0001
0010
0001
0000
1000
0010
1000
0000
0001
0100
0001
0100
,  // measure 71
0001
0000
1000
0010
1000
0000
0010
1000
0010
0000
0100
0001
0100
0000
0001
0010
,  // measure 72
0001
0010
0001
0000
1000
0000
0100
0000
0020
0000
0000
0000
0032
0000
0000
0000
,  // measure 73
1003
0000
0001
0100
0001
0000
1000
0010
1000
0010
0100
0001
0100
0000
0001
0000
,  // measure 74
0010
0000
0001
1000
0000
1000
0010
0100
,  // measure 75
0001
0000
0000
0000
1000
0001
1000
0000
0010
0100
0010
0000
1000
0000
0001
0010
,  // measure 76
0001
0010
0001
0000
1000
0000
0001
0000
1000
0010
1000
0010
0100
0000
0000
0000
,  // measure 77
0001
0010
1000
0010
0100
1000
0010
0001
,  // measure 78
1000
0000
0100
0000
0010
0000
1000
0000
0010
0000
0100
0000
0001
0010
0100
1000
,  // measure 79
0002
0000
0003
0000
;

//---------------dance-single - ----------------
#NOTEDATA:;
#CHARTNAME:;
#STEPSTYPE:dance-single;
#DESCRIPTION:;
#CHARTSTYLE:;
#DIFFICULTY:Hard;
#METER:13;
#RADARVALUES:0.706518,0.848319,0.250529,0.074231,0.199495,533.000000,506.000000,27.000000,8.000000,0.000000,0.000000,0.000000,0.000000,0.000000,0.706518,0.848319,0.250529,0.074231,0.199495,533.000000,506.000000,27.000000,8.000000,0.000000,0.000000,0.000000,0.000000,0.000000;
#CREDIT:;
#NOTES:
0000
0000
0000
0000
0000
0000
0000
0000
1000
0000
0000
0000
0001
0000
0000
0001
,
1000
0000
0100
0010
0001
0000
0100
0010
,
1000
0000
0001
0010
0001
0010
0100
1000
,
0010
0100
0001
0010
0002
0000
0000
0000
,
0000
0000
1003
0000
0010
0000
0000
0000
0110
0000
0000
0000
1000
0000
0000
1000
,
0100
0000
1000
0010
0000
0100
0000
0001
,
0010
0000
0100
0010
0001
1000
0010
1000
,
0100
0010
0100
1000
0000
0001
0000
0100
,
0001
0010
0001
0000
1000
0010
1000
0010
,
0100
0001
0100
0001
1000
0100
0010
0001
,
1000
0010
0100
0001
0010
0001
1000
0000
,
1001
0000
0001
0010
0001
0010
0100
1000
,
0100
1000
0010
0000
1001
0000
1000
0010
,
1000
0000
0001
0100
0001
0100
0010
1000
,
0010
1000
0100
0000
0010
0001
1000
0000
,
1001
0000
1000
0010
1000
0010
0100
0001
,
0100
0001
0010
0000
0100
1000
0000
1000
,
0001
0000
1000
0010
0100
0010
1000
0010
,
0100
0010
0000
1000
0100
0010
0001
0000
,
1000
1010
0001
0011
,
1000
0000
1100
0000
0001
0000
0101
0001
,
1000
1001
0001
1001
,
1000
0100
0010
0001
0100
0010
1000
0000
,
1001
0000
0001
0010
0001
0010
0100
1000
,
0100
1000
0010
0000
0100
0100
0001
0001
,
1000
0000
0000
0010
0000
0000
0100
0000
0000
0001
0000
0000
0010
0000
0100
0000
,
1000
0000
0001
0010
1000
0010
0001
0000
,
1001
0000
0000
0000
1000
0000
0000
1000
0010
0000
0000
0000
0100
0000
0001
0000
0000
0000
0010
0000
0000
0000
0100
0000
1000
0000
0000
0000
0001
0000
0000
0000
,
0010
0000
0001
0000
0010
0000
0000
0001
1000
0000
0000
0000
0010
0000
0100
0000
0010
0000
0100
0000
0000
0000
0001
0000
1000
0000
0000
0000
0000
0000
0000
0000
,
0001
0000
0000
0000
0010
0000
0000
0010
0100
0000
0000
0000
1000
0000
0010
0000
0000
0000
1000
0000
0000
0000
0001
0000
0010
0000
0000
0000
0001
0000
0000
0000
,
1000
0100
0000
1000
0001
0000
0100
0000
0001
0010
0100
0000
1000
0010
1000
0001
,
1000
0000
0001
0100
0001
0000
1000
0100
,
0010
0100
1000
0000
0001
0100
0010
0100
,
0001
0000
1000
0010
1000
0000
0001
0010
,
0100
0010
0001
0000
1000
0010
0100
0010
,
1000
0000
0001
0010
0100
0000
1000
0010
,
0100
0001
1000
0010
1000
0100
0010
0001
,
1000
0010
1000
0001
0010
1000
0010
0001
,
0200
0000
0000
0000
0000
0310
0100
0000
,
1001
0000
0000
0000
1000
0000
0000
0100
0000
0000
0010
0000
0000
0000
0100
0000
,
0000
1000
0000
0001
0100
0000
0001
0000
0000
0000
1000
0000
0100
0000
0010
0000
,
0001
0000
0000
0000
0101
0000
0000
0100
0000
0000
0010
0000
0000
0000
0100
0000
,
0000
0001
0000
1000
0100
0000
1000
0000
0000
0000
0001
0000
0100
0000
0010
0000
,
1000
0000
0000
0000
0011
0000
0000
0010
0000
0000
0001
0000
0000
0000
1000
0000
,
0000
0001
0000
1000
0010
0000
0100
0000
0000
0000
0010
0000
1000
0000
0000
0000
,
1001
0000
0001
0000
0001
0000
0000
1000
0000
0000
0010
0000
0000
0000
0100
0000
,
0001
0010
1000
0010
0001
0100
0010
1000
,
0100
0000
0100
0000
0100
0000
0000
0010
0000
0000
0001
0000
0000
0000
1000
0000
,
0000
0010
0000
0100
0001
0000
0010
0000
0000
0000
0100
0000
1000
0000
0010
0000
,
0100
0000
0000
0000
0110
0000
0000
0010
0000
0000
1000
0000
0000
0000
0001
0000
,
0000
0100
0000
0010
1000
0000
0100
0000
0000
0000
1000
0000
0010
0000
0000
0000
,
0200
0000
0000
0000
0301
0000
0000
1000
0000
0000
0010
0000
0000
0000
1000
0000
,
0000
0100
0000
0010
0001
0000
0100
0000
0000
0000
0001
0000
0010
0000
0100
0000
,
1000
0000
0000
1100
0000
0000
0101
0000
0000
0011
0000
0000
1000
0000
0001
0000
,
2000
0000
3002
0000
,
0013
0000
0100
1000
0000
1000
0001
0000
,
1000
0000
1010
0000
0001
0100
0001
0000
,
1000
0000
0100
0010
0000
0010
0001
0100
,
0001
1000
0000
1001
0000
1000
0100
0000
,
1000
0010
0001
0010
1000
0100
0001
0100
,
1000
0010
0001
0010
1000
0100
0010
0000
,
0001
0100
0000
0100
0010
0000
1000
0000
,
0001
0010
0001
0000
1000
0001
1000
0000
,
0220
0000
0000
0000
0000
0330
0000
1001
,
0000
1000
0010
1000
0001
0010
0100
0000
,
1000
0000
1010
0000
0010
0100
0001
1000
,
0100
0010
0000
0011
0000
0001
1000
0001
,
0100
0100
0010
0010
1000
0100
0010
0100
,
0000
1000
0001
0010
0100
1000
0010
0000
,
0100
0001
0010
0001
1000
0100
0010
0100
,
1000
0010
0001
0010
1000
0100
0001
0100
,
1000
0010
1000
0001
1000
0100
1000
0001
,
0010
0100
0010
0001
1000
0000
1001
0000
,
0001
0010
1000
0010
0001
0100
0010
1000
,
0100
0000
0010
0001
0000
1000
0000
0001
,
1000
0000
0010
0100
0001
0010
0001
1000
,
0010
0100
0001
0010
0100
1000
0001
0000
,
1000
0100
0010
1000
0010
0001
1000
0010
,
0100
1000
0100
0001
0010
0100
1000
0010
,
0200
0000
0300
0000
;

//---------------dance-single - ----------------
#NOTEDATA:;
#CHARTNAME:;
#STEPSTYPE:dance-single;
#DESCRIPTION:;
#CHARTSTYLE:;
#DIFFICULTY:Medium;
#METER:10;
#RADARVALUES:0.522267,0.663902,0.157740,0.064952,0.018558,394.000000,377.000000,17.000000,7.000000,0.000000,0.000000,0.000000,0.000000,0.000000,0.522267,0.663902,0.157740,0.064952,0.018558,394.000000,377.000000,17.000000,7.000000,0.000000,0.000000,0.000000,0.000000,0.000000;
#CREDIT:;
#NOTES:
0000
0000
0000
0000
1000
0000
0001
1000
,
0001
0000
1000
0010
1000
0000
0001
0100
,
0001
1000
0001
0010
,
0100
0000
1000
0010
0200
0000
0000
0000
,
0000
0301
0010
0010
,
0010
0010
0100
0100
,
0100
0100
1000
1000
,
1000
1000
0001
0001
,
0001
0000
0001
0000
1000
0000
0000
0001
,
0000
0100
0000
0010
0000
1000
0000
0000
,
0100
0010
1001
0001
,
1100
0000
0000
1000
0000
0010
0000
0100
,
0000
0010
0000
0000
1000
0000
0100
0010
,
0001
0000
0000
0100
0000
0010
0000
0100
,
0000
0001
0000
0000
1000
0001
1000
0001
,
0010
0000
0000
0100
0000
1000
0000
0010
,
0000
0100
0000
0000
0001
1000
0001
1000
,
0010
0000
0000
1000
0000
0100
0000
0010
,
0001
0010
0000
0001
0100
0010
1000
0000
,
0001
0101
0000
1100
,
0000
0000
0011
0000
0000
0000
1000
0010
,
0000
0110
0000
1001
,
0000
1000
0000
1000
0000
0001
0100
0000
,
0101
0000
0000
1000
0000
0100
0000
0010
,
0000
0100
0000
0000
1000
0010
1000
0001
,
1000
0000
0000
1000
0000
0000
0100
0000
0000
0100
0000
0000
0010
0000
0001
0000
,
0010
0000
0001
0000
1000
0001
1000
0000
,
0001
0001
0010
0100
1000
0010
0100
0001
,
1000
1000
0100
0010
0001
0100
0010
0000
,
1000
1000
0001
0010
0100
0010
0001
1000
,
0001
0001
1000
0010
0100
0010
1000
0001
,
1001
0000
1000
0000
1010
0000
0000
1000
,
0001
1000
0000
0000
0101
0000
0000
0000
,
0001
0000
0001
0000
0011
0000
0000
1000
,
0010
1000
0010
0000
1000
0100
0010
0001
,
0100
0000
0010
1000
0010
0000
0100
0001
,
0100
0000
0001
0010
0001
0000
1000
0100
,
1000
0010
0100
0001
1000
0100
0010
0002
,
0000
0000
0003
1001
,
1000
0100
0010
0100
,
1000
0000
0010
0000
0100
0000
0001
0010
,
0001
0100
0010
0100
,
0001
0000
0010
0000
0100
0000
1000
0010
,
1000
0001
0100
0001
,
1000
0000
0100
0000
0010
0001
0000
0001
,
1000
0010
1000
0000
0001
0000
0100
0000
,
0001
1000
0001
1000
0100
0010
0100
0000
,
0010
0001
0010
0000
0001
0000
0100
0000
,
0010
0000
1000
0000
0100
0000
1000
0001
,
1000
0001
0010
0100
,
1000
0010
0000
0010
0000
0010
0000
0010
,
0100
0000
0001
1000
0001
0000
1000
0000
,
0100
1000
0010
0000
0100
0000
0001
0010
,
0001
0000
0000
0001
0000
0000
1000
0000
0000
1000
0000
0000
0010
0000
0100
0000
,
0020
0000
2030
0000
,
3100
0000
0010
0001
0000
0001
1000
0000
,
0001
0000
0100
0000
0001
1000
0001
0000
,
1000
0000
0100
0010
0000
0010
0001
1000
,
0001
0100
0000
0110
0000
0100
0001
0000
,
1000
0010
1000
0000
0001
0010
0001
0000
,
1000
0100
1000
0000
0001
0100
0001
0000
,
0000
0000
0000
0000
,
0000
0000
0000
0000
0000
0001
1000
0000
,
2002
0000
0000
0000
0000
3003
0000
1000
,
0000
0010
1000
0000
0100
0000
1000
0010
,
1000
0000
0001
0000
0010
0000
0100
1000
,
0100
0010
0000
0100
0000
1000
0010
1000
,
0001
0000
0100
0000
0010
0000
0100
0001
,
0000
0001
1000
0000
0100
0010
0000
0010
,
0001
0100
0001
1000
0100
1000
0001
1000
,
0001
0001
0100
0100
,
0010
1000
0010
0000
1000
0000
0100
0000
,
0010
0001
0010
0000
1001
0000
1001
0000
,
1000
0010
1000
0000
0001
0100
0010
0100
,
0010
0000
1000
0100
0000
1000
0000
0001
,
0100
0000
0001
0010
0001
0000
1000
0000
,
1000
0010
0100
0100
,
0001
0010
0001
1000
,
0001
0010
0100
1000
0001
0100
0010
1000
,
0200
0000
0300
0000
;

//---------------dance-single - ----------------
#NOTEDATA:;
#CHARTNAME:;
#STEPSTYPE:dance-single;
#DESCRIPTION:;
#CHARTSTYLE:;
#DIFFICULTY:Easy;
#METER:7;
#RADARVALUES:0.373805,0.442601,0.083510,0.055673,0.000000,282.000000,273.000000,9.000000,6.000000,0.000000,0.000000,0.000000,0.000000,0.000000,0.373805,0.442601,0.083510,0.055673,0.000000,282.000000,273.000000,9.000000,6.000000,0.000000,0.000000,0.000000,0.000000,0.000000;
#CREDIT:;
#NOTES:
0000
0000
1000
0001
,
1000
0000
0010
0000
,
0100
0000
0001
0010
,
0100
1000
0020
0000
,
0000
1030
0100
0000
,
0000
0000
0000
0000
,
0000
0000
1000
0000
,
0000
0000
0000
0000
,
0000
0010
1000
0001
,
1000
0001
0010
0100
,
0010
0100
1000
1001
,
0001
0001
0100
0100
,
0010
0010
1000
1000
,
0100
0100
0010
0010
,
0001
0001
1000
0010
,
1000
1000
0100
0100
,
0010
0010
0001
0100
,
0001
0001
1000
1000
,
0001
0000
1001
1000
,
0001
0101
0000
1010
,
0000
0101
0000
1010
,
0000
1100
0000
0011
,
1000
0001
1000
0010
,
1000
1000
0100
0100
,
0010
0010
0001
0100
,
0001
0000
0000
0000
,
2000
0000
0000
3001
,
1000
0000
0010
0000
1000
0000
0010
0100
,
0001
0000
0010
0000
0001
0000
0010
0100
,
1000
0000
0100
0000
1000
0000
0100
0010
,
0001
0000
0100
0000
0001
0001
0100
0010
,
1000
0000
0010
0000
,
0100
0001
0010
0000
,
0001
0000
1000
0000
,
0010
1000
0100
0100
,
0010
0010
0001
0001
,
1000
1000
0010
0010
,
1000
0000
0100
0000
0010
0000
0001
1000
,
0002
0000
0000
0103
,
0001
0001
0010
0010
,
0001
0001
1000
1000
,
0100
0100
0010
0010
,
0100
0100
1000
1000
,
0010
0010
0100
0100
,
0001
0001
0010
0100
,
0010
0001
1000
1000
,
0010
0000
0100
0000
0010
0100
0010
0000
,
1000
0001
0010
0010
,
0100
0100
1000
1000
,
0010
0010
0100
0100
,
0010
0010
0010
0010
,
2000
3100
0010
0010
,
0001
1000
0010
0010
,
0100
0000
0000
0000
,
0001
0000
1000
0000
,
0001
1000
0000
1000
,
0100
0010
0000
0010
,
0001
0100
0000
0100
,
0010
0000
0000
0100
0000
0000
0010
0000
,
1000
0100
0010
0001
,
1000
0000
0010
0000
0100
0001
0100
0000
,
0001
0000
0000
0001
0000
0000
0001
0000
,
1001
0000
0000
1000
,
0020
0000
1030
1000
,
0100
0100
0010
0010
,
0001
0001
0100
0100
,
0010
0010
1000
1000
,
0001
0001
1000
1000
,
0100
0100
0010
0010
,
0001
0001
1000
0001
,
1000
0010
0100
0001
,
0010
0010
0100
0100
,
1000
1000
0010
0100
,
0001
0001
1000
1000
,
0100
0000
0000
0100
0000
0000
0100
0000
,
0010
0001
1000
1000
,
0010
0010
0100
0100
,
0001
0010
0100
1000
,
0001
0100
0010
1000
,
0200
0000
0300
0000
;

//---------------dance-single - ----------------
#NOTEDATA:;
#CHARTNAME:;
#STEPSTYPE:dance-single;
#DESCRIPTION:;
#CHARTSTYLE:;
#DIFFICULTY:Beginner;
#METER:5;
#RADARVALUES:0.226669,0.331951,0.009279,0.037115,0.000000,171.000000,170.000000,1.000000,4.000000,0.000000,0.000000,0.000000,0.000000,0.000000,0.226669,0.331951,0.009279,0.037115,0.000000,171.000000,170.000000,1.000000,4.000000,0.000000,0.000000,0.000000,0.000000,0.000000;
#CREDIT:;
#NOTES:
0000
0000
1000
0000
,
1000
0000
0001
0000
,
0001
0000
1000
0001
,
1000
0001
2000
0000
,
0000
3000
0001
0000
,
0000
0000
0010
0000
,
0000
0000
0100
0000
,
0000
0000
1000
0000
,
0000
0000
0001
0000
,
0001
0000
1000
0000
,
1000
0000
0010
0000
,
1000
0000
0010
0000
,
1000
0000
0001
0000
,
1000
0000
0100
0000
,
1000
0000
0010
0000
,
0100
0000
0001
0000
,
0010
0000
0001
0000
,
1000
0000
0001
0000
,
0100
0000
0001
0001
,
1000
0100
0000
0100
,
0000
0010
0000
0010
,
0001
0100
0000
0100
,
0010
0000
1000
0000
,
0010
0000
1000
0000
,
0100
0000
1000
0000
,
0010
0000
0000
0000
,
0200
0000
0000
0300
,
0001
0001
1000
1000
,
0010
0010
0100
0100
,
0001
0001
0010
0010
,
0100
0100
1000
1000
,
0001
0000
1000
0000
,
0010
0000
0100
0000
,
0001
0000
1000
0000
,
0100
0000
0010
0000
,
0001
0001
1000
0000
,
1000
1000
0001
0000
,
0001
0100
0001
0100
,
0000
0000
0000
0010
,
1000
0000
0010
0000
,
1000
0000
0100
0000
,
1000
0000
0001
0000
,
1000
0000
0010
0000
,
0100
0000
0001
0000
,
0010
0000
0001
0000
,
0100
0000
0010
0000
,
1000
1000
0001
0001
,
1000
0000
0010
0000
,
0100
0000
0001
0000
,
0010
0000
0100
0000
,
1000
0000
0010
0000
,
0100
0000
0001
0000
,
1000
0000
0010
0000
,
1000
0000
0000
0000
,
0001
0000
1001
0000
,
1000
0000
0000
0010
,
0100
0000
0000
0001
,
0010
0000
0000
0001
,
1000
0000
0000
0100
,
1000
0001
1000
0001
,
0010
0100
0010
0000
,
0000
0000
0000
0000
,
0000
0000
0000
0000
,
0002
0000
0000
0003
,
0000
1000
0000
0100
,
0000
1000
0000
0001
,
0000
0000
0000
0000
,
1000
0000
0010
0000
,
1000
0000
0100
0000
,
0010
0000
0001
0000
,
1000
1000
0001
0001
,
1000
0000
0010
0000
,
1000
0000
0100
0000
,
0010
0000
0001
0000
,
0100
0000
0010
0000
,
1000
0000
0001
0000
,
0100
0000
0010
0000
,
1000
1000
0010
0010
,
0100
0100
0001
0001
,
0020
0000
0030
0000
;
