#TITLE:werewolf howls.;
#SUBTITLE:;
#ARTIST:かめりあ;
#TITLETRANSLIT:;
#SUBTITLETRANSLIT:;
#ARTISTTRANSLIT:Camellia;
#GENRE:Hardcore;
#CREDIT:;
#BANNER:werewolf howls.png;
#BACKGROUND:werewolf howls-bg.png;
#LYRICSPATH:;
#CDTITLE:cdtitle.png;
#MUSIC:werewolf howls.ogg;
#OFFSET:-0.630230;
#SAMPLESTART:19.008797;
#SAMPLELENGTH:17.297298;
#SELECTABLE:YES;
#DISPLAYBPM:111.000000:222.000000;
#BPMS:0.000000=222.000000
,161.000000=111.000000
,174.000000=222.000000
,240.000000=111.000000
,254.000000=74.000000
,254.333328=148.000000
,255.000000=222.000000
;
#STOPS:64.000000=0.811000,
175.750000=1.081000,
254.000000=0.541000
;
#BGCHANGES:;
#KEYSOUNDS:;
#ATTACKS:;

//---------------dance-single - ----------------
#NOTES:
     dance-single:
     :
     Challenge:
     18:
     1.009616,1.473186,1.020281,0.199079,0.725810,852.000000,729.000000,123.000000,24.000000,0.000000,0.000000,1.009616,1.473186,1.020281,0.199079,0.725810,852.000000,729.000000,123.000000,24.000000,0.000000,0.000000:
// measure 0
0000
0000
0000
0000
,  // measure 1
0000
0000
0000
0000
,  // measure 2
0000
0000
0000
0000
,  // measure 3
0000
0000
0000
0000
,  // measure 4
0000
0000
0000
0000
,  // measure 5
0001
0001
0010
0010
,  // measure 6
0100
0100
1000
1000
,  // measure 7
0010
0010
0100
0100
,  // measure 8
0001
1000
0001
1000
0001
0000
1000
0000
0100
0000
0010
0001
1000
0000
0000
0000
,  // measure 9
1001
0001
1000
1000
0010
0100
0001
0000
,  // measure 10
1000
1000
0100
0100
0001
0100
1000
0000
,  // measure 11
1001
0001
1001
1000
0010
0100
0001
0000
,  // measure 12
1000
0000
0000
1000
0000
0000
0100
0000
0000
0100
0000
0000
0010
0000
0001
0000
0100
0000
0010
0000
0000
0000
0000
0000
,  // measure 13
1000
1010
0001
0101
,  // measure 14
1000
0000
1100
0000
0001
0011
0011
0000
,  // measure 15
1001
0000
0000
0000
0110
0000
0000
0000
0001
0100
0001
0100
0010
1000
0010
1000
,  // measure 16
0001
0000
1001
0001
0011
0000
0101
0000
,  // measure 17
0110
0000
1010
1000
1001
0000
1100
0000
,  // measure 18
0101
0000
1100
1000
1001
0000
0101
0000
,  // measure 19
1010
0000
0000
0000
1001
0000
0001
0000
0011
0000
0000
0000
1100
0000
0000
0001
,  // measure 20
0100
0000
0010
1000
0001
1000
0100
0000
0110
0000
0000
0000
0011
0000
0000
0000
,  // measure 21
1100
0000
0101
0100
0110
0000
1010
0000
,  // measure 22
0011
0000
1100
1000
1001
0000
0101
0000
,  // measure 23
1010
0000
0000
0000
1001
0000
0000
0000
1000
0000
0100
0000
0010
0000
0001
1000
,  // measure 24
0010
0100
0001
0000
1001
0000
1000
0000
1010
0000
0000
0000
0101
0000
0100
0000
,  // measure 25
0010
1000
0100
0001
0100
1000
0010
0100
,  // measure 26
0101
0000
0000
0000
0000
0000
0001
0000
0100
0000
0010
0000
1000
0000
0000
0000
0000
0000
1100
0000
0000
0100
0000
0000
,  // measure 27
0010
0000
0001
0000
0100
0000
1000
0000
0100
0000
0001
0000
0011
0000
0000
0001
,  // measure 28
0010
0100
1000
0000
0001
0100
0001
0000
0001
0000
1000
0000
0100
0000
0100
0000
,  // measure 29
0001
0001
0100
1000
1000
0010
0100
0001
,  // measure 30
0010
0001
0010
0001
0100
0000
0000
0000
0101
0000
0000
0000
0110
0000
0000
0000
,  // measure 31
1010
0000
0000
0000
1000
0000
0100
0000
0010
0000
0001
0000
1000
0100
0010
0001
,  // measure 32
1000
0000
0000
0000
1010
0000
0000
0110
0000
0000
0101
0000
0000
1001
0000
0000
,  // measure 33
0001
0000
1000
0000
1100
0000
0000
0110
0000
0000
0011
0000
0001
0000
0011
0000
,  // measure 34
0000
0110
0000
0000
1100
0000
0000
1001
0000
0000
0101
0000
0000
0110
0000
0000
,  // measure 35
2020
0000
3030
0000
1000
0000
0010
0000
0001
0000
0010
0100
0010
0000
1000
0000
,  // measure 36
0100
0010
0100
0000
1100
0000
0000
0011
0000
0000
1010
0000
0000
0101
0000
0000
,  // measure 37
0001
0000
1000
0000
1010
0000
0000
1100
0000
0000
0011
0000
0010
0000
0011
0000
,  // measure 38
0000
0101
0000
0000
1010
0000
0000
1100
0000
0000
0011
0000
1001
0000
0000
1010
,  // measure 39
0000
0000
0101
0000
1001
0000
1000
0000
0001
0000
0001
0000
1000
0010
0100
0001
,  // measure 40
0010
0220
0000
0000
,  // measure 41
0000
0000
0000
0000
,  // measure 42
0330
0000
0000
0000
0000
0000
0000
0000
1000
0100
1000
0100
0020
0000
0000
0000
0130
0000
1000
0000
0001
0000
0100
0000
0010
1000
0010
0000
0100
0000
0001
0000
,  // measure 43
0010
0001
2000
0000
0000
0000
0000
0000
3001
0100
0001
0100
0020
0000
0000
0000
1030
0000
0001
0000
1000
0000
0001
0000
1000
0000
0001
0000
1000
0000
0001
0000
,  // measure 44
1000
0010
0100
0010
2000
0000
0000
0000
3001
0000
0100
0000
1000
0000
0100
0000
,  // measure 45
0001
0010
0100
0000
1000
0000
0010
1000
0001
1000
0100
0000
0120
0000
0000
0000
,  // measure 46
0031
0100
0010
0100
0002
0000
0000
0000
1003
0000
0010
0000
0001
0000
0010
0000
,  // measure 47
0100
0010
1000
0000
0001
0000
1000
0100
0010
0001
1000
0000
0010
0000
0100
0000
,  // measure 48
0001
0010
0100
0010
0002
0000
0000
0000
1003
0000
0100
0000
0001
0000
0100
0000
,  // measure 49
1000
0010
0100
0000
0001
0000
0100
0001
1000
0001
0010
0000
0210
0000
0000
0000
,  // measure 50
1300
0100
0010
0100
2000
0000
0000
0000
3100
0000
0001
0000
0100
0000
0010
0000
,  // measure 51
0011
0000
0000
0000
0110
0000
0000
0000
1100
0000
0000
0001
0100
0010
1000
0000
,  // measure 52
0001
0000
2001
0000
3010
0001
0010
1000
,  // measure 53
0100
0010
0001
0000
1000
0000
0010
0100
0001
0100
0010
0000
1000
0000
0001
0000
,  // measure 54
0010
0000
0000
0000
0000
0000
0001
0000
0010
0000
0100
0000
1000
0000
0010
0000
0100
0000
0001
0000
0000
1000
0000
0000
,  // measure 55
0001
0010
0100
0000
0010
0000
0001
0000
1000
0010
0100
0000
0010
0000
1000
0000
,  // measure 56
0100
0000
0000
0000
1002
0000
0000
0000
1003
0000
0010
0100
0001
0000
0010
0000
,  // measure 57
0001
0000
0000
0000
0000
0000
2001
0000
0000
0000
0000
0000
3001
0000
0100
0000
0010
0000
1000
0000
0000
0001
0000
0000
,  // measure 58
0010
0000
1001
0000
0000
0110
0000
1001
,  // measure 59
0001
1000
0001
1000
0001
0000
0010
0100
0010
0100
0010
0000
0001
0000
0100
0000
,  // measure 60
2002
0000
0000
0000
,  // measure 61
0000
0000
0000
3003
,  // measure 62
0001
0010
0100
1000
0010
0100
0010
1000
0100
0001
0100
1000
0010
0100
0001
1000
,  // measure 63
0100
0010
0100
0010
0001
1000
0001
1000
0001
0100
0001
0100
0010
1000
0010
1000
0001
0000
0000
0000
0000
0000
0000
0000
1000
0000
0000
0000
0001
0000
0010
0000
,  // measure 64
0001
0000
1000
0000
0001
0100
0001
0000
1000
0000
0100
0000
0010
0000
0100
0000
,  // measure 65
0001
0000
1000
0000
0010
0000
0001
0000
0100
0001
0100
0001
0010
0000
0100
1000
,  // measure 66
0100
0000
0010
0000
0001
0100
0001
0000
1000
0000
0010
0000
1000
0000
0001
0100
,  // measure 67
0001
0100
0001
0000
1000
0000
0001
0010
0001
1000
0010
1000
0001
0000
1000
0100
,  // measure 68
1000
0000
0001
0000
1000
0010
1000
0000
0001
1000
0001
1000
0010
0000
0100
0001
,  // measure 69
0100
0000
0010
0000
1000
0100
1000
0000
0010
0000
0100
0000
0001
0000
0010
0000
,  // measure 70
1000
0001
1000
0010
0001
0200
0010
0010
,  // measure 71
0310
0000
1000
0000
0001
0100
0001
0000
0010
0000
0010
0000
0001
0000
1000
0010
,  // measure 72
1000
0000
0001
0000
1000
0100
1000
0000
0001
0000
0101
0000
0000
0000
1010
0000
,  // measure 73
0000
0000
1001
0000
0000
0000
0011
0000
0001
0010
0001
0010
0100
0000
1000
0010
,  // measure 74
1000
0000
0100
0000
0010
0001
0010
0000
0001
0000
0100
0000
0010
0000
1000
0100
,  // measure 75
1000
0100
1000
0000
0001
0000
1000
0010
1000
0001
0010
0001
1000
0000
0001
0100
,  // measure 76
0001
0000
1000
0000
0001
0010
0001
0000
1000
0001
1000
0001
0010
0000
0100
1000
,  // measure 77
0100
0000
0010
0000
0001
0100
0001
0000
0010
0000
0100
0000
1000
0000
0010
0000
,  // measure 78
0001
0000
1000
0000
0100
0000
0001
0000
1000
0100
0010
0000
0012
0000
0000
0000
,  // measure 79
0000
0000
2003
0000
0000
0000
3001
0100
0001
0100
0010
1000
0001
0000
1000
0000
,  // measure 80
0010
1000
0100
1000
0010
0100
0001
0010
,  // measure 81
1000
0010
0001
0100
1000
0100
0001
1000
,  // measure 82
0010
1000
0100
1000
0010
0100
0010
0001
,  // measure 83
1000
0000
0100
0000
0001
0000
0010
0001
0010
0000
0001
1000
0010
1000
0001
0000
,  // measure 84
1000
0001
0010
0001
0100
0001
1000
0010
,  // measure 85
0001
0010
1000
0100
0001
0100
1000
0001
,  // measure 86
0010
0000
0001
0000
0100
0000
0010
1000
0001
1000
0001
1000
0001
1000
0100
0000
,  // measure 87
0010
0000
0001
0000
0100
0000
0100
0000
0001
1000
0100
0010
0001
0000
0000
0110
,  // measure 88
0000
0000
1100
0000
0000
1001
0000
0000
1000
0000
0001
0000
0101
0000
0000
0110
,  // measure 89
0000
0000
1010
0000
1000
0000
1010
0000
0000
0110
0000
0000
0101
0000
0000
1001
,  // measure 90
0000
0000
1100
0000
0000
0110
0000
0000
0022
0000
0033
0000
0001
0000
0010
0000
,  // measure 91
1000
0000
0010
0100
0010
0000
0001
0000
0100
0010
0100
0000
0101
0000
0000
1010
,  // measure 92
0000
0000
0011
0000
0000
1100
0000
0000
1000
0000
0001
0000
0011
0000
0000
0101
,  // measure 93
0000
0000
1010
0000
0010
0000
1010
0000
0000
1100
0000
0000
0011
0000
0000
0101
,  // measure 94
0000
0000
1010
0000
1001
0000
0000
0011
0000
0000
1100
0000
1001
0000
0001
0000
,  // measure 95
1000
0000
1000
0000
0010
1000
0100
0010
0002
0000
0000
0000
0000
0000
0000
0000
,  // measure 96
0003
0000
0000
0000
;

//---------------dance-single - ----------------
#NOTES:
     dance-single:
     :
     Hard:
     16:
     0.815277,1.154660,0.381569,0.165899,0.423043,688.000000,642.000000,46.000000,20.000000,0.000000,0.000000,0.815277,1.154660,0.381569,0.165899,0.423043,688.000000,642.000000,46.000000,20.000000,0.000000,0.000000:
0000
0000
0000
0000
,
0000
0000
0000
0000
,
0000
0000
0000
0000
,
0000
0000
0000
0000
,
0000
0000
0000
0000
,
1000
1000
0010
0010
,
0100
0100
0001
0001
,
0010
0010
0100
0100
,
1000
0010
0100
0001
0010
0100
1000
0000
,
1001
0001
1000
0001
0010
0001
0100
0000
,
0001
1000
0001
1000
0010
1000
0100
0000
,
1001
1000
0010
1000
0100
1000
0010
0000
,
0100
0000
0000
0001
0000
0000
0010
0000
0000
0001
0000
0000
1000
0000
0010
0000
0100
0000
0001
0000
0000
0000
0000
0000
,
1000
1010
0001
0011
,
1000
0000
1100
0000
0001
0100
0101
0000
,
1001
0000
0000
0000
0110
0000
0000
0000
0001
1000
0001
1000
0001
1000
0001
1000
,
0001
0000
1000
0100
0110
0000
0011
0000
,
1001
0000
0001
0100
0110
0000
1010
0000
,
1001
0000
0001
0010
0110
0000
1100
0000
,
1001
0000
0000
0000
1000
0000
0010
0000
0110
0000
0000
0000
0101
0000
0000
0001
,
1000
0000
0010
0000
1000
0001
1000
0000
0100
0000
0000
0000
0110
0000
0000
0000
,
1001
0000
1000
0010
0110
0000
1010
0000
,
1001
0000
0001
0010
0110
0000
0011
0000
,
1001
0000
0000
0000
1010
0000
0000
0000
1000
0000
0010
0000
0100
0000
0001
0100
,
0010
1000
0001
0010
0001
0000
0010
1000
,
0010
0001
0100
0001
0010
0001
0100
1000
,
0100
0000
0000
0001
0000
0000
1000
0000
0100
0000
1000
0000
0100
0000
0000
0000
0000
0000
1000
0000
0000
0100
0000
0000
,
0001
0000
0100
0000
1000
0000
0010
0000
1000
0000
0100
0000
0010
0000
0001
1000
,
0001
1000
0001
0000
0100
0000
0010
0000
1000
0000
0000
0000
0010
0000
0100
0000
,
0001
1000
0000
0001
0010
0100
1000
0001
,
0100
0010
1010
0000
0110
0000
0101
0000
,
1001
0000
1000
0100
0010
0001
0100
0010
,
1000
0000
0000
0000
0001
0000
0000
0100
0000
0000
0001
0000
0000
0100
0000
0000
,
0010
0000
1000
0000
0100
0000
0000
1000
0000
0000
0100
0000
1000
0000
0010
0000
,
0000
0100
0000
0000
0010
0000
0000
0100
0000
0000
0001
0000
0000
0010
0000
0000
,
0200
0000
0301
0100
1000
0010
0001
0010
,
1000
0000
0100
0000
0010
0000
0000
0001
0000
0000
0100
0000
0000
0010
0000
0000
,
1000
0000
0001
0000
0010
0000
0000
0001
0000
0000
0100
0000
0010
0000
1000
0000
,
0000
0100
0000
0000
0001
0000
0000
0100
0000
0000
1000
0000
0010
0000
0000
0001
,
0000
0000
0010
0000
1000
0000
0100
0000
0010
0000
0001
0000
1000
0001
1000
0001
,
1000
2002
0000
0000
,
0000
0000
0000
0000
,
3003
0000
0000
0000
1000
0100
0010
0000
0010
0100
1000
0010
0100
0001
0010
0000
,
0010
1000
0010
0001
0100
0010
1000
0000
0001
1000
0001
1000
0001
1000
0001
1000
,
0001
0100
0001
0000
2000
0000
0000
0000
3100
0000
0001
0000
0100
0000
1000
0000
,
0100
0010
0100
0000
0020
0000
0000
0000
0031
0000
0100
0000
0020
0000
0000
0000
,
1030
0100
1000
0000
0002
0000
0000
0000
0103
0000
1000
0000
0100
0000
0001
0000
,
0100
0010
0100
0000
0002
0000
0000
0000
1003
0100
1000
0000
0010
0000
0100
0000
,
0001
0010
0001
0000
2000
0000
0000
0000
3010
0000
0001
0000
0010
0000
1000
0000
,
0010
0100
0010
0000
0200
0000
0000
0000
0301
0000
0010
0000
0200
0000
0000
0000
,
1300
0010
1000
0000
0002
0000
0000
0000
0013
0000
1000
0000
0010
0000
0001
0000
,
0011
0000
0000
0000
0110
0000
0000
0000
1100
0000
0000
1000
0010
0000
0100
0000
,
0001
0000
1001
0000
1000
0010
0001
0010
,
0100
0010
0100
0000
0010
0000
1000
0001
1000
0001
1000
0000
0200
0000
0000
0000
,
0310
0000
0000
0000
0000
0000
0001
0000
1000
0000
0001
0000
1000
0000
0001
0000
1000
0000
0001
0000
0000
1000
0000
0000
,
0001
0010
0001
0100
0010
1000
0200
0000
,
0310
0000
0000
0000
1001
0000
0000
0000
0001
0000
1000
0001
1000
0000
0000
0000
,
0100
0000
0000
1001
0000
0000
0010
0100
0010
0100
0000
0000
,
0010
0000
1001
0000
0000
0110
0000
1001
,
1000
0100
1000
0001
0010
0001
1000
0000
,
2002
0000
0000
0000
,
0000
0000
0000
3003
,
1000
0000
0010
0100
0000
0010
0100
0000
0001
0000
0010
0100
0000
0010
0100
0000
,
1000
0000
0001
0000
1000
0000
0001
0000
1000
0001
1000
0001
1000
0001
1000
0001
1000
0000
0000
0000
0000
0000
0000
0000
1000
0000
0000
0000
0010
0000
0000
0000
,
0100
0001
0010
0001
0100
1000
0100
0001
,
0010
0000
0001
0000
0100
0000
0010
0000
1000
0001
1000
0001
1000
0000
0100
0000
,
0010
0000
0100
0000
1000
0000
0010
0000
0001
0000
0010
0000
1000
0000
0001
0010
,
0001
0010
0001
0000
1000
0000
0001
0100
0001
0100
0001
0000
1000
0000
0100
0000
,
1000
0000
0100
0000
0010
0000
0100
0000
1000
0001
1000
0000
0001
0000
0010
0000
,
0001
0100
0010
0100
1000
0001
0010
1000
,
0100
0001
0100
0010
0001
1000
0010
0010
,
0010
0000
0000
0000
1000
0001
1000
0000
0001
0000
1000
0000
0001
0000
0010
0000
,
0100
1000
0010
1000
0100
0010
0000
1100
,
0000
0000
0011
0000
0000
0000
0010
0000
0001
1000
0001
1000
0010
0000
0100
0000
,
0001
0000
0010
0000
1000
0000
0010
0000
0001
0000
0100
0000
0010
0000
1000
0100
,
1000
0100
1000
0000
0001
0000
1000
0010
1000
0010
1000
0000
0001
0000
0100
0000
,
0001
0000
0100
0000
0010
0000
0100
0000
0001
1000
0001
0000
1000
0000
0010
0000
,
1000
0100
0010
0100
0001
1000
0010
0001
,
0100
1000
0100
0001
0010
0100
2100
0000
,
0000
0002
0000
0000
3003
0000
0001
1000
,
0010
1000
0001
1000
0100
1000
0001
0100
,
0010
0100
1000
0100
0010
0100
0001
1000
,
0010
1000
0001
1000
0100
1000
0001
0010
,
0100
0000
1000
0000
0010
0000
0000
1000
0100
0000
0010
0000
0001
1000
0001
0000
,
1000
0001
0010
0001
0100
0001
1000
0100
,
0010
0100
0001
0100
0010
0100
1000
0001
,
0010
0001
1000
0001
0100
0001
0010
1000
,
0010
0000
0001
0000
0100
0000
0010
0000
1000
0001
1000
0001
1000
0000
0000
0100
,
0000
0000
1000
0000
0000
0100
0000
0000
0010
0000
0001
0000
0100
0000
0000
0001
,
0000
0000
0100
0000
0001
0000
0010
0000
0000
0100
0000
0000
0010
0000
0000
0100
,
0000
0000
1000
0000
0000
0010
0000
0000
0200
0000
0000
0000
1300
0000
0100
0000
,
0001
0000
0010
0000
1000
0000
0010
0000
0001
0000
0100
0000
0010
0000
0000
1000
,
0000
0000
0100
0000
0000
0010
0000
0000
0001
0000
1000
0000
0010
0000
0000
1000
,
0000
0000
0100
0000
0010
0000
0001
0000
0000
0100
0000
0000
1000
0000
0000
0100
,
0000
0000
0001
0000
0010
0000
0000
1000
0000
0000
0010
0000
0001
0000
0100
0000
,
0010
0000
1000
0000
0001
1000
0001
1000
0200
0000
0000
0000
0000
0000
0000
0000
,
0300
0000
0000
0000
;

//---------------dance-single - ----------------
#NOTES:
     dance-single:
     :
     Medium:
     13:
     0.630418,0.875949,0.232259,0.240554,0.136867,532.000000,504.000000,28.000000,29.000000,0.000000,0.000000,0.630418,0.875949,0.232259,0.240554,0.136867,532.000000,504.000000,28.000000,29.000000,0.000000,0.000000:
0000
0000
0000
0000
,
0000
0000
0000
0000
,
0000
0000
0000
0000
,
0000
0000
0000
0000
,
0000
0000
0000
0000
,
0001
0010
0100
1000
,
0001
0100
0010
1000
,
0001
0010
0100
1000
,
0010
0100
0010
0100
0001
1000
0001
0000
,
1000
0010
1000
0010
0100
0001
0010
0000
,
0001
0010
0001
0010
0100
1000
0010
0000
,
1000
0001
1000
0001
0010
0001
0100
0000
,
0001
1000
0001
1000
0010
1000
0100
0000
,
1000
1010
0001
0011
,
1000
1100
0001
0101
,
1001
0000
0110
0000
0001
0100
0010
1000
,
0001
0000
1000
0100
0010
0000
0001
0000
,
0100
0000
1000
0100
0001
0000
0010
0000
,
0100
0000
1000
0010
0100
0000
0001
0000
,
0010
0000
1000
0010
0001
0000
0100
0000
,
0010
1000
0100
0010
0001
0000
0100
0000
,
0010
0000
1000
0100
0001
0000
0100
0000
,
0010
0000
0001
0100
0010
0000
1000
0000
,
0100
0000
0001
0000
0100
1000
0010
0100
,
0010
1000
0001
0010
0001
0000
1000
0010
,
0100
0001
0000
1000
0100
0010
0001
1000
,
0000
0001
0100
0000
1001
0000
0001
0010
,
0100
1000
0000
0001
0100
0000
0010
0100
,
0001
1000
0100
0010
0001
0000
0010
0001
,
0010
0001
0000
0010
0001
0100
0010
1000
,
0100
0011
0101
0110
,
1010
1100
0110
0011
,
1001
0000
0000
0000
0001
0000
0000
0100
0000
0000
0001
0000
0000
0100
0000
0000
,
0010
0000
0000
0000
1000
0000
0000
0100
0000
0000
1000
0000
0000
0000
0001
0000
,
0000
0100
0000
0000
0001
0000
0000
1000
0000
0000
0100
0000
0000
1000
0000
0000
,
0002
0000
0013
0001
0100
0010
1000
0100
,
0010
0000
0000
0000
0001
0000
0000
0010
0000
0000
0100
0000
0000
1000
0000
0000
,
0001
0000
0000
0000
1000
0000
0000
0010
0000
0000
0100
0000
0000
0000
0001
0000
,
0000
0010
0000
0000
0100
0000
0000
1000
0000
0000
0001
0000
0100
0000
0000
0010
,
0000
1000
0100
0010
0001
0100
1000
0100
,
0001
2002
0000
0000
,
0000
0000
0000
0000
,
3003
0000
0000
0000
1000
0010
1000
0000
0001
0100
0001
0000
1000
0100
1000
0000
,
0001
0100
0010
0000
1000
0001
1000
0000
0001
0000
1000
0000
0001
0000
1000
0000
,
0001
0100
0020
0000
0130
0001
0010
0001
,
0100
0010
2000
0000
3010
0100
0002
0000
,
1003
0100
0020
0000
0130
1000
0010
1000
,
0100
0010
0002
0000
1003
0010
0001
0010
,
1000
0100
0020
0000
0031
0100
0010
0100
,
0001
1000
0200
0000
0310
0001
2000
0000
,
3001
0100
0020
0000
1030
0100
0010
0001
,
0010
1100
0101
2002
,
3003
0000
1001
0000
1000
0010
0100
0001
,
0010
0100
0020
0000
0130
1000
0020
0000
,
0030
0000
1002
0000
2003
0000
3001
0100
,
0010
1000
0010
1000
0001
0010
0002
0000
,
0003
0000
1001
0000
1000
0100
0010
0001
,
0000
0000
1001
0000
0001
0100
0020
0000
,
0030
0000
1001
0000
0000
1001
0000
0001
,
1000
0000
0100
0010
0001
1000
0100
0000
,
0220
0000
0000
0000
,
0000
0000
0000
0330
,
0010
0000
0000
0001
0000
0000
0100
0000
1000
0000
0000
0100
0000
0000
0001
0000
,
0010
0000
0100
0000
0010
0100
0010
0100
0010
0000
0000
0000
0001
0000
0100
0000
,
0010
1000
0000
0001
0010
0001
0000
0100
,
0000
0010
0000
1000
0100
0010
0001
0000
,
0100
0010
0000
0100
0001
2000
0000
3100
,
0010
0001
0000
0001
0100
0010
1000
0100
,
1000
0010
0000
1000
0100
1000
0001
0100
,
0001
0010
0000
0001
1000
0010
0000
1000
,
0000
0100
0000
0010
0001
0200
0010
0000
,
0310
0000
1000
0001
1000
0001
1000
0100
,
0010
0001
0000
1000
0010
0100
0000
0101
,
0000
1001
0000
0001
0010
0100
1000
0000
,
0010
0100
0000
0010
1000
0002
0000
0013
,
0100
1000
0000
1000
0010
0100
0001
0010
,
0001
0100
0000
0001
0100
0001
1000
0010
,
1000
0100
0000
1000
0001
0010
0000
0100
,
0000
1000
0000
1000
0010
0001
0020
0000
,
0000
2000
0000
0000
3030
0000
1000
0010
,
0100
0000
0010
0000
1000
0000
0001
0010
,
0100
0000
0010
0000
0001
0000
0100
0010
,
1000
0000
0100
0000
0010
0000
0001
0100
,
0010
0000
0100
0000
0010
1000
0100
0010
,
0001
0000
0100
0000
1000
0000
0100
0001
,
0010
0000
0100
0000
1000
0000
0010
1000
,
0100
0000
0001
0000
0100
0000
1000
0100
,
0010
0000
0001
0000
0100
0000
0010
0000
1000
0000
0001
0000
1000
0000
0000
0100
,
0000
0000
1000
0000
0000
0100
0000
0000
0010
0000
0000
0000
0001
0000
0000
0100
,
0000
0000
0001
0000
0000
0000
1000
0000
0000
0100
0000
0000
1000
0000
0000
0001
,
0000
0000
0100
0000
0000
0001
0000
0000
2000
0000
0000
0000
3010
0000
1000
0000
,
0100
0000
0010
0000
0001
0000
0100
0000
0010
0000
0000
0000
1000
0000
0000
0010
,
0000
0000
0100
0000
0000
0001
0000
0000
1000
0000
0000
0000
0001
0000
0000
0010
,
0000
0000
0100
0000
0000
0000
1000
0000
0000
0010
0000
0000
0100
0000
0000
0001
,
0000
0000
1000
0000
0100
0000
0000
0010
0000
0000
0001
0000
0100
0000
0010
0000
,
1000
0100
0001
0100
2000
0000
0000
0000
,
3000
0000
0000
0000
;

//---------------dance-single - ----------------
#NOTES:
     dance-single:
     :
     Easy:
     10:
     0.481108,0.597238,0.431338,0.398159,0.008295,406.000000,354.000000,52.000000,48.000000,0.000000,0.000000,0.481108,0.597238,0.431338,0.398159,0.008295,406.000000,354.000000,52.000000,48.000000,0.000000,0.000000:
0000
0000
0000
0000
,
0000
0000
0000
0000
,
0000
0000
0000
0000
,
0000
0000
0000
0000
,
0000
0000
0000
0000
,
0001
0010
0001
0010
,
0100
1000
0100
1000
,
0001
0100
0001
0100
,
0010
0010
1000
0001
,
1001
1000
0100
0000
,
0001
0001
0100
0000
,
1001
1001
0010
0000
,
0100
0010
1001
1001
,
0000
1010
0000
0101
,
0000
1100
0000
0011
,
1001
0000
1001
0000
1000
0001
1000
0001
,
1000
0000
0001
0010
0001
0000
0010
0000
,
0001
0000
1000
0010
1000
0000
0010
0000
,
1000
0000
0001
0100
0001
0000
0100
0000
,
0001
0000
1000
0100
1000
0000
0001
0000
,
1000
0001
1000
0001
1000
0000
0010
0000
,
0100
0000
0001
1000
0001
0000
0010
0000
,
0100
0000
1000
0001
1000
0000
0010
0000
,
0100
0000
0001
0000
0001
0100
0010
0000
,
1000
0001
1000
0001
1000
0000
0001
0000
,
0001
1000
1000
0001
,
1000
0000
0100
0010
0001
0000
1000
0000
,
1000
0001
0001
1000
,
0010
0100
0010
0000
1000
0000
1000
0000
,
0000
1000
0000
0000
0001
0000
1000
0000
,
0100
0020
0032
0203
,
2300
3200
0302
0023
,
0130
0000
0000
0000
2200
0000
0000
0000
0000
0000
0000
0000
0000
3300
0000
0000
,
1001
0000
0202
0000
0000
0303
0000
0202
,
0000
0000
0000
0000
0000
0000
0000
0000
0000
0000
0000
0000
0000
0303
0000
0000
,
2000
3010
1000
0100
,
0010
0000
0000
0000
0022
0000
0000
0000
0000
0000
0000
0000
0000
0033
0000
0000
,
1001
0000
2020
0000
0000
3030
0000
0202
,
0000
0000
0303
0011
,
0011
0000
1100
0000
1000
0001
1000
0001
,
1000
2002
0000
0000
,
0000
0000
0000
0000
,
3003
0000
1000
1000
0001
0001
0010
0010
,
0100
0000
1000
0000
0001
0000
0001
0000
0200
0000
0000
0000
0000
0000
0000
0300
,
0001
0001
1000
1000
,
0001
0000
1000
0000
0010
0100
0002
0000
,
1003
1000
0001
0001
,
0010
0100
0010
0001
,
1000
1000
0010
0010
,
0100
0000
0001
0000
1000
0100
0020
0000
,
0031
0001
0100
0100
,
1010
0110
0101
2002
,
3003
1001
1000
0001
,
1000
0000
0001
0000
0010
0100
2000
0000
,
3000
1001
1001
1001
,
0001
0100
0010
2000
,
3000
0000
1001
0000
1000
0001
1000
0000
,
0000
0000
1001
0000
0001
1000
0200
0000
,
0300
0000
1001
0000
0000
1001
0000
0000
,
1000
0100
0010
0001
,
2002
0000
0000
0000
,
0000
0000
0000
3003
,
1000
0000
0000
1000
0000
0000
0010
0000
0100
0000
0000
0100
0000
0000
0001
0000
,
1000
0100
0010
0001
1000
0000
0001
0100
,
0001
0000
0100
0000
0001
0000
1000
0010
,
1000
0000
0001
0000
1000
0000
0001
0010
,
0001
0000
0010
0000
0100
0000
1000
0001
,
1000
0000
0010
0000
1000
0001
1000
0001
,
1000
0000
0001
0000
0100
0000
0001
0100
,
0001
0000
1000
0000
0100
0000
0010
0001
,
0010
0000
0100
0000
1000
0000
0001
0100
,
0010
0000
0000
0000
1001
0000
1000
0100
,
1000
0000
0001
0000
0100
0000
0000
0101
,
0000
0110
0000
1010
0000
0000
1000
0010
,
1000
0000
0010
0000
0100
0000
0001
1000
,
0001
0000
0010
0000
0001
1000
0001
1000
,
0001
0000
1000
0000
0100
0000
1000
0100
,
1000
0000
0001
0000
0100
0000
0010
1000
,
0010
0100
0001
2002
,
0000
0000
3003
1000
,
0010
0100
0010
1000
,
0001
0010
0100
0010
,
0001
1000
0010
0100
,
0001
0010
0100
1000
,
0001
0100
0010
1000
,
0001
0010
0001
1000
,
0010
0100
0001
1000
,
0001
1000
0001
1000
0001
0000
0202
0000
,
0000
0000
0000
0000
0000
0303
0000
0000
1001
0000
0000
0000
2200
0000
0000
0000
,
0000
3300
0000
2200
0000
0000
0000
0000
,
0000
0000
0000
0000
0000
3300
0000
0000
0002
0000
0000
0000
0013
0000
0000
0000
,
0001
0100
0010
2020
,
0000
0000
0000
0000
0000
3030
0000
0000
1001
0000
0000
0000
0022
0000
0000
0000
,
0000
0033
0000
2200
0000
0000
0000
0000
,
3300
1010
1010
0101
,
0001
1000
0001
1000
0002
0000
0000
0000
,
0003
0000
0000
0000
;

//---------------dance-single - ----------------
#NOTES:
     dance-single:
     :
     Beginner:
     6:
     0.338909,0.398159,0.348389,0.282029,0.000000,286.000000,244.000000,42.000000,34.000000,0.000000,0.000000,0.338909,0.398159,0.348389,0.282029,0.000000,286.000000,244.000000,42.000000,34.000000,0.000000,0.000000:
0000
0000
0000
0000
,
0000
0000
0000
0000
,
0000
0000
0000
0000
,
0000
0000
0000
0000
,
0000
0000
0000
0000
,
0001
0000
0010
0000
,
0100
0000
1000
0000
,
0010
0000
0100
0000
,
0001
0000
1000
0000
,
1001
0000
0000
0000
,
1000
0000
0000
0000
,
1001
1001
0000
0000
,
0001
0000
1001
1001
,
0000
1010
0000
0110
,
0000
0101
0000
0001
,
1000
0001
2000
0000
,
3000
1000
1000
0010
,
0000
0100
0100
0001
,
0000
1000
1000
0100
,
0000
0010
0010
0001
,
0000
1000
1000
0001
,
0000
0100
0100
0010
,
0000
1000
1000
0001
,
0000
0010
0100
0010
,
0001
1000
0010
1000
,
0000
0001
0100
0001
,
0000
1000
0100
1000
,
0000
0001
0010
0001
,
0000
1000
0001
1000
,
0000
0001
1000
0100
,
0010
0001
0001
0100
,
0100
0010
0010
1000
,
0000
2002
0000
3003
,
1001
0000
2002
0000
0000
3003
0000
2002
,
0000
0000
0000
3003
,
1001
0000
1000
0100
,
0000
0022
0000
0033
,
1100
0000
2200
0000
0000
3300
0000
2020
,
0000
0000
3030
0101
,
0000
0011
0000
0110
,
0000
2002
0000
0000
,
0000
0000
0000
0000
,
3003
1000
0010
0100
,
0001
0000
0000
0000
1000
0000
0000
0000
0200
0000
0000
0000
0000
0000
0000
0300
,
1000
0000
0001
0000
,
1000
0100
0010
0001
,
1000
0000
0001
0000
,
1000
0010
0100
0001
,
1000
0000
0001
0000
,
0010
0001
0100
0010
,
1000
0000
0100
1000
,
0010
0100
0001
1000
,
0000
1001
0001
1000
,
0001
0010
0100
1000
,
0000
1001
1000
1000
,
0100
0010
0001
0100
,
0000
1001
1000
0001
,
0000
1001
0001
1000
,
0000
0000
1001
0000
0000
1001
0000
0000
,
0100
0100
0010
0010
,
2002
0000
0000
0000
,
0000
0000
0000
3003
,
1000
0100
0010
0001
,
0100
0010
1000
0001
,
0100
0001
0000
1000
,
0100
0010
0000
0100
,
1000
0010
0100
0001
,
1000
0100
0000
0010
,
0001
1000
0000
0010
,
1000
0001
0000
0100
,
0010
0100
0001
1000
,
0000
0100
0100
1000
,
0001
0000
1000
0000
0010
0000
0000
0010
,
0000
0010
0000
0010
0000
0000
1000
0000
,
0001
0010
0100
1000
,
0001
0100
0000
0010
,
1000
0001
0000
0010
,
0001
1000
0000
0010
,
0100
0001
1000
2002
,
0000
0000
3003
1000
,
0010
0100
0000
0001
,
0010
0100
0000
0010
,
0001
0100
0000
0010
,
1000
0100
0000
1000
,
0001
0010
0000
0001
,
1000
0010
0000
0100
,
0010
1000
0001
0010
,
0100
0010
0000
2002
,
0000
3003
1001
2002
,
0000
3003
0000
2002
0000
0000
0000
0000
,
0000
3003
1001
0000
,
0001
0100
0000
2020
,
0000
3030
0101
0202
,
0000
0303
0000
0022
0000
0000
0000
0000
,
0033
1100
0000
1010
,
0000
1001
2002
0000
,
3003
0000
0000
0000
;
