#TITLE:refractive index;
#SUBTITLE:;
#ARTIST:Sota Fujimori;
#TITLETRANSLIT:;
#SUBTITLETRANSLIT:;
#ARTISTTRANSLIT:;
#GENRE:Psytrance;
#CREDIT:;
#BANNER:refractive index.png;
#BACKGROUND:refractive index-bg.png;
#LYRICSPATH:;
#CDTITLE:cdtitle.png;
#MUSIC:refractive index.ogg;
#OFFSET:-0.072648;
#SAMPLESTART:81.112000;
#SAMPLELENGTH:12.467529;
#SELECTABLE:YES;
#BPMS:0.000000=154.000000
;
#STOPS:29.750000=0.390000
;
#BGCHANGES:;
#KEYSOUNDS:;
#ATTACKS:;

//---------------dance-single - ----------------
#NOTES:
     dance-single:
     :
     Challenge:
     17:
     0.973342,0.961571,0.153493,0.179075,1.539196,799.000000,781.000000,18.000000,21.000000,8.000000,0.000000,0.973342,0.961571,0.153493,0.179075,1.539196,799.000000,781.000000,18.000000,21.000000,8.000000,0.000000:
// measure 0
0000
0000
0000
0000
,  // measure 1
0000
0000
0000
0000
,  // measure 2
0000
0000
0000
0000
,  // measure 3
0000
0000
0000
0000
,  // measure 4
0000
0000
0000
0000
0001
0010
0000
0001
0000
0001
0100
0000
0010
1000
0001
1000
,  // measure 5
0100
0000
0010
0000
0100
1000
0000
0001
0000
1000
0010
1000
0010
1000
0100
0000
,  // measure 6
0010
0001
0000
0010
0001
1000
0000
0010
0000
0010
1000
0000
0001
1000
0100
0010
,  // measure 7
0001
0000
0001
0000
1000
0001
0000
2000
3000
0000
0000
0000
0001
0000
0100
0010
,  // measure 8
0000
0000
0010
0100
1000
0000
0000
1000
0100
0000
0001
0010
0100
0000
1000
0000
,  // measure 9
0010
0000
0100
0001
0000
0001
0010
0000
1000
0000
0010
0001
0100
0000
0100
0010
,  // measure 10
1000
0000
0100
0000
0002
0000
0000
0103
0010
0001
1000
0001
0000
0100
0000
0020
,  // measure 11
0000
0000
1030
0000
0100
0010
0100
0010
0001
0000
1000
0001
1000
0000
0100
0010
,  // measure 12
0000
0000
0010
0100
0001
0000
0000
0001
0100
0000
1000
0010
0100
0000
0001
0000
,  // measure 13
0010
0000
0100
1000
0000
1000
0010
0000
0001
0000
0010
1000
0100
0000
0100
0010
,  // measure 14
0001
0000
0100
0000
2000
0000
0000
3100
0010
1000
0001
1000
0100
0010
0000
0002
,  // measure 15
0000
0000
1003
0001
0100
0010
0100
0010
1000
0000
1000
0001
1000
0000
0100
0000
,  // measure 16
0010
0001
0010
0001
0000
0001
0100
0000
0010
0100
0001
1000
0100
0000
0010
0000
,  // measure 17
0100
0010
0100
0001
0000
0100
0000
1000
0100
0010
0001
0100
0010
0000
1000
0000
,  // measure 18
0010
0100
0010
1000
0000
0010
0100
0010
0002
0000
0013
0000
1000
0000
0001
1000
,  // measure 19
1002
0000
0000
1003
0000
0100
0000
0001
0000
1000
0020
0000
0031
0010
0001
0010
,  // measure 20
0100
1000
0000
0010
0100
0001
0100
0001
1000
0100
0000
0010
0001
1000
0001
1000
,  // measure 21
0010
0100
0000
0010
1000
0001
1000
0001
0010
0100
0000
1000
0100
0010
0100
0010
,  // measure 22
0001
0100
0000
0001
0100
0010
0100
0010
1000
0100
0000
0010
0001
0000
0000
0100
,  // measure 23
0001
0010
0000
0001
0000
1000
0000
0001
0200
0000
0000
0000
0310
0000
1000
0000
,  // measure 24
0100
0000
0010
0001
0100
0000
0010
0100
1000
0100
0010
2000
0000
3001
1000
0000
,  // measure 25
1000
0000
0001
1000
0100
0000
0010
0100
0001
0100
0010
0002
0000
1003
0001
0000
,  // measure 26
0001
0000
1000
0001
0100
0000
1000
0100
0010
0100
0001
0020
0000
0031
1000
0000
,  // measure 27
1000
0000
0010
1000
0100
0000
0001
0100
0010
0100
1000
0002
0000
0103
0001
0000
,  // measure 28
1000
0010
1000
0100
0000
0001
0100
0010
0100
0010
0100
1000
0000
0100
0010
0000
,  // measure 29
0001
0100
0010
1000
0000
0010
0100
0010
0001
0010
1000
0010
0000
0100
0001
0000
,  // measure 30
0010
0100
1000
0010
0000
1000
0100
0010
0100
0001
0100
1000
0010
0000
0100
0000
,  // measure 31
0010
1000
0001
0010
0000
0000
0110
0000
1001
0000
0000
0000
1000
0000
0010
0000
,  // measure 32
0100
0010
0100
0000
0001
0010
0000
0100
0000
0010
0001
0000
0100
0000
0010
0000
,  // measure 33
1000
0001
1000
0000
0100
0010
0000
0100
0000
1000
0001
0000
1000
0000
0010
0000
,  // measure 34
0100
0001
0100
0000
0010
1000
0000
0100
0000
1000
0001
0000
0100
0000
0001
0000
,  // measure 35
1000
0100
1000
0000
0010
1000
0000
0100
0000
0010
0100
0010
0001
0000
0100
0000
,  // measure 36
0010
1000
0001
0000
1000
0100
0010
0001
0000
0001
0100
0010
1000
0000
0010
0000
,  // measure 37
0100
0001
0010
0001
0100
0010
1000
0100
0000
1000
0010
0100
0001
0000
0010
0000
,  // measure 38
0001
1000
0010
0000
0100
0001
1000
0100
0000
0010
0001
1000
0010
0000
0100
0000
,  // measure 39
0010
0000
0100
0000
0010
1000
0100
0010
0001
0000
0000
0000
1000
0000
0001
0010
,  // measure 40
0001
0010
0001
1000
0001
1000
0001
0100
0010
1000
0001
0010
0000
0001
0100
0010
,  // measure 41
1000
0010
0100
0001
0000
1000
0100
0010
0001
0010
0100
1000
0000
0001
1000
0010
,  // measure 42
1000
0010
1000
0001
1000
0001
0010
0100
1000
0010
0100
0001
0000
1000
0001
0010
,  // measure 43
0100
1000
0001
0100
0000
0010
0100
1000
0100
0010
0100
0001
0000
0010
0001
0100
,  // measure 44
0001
0100
0010
0100
0010
0100
1000
0100
0010
1000
0001
0010
0000
0001
0100
0010
,  // measure 45
0100
0010
1000
0100
0000
1000
0100
0010
0100
0010
0001
0100
0000
0010
1000
0100
,  // measure 46
1000
0100
0010
0100
0010
0100
0001
0100
0010
0001
0100
0010
0000
1000
0100
0010
,  // measure 47
0001
1000
0010
0000
0001
0010
0100
0010
1000
0100
0010
0001
1000
0000
0000
0000
,  // measure 48
0001
0000
0100
0000
0000
0001
0100
0001
1000
0000
0001
0000
0010
0000
0000
0000
,  // measure 49
0100
0010
0001
0000
0000
0001
0100
0000
0010
0000
1000
0000
0001
0010
0001
0010
,  // measure 50
0000
0000
0100
0000
0000
0000
0100
0000
1000
0000
0001
0000
0000
0000
1000
0000
0010
0000
0100
0000
0001
0000
1000
0000
0100
0000
0000
0000
0010
0001
0010
0000
,  // measure 51
0001
0000
0100
0000
0010
1000
0001
0000
1001
0000
0000
0000
1000
0000
0010
1000
,  // measure 52
0100
0000
0010
0001
0000
0001
0100
0010
0100
0000
0001
0000
0010
0000
0100
1000
,  // measure 53
0010
0000
0001
0010
0000
0010
0100
0010
1000
0000
0001
0000
1000
0000
0010
1000
,  // measure 54
0100
0000
0001
0100
0000
0100
0010
0100
1000
0000
0001
0000
0010
0001
0100
0000
,  // measure 55
0010
1000
0000
1001
0000
1001
0000
0001
1000
0100
0010
0000
0001
0000
0100
0010
,  // measure 56
1000
0000
0001
0000
1000
0000
0100
0000
0000
0000
0100
0000
0010
0000
0001
0000
0100
0000
0000
0000
0010
0000
0000
0000
1000
0001
1000
0001
1000
0000
0010
0000
,  // measure 57
1000
0100
1000
1001
0000
MMMM
0000
2001
0000
0000
0000
0000
3001
0010
0100
1000
,  // measure 58
0010
0000
0100
0001
0000
0001
0010
0001
0100
0000
1000
0000
0100
0010
0100
0010
,  // measure 59
1000
0000
0000
0000
1002
0000
0000
0000
0000
0000
1003
0000
0001
0100
0001
0000
1000
0000
0100
0000
0010
0000
0000
0000
0001
0000
0000
0000
0010
0000
0001
0000
,  // measure 60
0100
0000
0010
1000
0000
1000
0100
0010
0100
0000
1000
0000
0010
0000
0100
0001
,  // measure 61
0010
0000
1000
0010
0000
0010
0100
0010
0001
1000
0010
1000
0001
0000
0010
0001
,  // measure 62
0100
0000
1000
0100
0000
0100
0010
0100
0001
1000
0100
0000
0010
0000
0001
0100
,  // measure 63
0001
1000
0100
1000
0000
0000
2002
0000
0000
0000
3003
0000
1000
0000
0100
0010
,  // measure 64
0001
0000
1000
0000
0001
0000
0100
0000
0000
0000
0100
0000
0010
0000
1000
0000
0100
0000
0000
0000
0010
0000
0000
0000
0001
1000
0001
1000
0001
0000
0100
0000
,  // measure 65
0001
0000
0010
0000
0001
0000
1001
0000
0000
0000
MMMM
0000
0000
0000
1002
0000
0000
0000
0000
0000
1003
0001
1000
0001
1000
0000
0010
0000
0100
0000
0001
0000
,  // measure 66
0010
0000
0100
1000
0000
1000
0010
1000
0100
0000
1000
0000
0010
0100
0010
0000
,  // measure 67
0001
0000
0010
0000
1000
0100
0010
0001
2000
0000
0000
0000
3001
0000
1000
0010
,  // measure 68
1000
0010
0100
0001
0000
0100
0001
1000
0100
0010
0100
0010
0001
0000
0100
0010
,  // measure 69
0100
0010
1000
0001
0000
0010
0001
1000
0010
0100
0001
1000
0100
0010
0100
0010
,  // measure 70
0000
0000
1001
0000
0000
0000
1001
0000
0000
0001
0000
0010
0001
0100
0010
1000
,  // measure 71
0000
0000
1010
0000
0000
0000
1100
0000
0000
0011
0000
2002
0000
0000
0000
0000
,  // measure 72
0000
0000
0000
3003
;

//---------------dance-single - ----------------
#NOTES:
     dance-single:
     :
     Hard:
     15:
     0.769903,0.744442,0.170548,0.153493,0.869795,632.000000,612.000000,20.000000,18.000000,0.000000,0.000000,0.769903,0.744442,0.170548,0.153493,0.869795,632.000000,612.000000,20.000000,18.000000,0.000000,0.000000:
0000
0000
0000
0000
,
0000
0000
0000
0000
,
0000
0000
0000
0000
,
0000
0000
0000
0000
,
0000
0000
0000
0000
1000
0010
0000
1000
0000
1000
0100
0000
0000
0100
0010
0000
,
0001
0000
0100
0000
1000
0100
0000
0010
0000
0010
0100
0000
0001
1000
0001
1000
,
0001
0000
0000
0010
0001
1000
0000
0001
0000
0001
0100
0000
0000
0100
0010
0000
,
1000
0000
1000
0000
0001
1000
0000
0200
0300
0000
0000
0000
1000
0100
0000
0010
,
0000
0000
0100
0000
1000
0000
0001
0000
1000
0000
0010
0001
0000
0000
0010
0000
,
0100
0000
0010
1000
0000
1000
0100
0000
0001
0000
0100
0000
1000
0000
0010
0100
,
0010
0000
0000
0000
1001
0000
0000
0000
1000
0100
0010
0001
0000
0100
0000
2000
,
0000
0000
3100
0000
0001
1000
0001
1000
0100
0000
0000
1000
0001
0100
0000
0010
,
0000
0000
0100
0000
0001
0000
1000
0000
0001
0000
0010
1000
0000
0000
0010
0000
,
0100
0000
0010
0001
0000
0001
0100
0000
1000
0000
0100
0000
0001
0000
0010
0100
,
0010
0000
0000
0000
1001
0000
0000
0000
0001
0100
0010
1000
0001
0010
0000
0200
,
0000
0000
1300
0000
0001
0100
0001
0100
0010
0000
0000
0010
1000
0000
0001
0000
,
1000
0000
0100
0010
0000
0100
1000
0000
0001
0000
0100
0010
0000
0010
1000
0000
,
0100
0000
0001
0100
0000
0010
0000
0100
1000
0001
1000
0001
0100
0000
0010
0000
,
1000
0000
0100
0010
0000
0100
0010
0000
1002
0000
0000
0000
0103
0000
0001
0000
,
2001
0000
0000
0100
0000
0100
3000
0100
0000
1000
0001
0000
1000
0000
0010
0000
,
0100
0001
0000
0100
0001
0000
1000
0000
0100
0010
0000
0100
0010
0000
0001
0000
,
1000
0010
0000
1000
0010
0000
0100
0000
0001
1000
0000
0001
1000
0000
0100
0000
,
0010
0001
0000
0010
0001
0000
0100
0000
0010
1000
0000
1000
0001
0000
0000
0010
,
0001
1000
0000
0001
0000
0100
0000
0010
2000
0000
0000
0000
3001
0000
0100
0000
,
0010
0000
1000
0001
1000
0000
0100
0000
0010
0000
0100
0002
0000
0000
0103
0000
,
0010
0000
0001
1000
0001
0000
0100
0000
0010
0000
0100
2000
0000
0000
3100
0000
,
0010
0000
1000
0001
1000
0000
0010
0000
0100
0000
0010
0002
0000
0000
0013
0000
,
0100
0000
0001
1000
0001
0000
0010
0000
0100
0000
0010
2000
0000
0000
3010
0000
,
0001
0000
1000
0010
0000
0010
0100
0000
0001
0000
1000
0100
0000
0000
0001
0000
,
0100
0000
1000
0010
0000
0010
0100
0000
0001
0000
0010
0100
0000
0000
0010
0000
,
0001
0000
1000
0001
0000
0001
0100
0000
0010
0000
1000
0001
2000
0000
0000
0000
,
3100
0000
0000
1100
0000
0000
0101
0000
1001
0000
0000
0000
1000
0000
0010
0000
,
0100
0000
0010
0000
1000
0010
0000
0100
0000
0000
0001
0000
0010
0000
0100
0000
,
0010
0000
0001
0000
0010
0100
0000
1000
0000
0000
0001
0000
0100
0000
0010
0000
,
0100
0000
1000
0000
0100
0001
0000
0100
0000
0000
0010
0000
1000
0000
0100
0000
,
0010
0000
0100
0000
1000
0001
0000
0100
0000
0000
0001
0000
1000
0000
0100
0000
,
1000
0001
1000
0000
0010
0000
0100
0001
0000
0100
0001
1000
0001
0000
0100
0000
,
0001
1000
0001
0000
0010
0000
0100
1000
0000
0100
1000
0001
1000
0000
0001
0000
,
0100
0010
0100
0000
0001
0000
1000
0100
0000
0010
0001
0000
0100
0000
0000
0000
,
0100
0000
0100
0000
1001
0000
0001
0010
,
1000
0000
0010
0000
0001
0000
0100
0000
1000
0000
0100
0010
0000
0100
0001
0000
,
0010
0000
0100
0010
0000
0100
0001
0000
0100
0000
1000
0001
0000
1000
0010
0000
,
0001
0000
0010
0000
1000
0000
0100
0000
0001
0000
0100
0010
0000
0100
1000
0000
,
0010
0000
0100
0010
0000
0001
0010
0000
1000
0000
0100
0010
0000
0001
0100
0000
,
1000
0000
0001
0000
0010
0000
1000
0000
0100
0000
0010
0001
0000
1000
0001
0000
,
0010
0000
0001
0100
0000
0010
0100
0000
1000
0000
0100
0001
0000
1000
0100
0000
,
0001
0000
1000
0000
0010
0000
0001
0000
0100
0000
0010
1000
0000
0100
0010
0000
,
0001
0000
0001
0000
0010
0001
0100
0010
1000
0000
0000
0000
1001
0000
0000
0000
,
0001
0100
0000
0001
1000
0000
0100
0000
,
0010
0000
0001
0000
0000
0000
1000
0000
0010
0000
0000
0000
0100
0010
0100
0010
,
0000
1000
0000
1000
0001
0010
0000
0010
0001
1000
0001
1000
0001
0000
0100
0010
,
1000
0000
0100
0000
0010
0000
0100
0000
1001
0000
0000
0000
0001
0000
1000
0010
,
1000
0000
0001
0010
0000
0001
1000
0000
0010
0000
0100
0000
0001
0000
0010
0100
,
0010
0000
1000
0000
0010
0000
0001
0010
0001
0000
1000
0000
0001
0000
0100
0010
,
0100
0000
1000
0000
0100
0000
0001
0100
0001
0000
1000
0000
0001
1000
0100
0000
,
1000
0001
0000
1001
0000
1001
0000
0001
0010
0000
0100
0000
1000
0000
0010
0000
,
0100
0001
0100
0001
0000
1000
0100
0000
0010
0000
0001
0000
0100
0010
0100
0000
,
0010
1000
0001
1000
0000
0000
0000
2001
0000
0000
0000
0000
3001
0010
0001
0010
,
0001
0000
1000
0010
0000
0010
0100
0000
0001
0000
0010
0000
0001
1000
0001
0000
,
0100
0000
1000
0000
0000
1000
0100
0000
0001
0100
0001
0000
1000
0000
0001
0010
,
0001
0000
1000
0010
0000
1000
0001
0000
0010
0000
0100
0000
1000
0000
0010
0100
,
0010
0000
0001
0000
0010
0000
1000
0010
1000
0000
1000
0001
1000
0000
0100
0010
,
0100
0000
0001
0000
0100
0000
1000
0100
1000
0000
0001
0000
1000
0000
0010
0000
,
0100
0010
0100
0010
0000
0000
2002
0000
0000
0000
3003
0000
0001
0000
0010
0000
,
0100
1000
0100
1000
0000
0001
0100
0000
0010
0000
1000
0000
0100
0010
0100
0000
,
0010
0001
1000
0001
0000
0000
0000
1002
0000
0000
0013
0001
1000
0010
1000
0010
,
1000
0000
0001
0010
0000
0010
0100
0000
1000
0000
0010
0000
1000
0001
1000
0000
,
0100
0000
0010
0000
0001
0100
0010
0000
0120
0000
0000
0000
1030
0000
0010
0000
,
0100
0000
0001
1000
0000
0000
1000
0100
1000
0000
0001
0000
0100
0000
1000
0000
,
0100
0000
0001
0010
0000
0000
0010
0001
0010
0000
0100
0000
1000
0001
1000
0001
,
0000
0000
0101
0000
0000
0000
1010
0000
0000
1000
0000
0001
0010
0100
1000
0001
,
0000
0000
1001
0000
0000
0000
0110
0000
0000
0002
0000
2000
0000
0000
0000
0000
,
0000
0000
0000
3003
;

//---------------dance-single - ----------------
#NOTES:
     dance-single:
     :
     Medium:
     11:
     0.542099,0.496295,0.187603,0.102329,0.328305,445.000000,423.000000,22.000000,12.000000,0.000000,0.000000,0.542099,0.496295,0.187603,0.102329,0.328305,445.000000,423.000000,22.000000,12.000000,0.000000,0.000000:
0000
0000
0000
0000
,
0000
0000
0000
0000
,
0000
0000
0000
0000
,
0000
0000
0000
0000
,
0000
0000
0000
0000
1000
0000
0000
0100
0000
0000
0010
0000
0000
0000
0100
0000
,
1000
0000
0001
0000
0100
0000
0000
0010
0000
0000
0100
0000
0001
0000
1000
0000
,
0001
0000
0000
0000
0010
0000
0000
0100
0000
0000
0010
0000
0000
0000
0001
0000
,
1000
0000
0001
0000
1000
0001
0000
0200
0300
0000
0000
0000
0001
0000
0000
0101
,
0000
0000
0001
0000
1000
0000
0000
0000
0100
0000
0000
0010
0000
0000
0001
0000
,
0100
0000
0000
1000
0000
0000
1000
0000
0100
0000
0001
0000
0010
0000
0100
0000
,
0010
0000
0000
0000
1001
0000
0000
0000
1000
0000
0000
0010
0000
0100
0000
0002
,
0000
0000
0013
0000
0001
0000
0100
0000
0010
0000
0000
0000
1000
0000
0000
1100
,
0000
0000
1000
0000
0001
0000
0000
0000
0100
0000
0000
0010
0000
0000
1000
0000
,
0100
0000
0000
0001
0000
0000
0001
0000
0100
0000
1000
0000
0010
0000
0100
0000
,
0010
0000
0000
0000
1001
0000
0000
0000
0001
0000
0000
0010
0000
0100
0000
2000
,
0000
3010
0100
0001
1001
0000
0001
0100
,
0010
0000
0000
1000
0000
0000
0100
0000
0010
0000
0000
0001
0000
0000
1000
0000
,
0010
0000
0000
0100
0000
0000
0001
0000
0010
0000
0000
0001
0000
0000
0100
0000
,
1000
0000
0000
0100
0000
0000
0010
0000
2010
0000
0000
0000
3100
0000
0010
0000
,
0012
0000
0000
1000
0000
1003
0000
0001
0000
0000
1000
0000
0100
0000
1000
0000
,
0010
0000
0100
0001
0010
0000
0001
0100
,
1000
0000
0001
0010
1000
0000
0010
1000
,
0100
0000
0010
0001
0100
0000
0001
1000
,
0100
0000
0000
0010
0000
0001
0000
0100
0020
0000
0000
0000
1030
0000
0010
0000
,
0100
0000
0010
0000
1000
0000
0001
0000
0010
0000
0000
0100
0000
0000
0010
0000
,
0100
0000
0010
0000
0001
0000
1000
0000
0010
0000
0000
0100
0000
0000
0010
0000
,
1000
0000
0001
0000
0010
0000
0100
0000
1000
0000
0000
0001
0000
0000
0100
0000
,
0010
0000
1000
0000
0100
0000
0010
0000
0001
0000
0000
1000
0000
0000
0001
0000
,
0100
0000
0000
0010
0000
0000
0100
0000
0001
0000
0000
0010
0000
0000
1000
0000
,
0010
0000
0000
0001
0000
0000
0100
0000
1000
0000
0000
0100
0000
0000
0010
0000
,
1000
0000
0000
0100
0000
0000
0010
0000
0001
0000
0000
0100
0000
0000
0010
0000
,
0010
0000
0000
1000
0000
0000
0001
0000
1000
0000
0000
0000
0001
0000
0000
0000
,
0100
0000
0000
0000
0010
0000
0000
1000
0000
0000
0001
0000
1000
0000
0000
0000
,
0100
0000
0000
0000
0010
0000
0000
0001
0000
0000
1000
0000
0010
0000
0000
0000
,
0100
0000
0000
0000
0010
0000
0000
1000
0000
0000
0100
0000
0010
0000
0000
0000
,
0100
0000
0000
0000
0010
0000
0000
0001
0000
0000
0100
0000
0010
0000
1000
0000
,
0001
0000
1000
0000
0100
0000
0000
0010
0000
0000
0100
0000
1000
0000
0010
0000
,
0100
0000
0010
0000
0001
0000
0000
0010
0000
0000
0100
0000
0010
0000
1000
0000
,
0100
0000
0010
0000
0001
0000
0000
1000
0000
0000
0001
0000
0100
0000
0000
0000
,
0100
0000
0100
0000
1001
0000
1000
0010
,
0100
0000
0001
0000
1000
0000
0100
0000
0010
0000
0000
0001
0000
0000
0100
0000
,
0010
0000
0000
1000
0000
0000
0100
0000
0010
0000
0000
0001
0000
0000
1000
0000
,
0010
0000
0100
0000
0001
0000
0010
0000
0001
0000
0000
0100
0000
0000
0010
0000
,
1000
0000
0000
0100
0000
0000
0001
0000
0100
0000
0000
1000
0000
0000
0001
0000
,
0010
0000
0001
0000
0100
0000
1000
0000
0100
0000
0000
0001
0000
0000
0100
0000
,
0010
0000
0000
1000
0000
0000
0100
0000
0010
0000
0000
0001
0000
0000
1000
0000
,
0010
0000
0001
0000
0010
0000
1000
0000
0100
0000
0000
0010
0000
0000
0100
0000
,
1000
0001
0100
0000
0110
0000
1001
0000
,
1000
0100
0000
1000
0001
0000
1000
0000
,
0010
0000
0100
0000
0000
0000
0001
0000
1000
0000
0000
0000
0001
0000
0000
0010
,
0000
0100
1000
0010
0100
0010
0001
0010
,
1000
0100
0010
0100
1001
0000
0001
0100
,
0010
0000
0000
0100
0000
0000
0001
0000
1000
0000
0001
0000
0010
0000
0100
0000
,
0010
1000
0000
1000
0010
0001
0100
0010
,
0100
1000
0000
1000
0100
0001
0010
0100
,
0010
0000
0000
0100
0000
0100
0000
0000
0010
0000
0001
0000
1000
0000
0010
0000
,
0100
0000
0000
0010
0000
0000
1000
0000
0100
0000
0010
0000
0001
0000
0100
0000
,
0010
0000
0000
1001
0000
0000
0000
1002
0000
0000
0000
0000
0013
0000
0001
0000
,
0100
0000
0000
0010
0000
0000
1000
0000
0100
0000
0010
0000
0100
0000
1000
0000
,
0001
2001
0000
3010
1000
0001
1000
0100
,
0010
0000
0000
0100
0000
0000
1000
0000
0001
0000
1000
0000
0010
0000
0100
0000
,
0010
0001
0000
0001
0010
1000
0100
0010
,
0100
0001
0000
0001
0100
1000
0010
0100
,
0001
0000
0000
1000
0000
0000
2001
0000
0000
0000
0000
0000
3001
0000
0010
0000
,
0100
0000
0000
0010
0000
0000
0001
0000
0100
0000
0010
0000
1000
0000
0100
0000
,
0010
0000
0000
1001
0000
0000
0000
1002
0000
0000
1003
0000
0010
0000
1000
0000
,
0100
0000
0000
0010
0000
0000
0001
0000
0100
0000
0010
0000
0100
0000
0001
0000
,
0010
0000
0100
0010
1001
0000
0001
0100
,
0010
0000
0000
1000
0000
0000
0010
0000
1000
0000
0100
0000
0010
0000
0001
0000
,
0100
0000
0000
0010
0000
0000
1000
0000
0001
0000
0010
0000
0100
0000
0000
1000
,
0000
0000
1001
0000
0000
0000
0101
0000
0000
0100
0000
0000
0010
0000
0000
1000
,
0000
0000
1001
0000
0000
0000
1100
0000
0000
2000
0000
0002
0000
0000
0000
0000
,
0000
0000
0000
3003
;

//---------------dance-single - ----------------
#NOTES:
     dance-single:
     :
     Easy:
     8:
     0.433679,0.465276,0.170548,0.127911,0.051164,356.000000,336.000000,20.000000,15.000000,0.000000,0.000000,0.433679,0.465276,0.170548,0.127911,0.051164,356.000000,336.000000,20.000000,15.000000,0.000000,0.000000:
0000
0000
0000
0000
,
0000
0000
0000
0000
,
0000
0000
0000
0000
,
0000
0000
0000
0000
,
0000
0001
0010
0100
,
0010
0001
0100
0010
,
1000
0100
0010
0100
,
1000
0000
0001
0000
1000
0000
0000
0002
0003
0000
0000
0000
1000
0000
0000
0000
,
1100
0000
0101
0000
0001
0010
0001
0000
,
1000
0000
0001
0100
0010
1000
0001
0000
,
0110
0000
1001
0000
1000
0100
0010
0000
,
0002
0000
1003
0001
0100
0000
0001
0000
,
0101
0000
1100
0000
1000
0010
1000
0000
,
0001
0000
1000
0100
0010
0001
1000
0000
,
0110
0000
0000
0000
1001
0000
0000
0000
0001
0000
0100
0000
0010
0000
0000
2000
,
0000
3001
1001
1000
,
0001
0010
0001
0000
0001
0100
0001
0000
,
1000
0010
1000
0000
1000
0100
1000
0000
,
0010
0100
0010
0000
2002
0000
3003
0000
,
0220
0000
0000
0000
0330
0000
1000
0001
,
0010
0000
0001
1000
0010
0000
0100
0010
,
1000
0000
0100
0010
0001
0000
1000
0001
,
0100
0000
0001
1000
0100
0000
1000
0000
,
0010
0000
0100
0001
2000
0000
3001
0000
,
0100
0001
0100
0001
1000
0000
0010
0000
,
1000
0100
1000
0100
0010
0000
0001
0000
,
1000
0010
1000
0010
0100
0000
0001
0000
,
0010
0001
0010
0001
1000
0000
0001
0000
,
1000
0010
0100
0000
0010
0100
0001
0000
,
0010
0100
1000
0000
0100
0010
0001
0000
,
1000
0001
0100
0000
0001
1000
0100
0000
,
1000
0000
0000
0001
0000
0000
1000
0000
0001
0000
0000
0000
1000
0000
0000
0000
,
1000
0100
0010
0100
,
0100
0001
0100
0010
,
0010
0100
1000
0010
,
0010
0000
0100
0000
0001
0000
1000
0010
,
0100
0000
0010
0000
1000
0000
0001
0010
,
0100
0000
0010
0000
0001
0000
0100
0010
,
1000
0001
0010
0100
,
0100
0100
1001
0001
,
0100
0010
0100
0010
1000
0000
0001
0000
,
1000
0100
0010
0000
0010
0100
1000
0000
,
0010
0100
0010
0100
0001
0000
1000
0000
,
0001
0010
0100
0000
1000
0010
0100
0000
,
0001
0010
0001
0010
0100
0000
1000
0000
,
0001
0100
0010
0000
0010
0100
0001
0000
,
1000
0100
1000
0100
0010
0000
0001
0000
,
0100
0010
1000
0001
0010
0000
0001
0000
,
0100
1000
0000
1000
,
0010
0001
0000
0200
,
0000
0000
0310
0000
1000
0000
0100
0010
,
0100
0010
1001
0001
,
0100
0010
1000
0000
0001
0000
1000
0000
,
0010
0001
0000
0001
0010
0000
1000
0000
,
0100
0001
0000
0001
0100
0000
1000
0000
,
0001
0000
0000
1000
0000
0000
0000
0000
0001
0000
0000
0000
1000
0000
0000
0000
,
0010
0100
0001
0000
1000
0000
0100
0010
,
0001
0000
0000
1001
0000
0000
0000
2001
0000
0000
0000
0000
3010
0000
0000
0000
,
1000
0100
0010
0000
0001
0000
0100
0010
,
1000
0002
0000
0000
1003
0001
1000
0000
,
0100
0010
0001
0000
1000
0000
0001
0000
,
0010
1000
0000
1000
0010
0000
0001
0000
,
0100
1000
0000
1000
0100
0000
0001
0000
,
1000
0000
0000
0001
0000
0000
0020
0000
0000
0000
0000
0000
0031
0000
0000
0000
,
0010
0100
1000
0000
0001
0000
0100
0010
,
1000
0000
0000
1001
0000
0000
0000
1002
0000
0000
0000
0000
0013
0000
0000
0000
,
0001
0100
0010
0000
1000
0000
0100
0010
,
0001
0000
0100
0010
1000
0000
0001
0000
,
0010
1000
0000
1000
,
0100
0000
0000
0000
0001
0000
0000
0000
0000
0000
0000
0000
1000
0000
0000
0100
,
0000
0000
1000
0000
0000
0000
1001
0000
0000
0000
0000
0000
0001
0000
0000
0100
,
0000
0000
0001
0000
0000
0000
1001
0000
0000
0000
0000
0220
0000
0000
0000
0000
,
0000
0000
0000
0330
;

//---------------dance-single - ----------------
#NOTES:
     dance-single:
     :
     Beginner:
     5:
     0.300896,0.341203,0.102329,0.119384,0.025582,247.000000,235.000000,12.000000,14.000000,0.000000,0.000000,0.300896,0.341203,0.102329,0.119384,0.025582,247.000000,235.000000,12.000000,14.000000,0.000000,0.000000:
0000
0000
0000
0000
,
0000
0000
0000
0000
,
0000
0000
0000
0000
,
0000
0000
0000
0000
,
0000
1000
0010
0000
,
0010
1000
0100
0000
,
0010
0001
0100
0000
,
0001
0000
0000
0000
1000
0000
0000
0002
0003
0000
0000
0000
1000
0000
0000
0000
,
0010
1000
0001
0010
,
0000
0100
0100
0010
,
0001
0100
0010
1000
,
0000
0010
0100
0001
,
0010
0001
1000
0010
,
0000
0100
0100
0010
,
1000
0100
0010
0001
,
0000
0100
0001
1000
,
0100
0100
0010
0001
,
0100
0100
0010
1000
,
0100
0010
2002
3003
,
0220
0000
0330
0001
,
0100
0001
0100
1000
,
0100
1000
0100
0001
,
0010
0001
0010
0100
,
0000
0100
1001
1000
,
0001
0001
0100
0010
,
1000
1000
0100
0010
,
0100
0100
1000
0001
,
0100
0100
0001
1000
,
0100
0010
0100
1000
,
0010
0100
0001
0100
,
0010
1000
0001
0010
,
0000
0110
1001
1000
,
0000
0001
0000
0100
,
0000
0010
0000
1000
,
0000
0001
0000
0010
,
0000
0100
0000
0010
,
0001
0100
0000
1000
,
0100
0001
0000
1000
,
0100
0010
0000
0100
,
0100
0100
1001
0001
,
0100
0001
0100
0010
,
1000
0001
1000
0100
,
0010
0100
0010
0001
,
0100
1000
0100
0001
,
0010
0001
0010
1000
,
0010
0100
0010
0001
,
0100
0001
0100
1000
,
0100
0010
1000
0001
,
0010
0100
0000
1000
,
0010
0100
0000
0002
,
0000
1003
0000
0100
,
0010
0100
1001
1000
,
0010
0100
0001
1000
,
0010
0001
0010
1000
,
0100
0001
0100
2000
,
3000
0001
0100
0010
,
1000
0001
0010
0001
,
1000
0000
0000
0001
0000
0000
0000
2001
0000
0000
0000
0000
3010
0000
0000
0000
,
1000
0100
0010
0100
,
2002
3003
1000
0001
,
0010
0100
1000
0001
,
0010
1000
0010
0001
,
0100
1000
0100
0002
,
0000
0003
0000
1001
0000
0000
0001
0000
,
0010
0100
1000
0010
,
1000
0000
0000
0001
0000
0000
0000
1002
0000
0000
0000
0000
0013
0000
0000
0000
,
0001
0100
0010
1000
,
0200
0300
1001
0001
,
0100
0010
0000
1000
,
0100
0010
0000
0001
,
0000
0001
0000
0001
0000
0000
1000
0000
,
0000
0000
1000
0000
0000
0000
1000
0000
0000
0000
0000
0020
0000
0000
0000
0000
,
0000
0000
0000
0030
;
