#VERSION:0.83;
#TITLE:licca;
#SUBTITLE:;
#ARTIST:Qrispy Joybox;
#TITLETRANSLIT:;
#SUBTITLETRANSLIT:;
#ARTISTTRANSLIT:;
#GENRE:Hard Lullaby;
#ORIGIN:;
#CREDIT:;
#BANNER:licca.png;
#BACKGROUND:licca-bg.png;
#PREVIEWVID:;
#JACKET:licca-jacket.png;
#CDIMAGE:;
#DISCIMAGE:;
#LYRICSPATH:;
#CDTITLE:cdtitle.png;
#MUSIC:licca.ogg;
#OFFSET:-0.706220;
#SAMPLESTART:59.175602;
#SAMPLELENGTH:19.591839;
#SELECTABLE:YES;
#BPMS:0.000=196.000,
155.500=49.000,
163.000=98.000,
164.000=196.000;
#STOPS:155.500=0.765,
164.000=0.306;
#DELAYS:;
#WARPS:;
#TIMESIGNATURES:0.000=4=4;
#TICKCOUNTS:0.000=4;
#COMBOS:0.000=1;
#SPEEDS:0.000=1.000=0.000=0;
#SCROLLS:0.000=1.000;
#FAKES:;
#LABELS:0.000=Song Start;
#BGCHANGES:;
#KEYSOUNDS:;
#ATTACKS:
;

//---------------dance-single - ----------------
#NOTEDATA:;
#CHARTNAME:;
#STEPSTYPE:dance-single;
#DESCRIPTION:;
#CHARTSTYLE:;
#DIFFICULTY:Challenge;
#METER:13;
#RADARVALUES:0.660663,0.683538,0.592672,0.466954,0.094289,515.000000,449.000000,66.000000,52.000000,0.000000,0.000000,0.000000,0.000000,0.000000,0.660663,0.683538,0.592672,0.466954,0.094289,515.000000,449.000000,66.000000,52.000000,0.000000,0.000000,0.000000,0.000000,0.000000;
#CREDIT:;
#OFFSET:-0.706220;
#BPMS:0.000000=196.000000
,155.500000=49.000000
,163.000000=98.000000
,164.000000=196.000000
;
#STOPS:155.500000=0.765305
,164.000000=0.306122
;
#DELAYS:;
#WARPS:;
#TIMESIGNATURES:0.000000=4=4
;
#TICKCOUNTS:0.000000=4
;
#COMBOS:0.000000=1
;
#SPEEDS:0.000000=1.000000=0.000000=0
;
#SCROLLS:0.000000=1.000000
;
#FAKES:;
#LABELS:0.000000=Song Start
;
#NOTES:
0000
0000
0000
0000
,
0000
0000
0000
0000
,
0000
0000
0000
0000
,
0000
0000
0000
0000
,
1001
0000
1000
0100
1000
0010
0100
0001
,
0000
0001
0000
1000
0100
0010
0001
0000
,
1001
0000
0001
0100
0010
1000
0100
1000
,
0000
1000
0000
0001
0100
0010
1000
0000
,
2002
0000
0000
3003
,
0202
0000
0000
0303
,
2002
0000
0000
3003
,
2200
0000
0000
3300
0000
0000
0100
0000
0010
0000
0100
0000
,
2002
0000
0000
3003
,
2020
0000
0000
3030
,
2002
0000
0000
3003
,
0022
0000
0000
0033
0000
0000
1000
0001
1000
0001
1000
0001
,
1000
0000
1001
0000
0001
1001
0000
1001
,
0000
0000
1000
0100
1000
0000
0100
0000
0010
0000
0001
0000
0100
0000
0000
0000
,
0110
0000
0110
0000
0010
0110
0000
0110
,
0000
0000
0010
1000
0010
0000
0100
0000
0002
0000
0000
0000
0013
0000
0000
0000
,
1100
0000
1100
0000
0100
1100
0000
1100
,
0000
0000
1000
0001
1000
0000
0010
0000
0100
0000
0001
0000
0010
0000
0000
0000
,
1001
0000
0011
0000
1001
1010
0000
1001
,
0000
0000
0000
2000
0000
0000
0000
0000
0000
0000
0000
0000
3001
0000
0010
0000
0001
0000
1000
0000
0010
0000
1000
0000
,
0001
0100
0010
0100
0001
0000
1001
0000
,
1000
0100
0010
0100
1000
0000
1000
0001
,
1000
0010
0100
0010
1000
0000
1001
0000
,
0001
0000
0000
0010
0000
0000
0100
0000
0000
0010
0000
0000
0002
0000
0000
0000
0000
0000
1003
0000
0010
0000
0100
0000
,
0001
0100
1000
0100
0001
0000
0101
0000
,
0001
0010
1000
0010
0001
0000
1000
0001
,
1000
0010
0001
0010
1000
0000
1001
0000
,
0001
0010
1000
0010
0002
0000
0003
0000
,
1001
0000
1001
0000
1000
1001
0000
1001
,
0000
0000
0001
0100
0001
0000
0100
0000
0010
0000
1000
0000
0100
0000
0000
0000
,
0110
0000
0110
0000
0010
0110
0000
0110
,
0000
0000
0100
0010
0100
0000
1000
0000
0002
0000
0000
0000
1003
0000
0000
0000
,
1010
0000
1010
0000
0010
1010
0000
1010
,
0000
0000
1000
0010
1000
0000
0001
0000
0010
0000
0001
0000
0100
0000
0000
0000
,
1001
0000
0101
0000
1001
1100
0000
1001
,
2001
3002
2003
3002
,
2003
3020
0032
0203
2300
0000
0002
0000
,
3003
0000
1000
0100
0010
0100
1000
0100
,
0010
0100
1000
0010
0001
0010
2000
0000
,
3100
0010
0001
0100
0010
0100
0001
0100
,
0010
0100
1000
0100
0001
0010
0200
0000
,
0310
0001
1000
0010
0100
0010
1000
0010
,
0100
0010
1000
0100
0001
0100
0010
0001
,
0100
0000
0000
0000
0000
0000
0000
0000
0010
0000
0000
0000
0000
0000
0000
0000
0000
0000
0000
0000
0000
0000
0000
0000
1000
0000
0000
0000
0000
0000
0000
0000
0001
0000
0000
0000
0000
0000
0000
0000
1000
0000
0000
0000
0000
0000
0000
0000
0020
0000
0000
0000
0000
0000
0000
0000
0000
0000
0000
0000
0000
0000
0000
0030
,
0020
0000
0031
0010
1000
0100
0002
0000
,
0103
1000
0001
0100
0010
0100
0001
0100
,
0010
0100
0001
0010
1000
0010
0002
0000
,
0103
0010
1000
0100
0010
0100
1000
0100
,
0010
0100
0001
0100
0010
0001
0200
0000
,
0310
1000
0001
0010
0100
0010
0001
0010
,
0100
0010
0001
0010
0100
1000
0010
0001
,
0010
0000
0000
0000
0000
0000
0000
0000
1000
0000
0000
0000
0000
0000
0000
0000
0000
0000
0000
0000
0000
0000
0000
0000
0001
0000
0000
0000
0000
0000
0000
0000
1000
0000
0000
0000
0000
0000
0000
0000
0001
0000
0000
0000
0000
0000
0000
0000
0020
0000
0000
0000
0000
0000
0000
0000
0000
0000
0000
0000
0000
0000
0000
0030
,
0020
0000
1030
0010
0001
0100
2000
0000
,
3100
0001
1000
0100
0010
0100
1000
0100
,
0010
0100
2000
0000
0010
0000
3001
0000
,
0001
0100
0010
0100
0001
0100
0010
0100
,
1000
0100
0002
0000
0010
0000
1003
0000
,
1000
0100
0010
0100
1000
0100
0010
0100
,
1000
0100
0010
0100
1000
0100
0010
0001
,
0100
0000
0000
0000
0000
0000
0000
0000
1000
0000
0000
0000
0000
0000
0000
0000
0000
0000
0000
0000
0000
0000
0000
0000
0100
0000
0000
0000
0000
0000
0000
0000
0010
0000
0000
0000
0000
0000
0000
0000
0100
0000
0000
0000
0000
0000
0000
0000
0002
0000
0000
0000
0000
0000
0000
0000
0000
0000
0000
0000
0000
0000
0000
0003
,
0001
0010
1000
0010
0001
0100
2000
0000
,
3100
0001
0010
0100
1000
0100
0010
0100
,
1000
0000
0000
0000
0000
0000
0000
0000
0100
0000
0000
0000
0000
0000
0000
0000
0001
0000
0000
0000
0000
0000
0000
0000
0100
0000
0000
0000
0000
0000
0000
0000
1000
0000
0000
0000
0000
0000
0000
0000
0010
0000
0000
0000
0000
0000
0000
0000
0200
0000
0000
0000
0000
0000
0000
0000
0000
0000
0000
0000
0000
0000
0000
0300
,
0200
0000
0310
0100
0001
0100
0010
0100
,
0001
0100
0010
0001
0010
1000
0200
0000
,
0310
0000
0001
1000
0010
1000
0001
1000
,
0010
1000
0001
1000
0010
1000
0100
0010
,
0001
2002
0000
0000
,
3003
0000
0001
0100
0010
1000
0200
0000
,
0300
0000
1001
0000
1001
0000
1000
1001
,
0000
0000
1001
0000
0000
0000
0001
0100
0001
0000
0100
0000
0010
0000
1000
0000
,
0100
0000
0110
0000
0110
0000
0010
0110
,
0000
0000
0110
0000
0000
0000
0010
0001
0010
0000
0100
0000
2000
0000
0000
0000
,
3010
0000
0101
0000
0101
0000
0100
0101
,
0000
0000
0101
0000
0000
0000
0001
1000
0001
0000
0010
0000
0100
0000
1000
0000
,
0010
0000
0101
0000
1001
0000
1100
1001
,
0000
0110
0000
0000
0000
0000
0000
0000
;

//---------------dance-single - ----------------
#NOTEDATA:;
#CHARTNAME:;
#STEPSTYPE:dance-single;
#DESCRIPTION:;
#CHARTSTYLE:;
#DIFFICULTY:Hard;
#METER:10;
#RADARVALUES:0.477217,0.539635,0.610632,0.386135,0.000000,372.000000,304.000000,68.000000,43.000000,0.000000,0.000000,0.000000,0.000000,0.000000,0.477217,0.539635,0.610632,0.386135,0.000000,372.000000,304.000000,68.000000,43.000000,0.000000,0.000000,0.000000,0.000000,0.000000;
#CREDIT:;
#OFFSET:-0.706220;
#BPMS:0.000000=196.000000
,155.500000=49.000000
,163.000000=98.000000
,164.000000=196.000000
;
#STOPS:155.500000=0.765305
,164.000000=0.306122
;
#DELAYS:;
#WARPS:;
#TIMESIGNATURES:0.000000=4=4
;
#TICKCOUNTS:0.000000=4
;
#COMBOS:0.000000=1
;
#SPEEDS:0.000000=1.000000=0.000000=0
;
#SCROLLS:0.000000=1.000000
;
#FAKES:;
#LABELS:0.000000=Song Start
;
#NOTES:
0000
0000
0000
0000
,
0000
0000
0000
0000
,
0000
0000
0000
0000
,
0000
0000
0000
0000
,
1001
0000
1000
0000
0010
0000
0100
0001
,
0000
0001
0100
0000
0010
0000
1000
0000
,
1001
0000
0001
0000
0010
0000
0100
1000
,
0000
1000
0100
0000
0010
0000
0001
0000
,
2002
0000
0000
3003
,
0202
0000
0000
0303
,
2002
0000
0000
3003
,
2100
0000
3001
0000
,
2002
0000
0000
3003
,
2020
0000
0000
3030
,
2002
0000
0000
3003
,
0012
0000
1003
0010
,
1001
0000
1001
0000
0000
1001
0000
1001
,
0000
0000
1000
0100
0010
0000
0001
0000
,
1001
0000
1001
0000
0000
1001
0000
1001
,
0000
0000
0001
0100
0010
0000
0000
0000
,
1010
0000
1010
0000
0000
1010
0000
1010
,
0000
0000
1000
0001
0010
0000
0001
0000
,
0011
0000
1100
0000
0000
1010
0000
0101
,
0000
0002
0000
0000
1003
0000
0010
0000
,
1010
0100
0001
0101
,
1000
0000
0100
0000
0010
0100
0010
0000
,
0011
0100
1000
1100
,
0001
0100
0020
0030
,
1010
1000
0100
0011
,
0001
0000
0100
0000
0001
1000
0001
0000
,
0011
0100
1000
1010
,
0100
0001
0020
0030
,
1001
0000
1001
0000
0000
1001
0000
1001
,
0000
0000
0001
0100
0010
0000
1000
0000
,
1001
0000
1001
0000
0000
1001
0000
1001
,
0000
0000
1000
0100
0010
0000
0000
0000
,
0011
0000
0011
0000
0000
0011
0000
0011
,
0000
0000
0001
1000
0010
0000
1000
0000
,
1010
0000
0101
0000
0000
0011
0000
1100
,
2001
3002
2003
3002
,
2003
3020
0230
0302
2003
0000
0002
0000
,
3003
1000
1000
0001
,
0001
0000
1000
0100
0010
0100
2000
0000
,
3100
1000
0001
0000
0001
0000
1000
0000
,
1000
0000
0010
1000
0010
0100
0002
0000
,
0013
0001
1000
0000
1000
0000
0001
0000
,
0001
0000
1000
0100
0010
0000
0001
0100
,
0010
1000
0001
0001
,
1000
0000
0010
0100
0010
0100
0002
0000
,
0003
0001
0001
1000
,
1000
0000
0001
0010
0100
0010
0002
0000
,
0103
0001
1000
0000
1000
0000
0001
0000
,
0001
0000
0010
0100
0010
0001
2000
0000
,
3010
1000
0001
0000
0001
0000
1000
0000
,
1000
0000
0001
0000
0001
0000
1000
0100
,
0010
0001
2000
0000
0000
0000
3002
0000
,
0000
0000
0103
0010
0100
0010
2000
0000
,
3000
1000
0100
0010
,
0100
2000
0010
3001
,
0001
0100
0010
1000
,
0001
0020
1000
0031
,
0001
1000
0010
1000
,
0001
1000
0100
0010
,
0001
1000
0001
0000
0100
0000
0100
0000
,
0001
0000
1000
0100
1000
0100
0020
0000
,
0030
0001
0001
1000
,
1000
0000
0010
0100
0001
0100
0020
0000
,
1030
0001
0001
1000
,
1000
0000
0100
0010
0001
1000
0200
0000
,
0310
0001
0001
1000
,
1000
0000
0001
0000
0001
0000
0100
0010
,
1000
2002
0000
0000
,
3003
0000
0001
0100
0010
1000
0002
0000
,
0003
0000
1001
0000
1001
0000
0000
1001
,
0000
1001
0000
0000
1000
0000
0010
0100
,
0001
0000
1001
0000
1001
0000
0000
1001
,
0000
1001
0000
0000
0001
1000
0100
0000
,
0000
0000
1100
0000
1100
0000
0000
1100
,
0000
1100
0000
0000
1000
0100
0010
0000
,
0001
0000
0101
0000
1010
0000
0000
0110
,
0000
1001
0000
0000
0000
0000
0000
0000
;

//---------------dance-single - ----------------
#NOTEDATA:;
#CHARTNAME:;
#STEPSTYPE:dance-single;
#DESCRIPTION:;
#CHARTSTYLE:;
#DIFFICULTY:Medium;
#METER:8;
#RADARVALUES:0.413075,0.479357,0.556753,0.377155,0.000000,322.000000,260.000000,62.000000,42.000000,0.000000,0.000000,0.000000,0.000000,0.000000,0.413075,0.479357,0.556753,0.377155,0.000000,322.000000,260.000000,62.000000,42.000000,0.000000,0.000000,0.000000,0.000000,0.000000;
#CREDIT:;
#OFFSET:-0.706220;
#BPMS:0.000000=196.000000
,155.500000=98.000000
,172.000000=196.000000
;
#STOPS:155.500000=0.459183
,172.000000=0.306122
;
#DELAYS:;
#WARPS:;
#TIMESIGNATURES:0.000000=4=4
;
#TICKCOUNTS:0.000000=4
;
#COMBOS:0.000000=1
;
#SPEEDS:0.000000=1.000000=0.000000=0
;
#SCROLLS:0.000000=1.000000
,155.500000=0.000000
,156.000000=1.000000
;
#FAKES:;
#LABELS:0.000000=Song Start
;
#NOTES:
0000
0000
0000
0000
,
0000
0000
0000
0000
,
0000
0000
0000
0000
,
0000
0000
0000
0000
,
1001
1000
0010
0010
,
0100
0100
0001
1000
,
1001
0001
0010
0010
,
0100
0100
1000
0001
,
2002
0000
0000
3003
,
2200
0000
0000
3300
,
0022
0000
0000
0033
,
1002
0000
2000
3003
,
0202
0000
0000
0303
,
2020
0000
0000
3030
,
0220
0000
0000
0330
,
2001
0000
3001
1000
,
1001
0000
1001
0000
0000
1001
0000
1001
,
0000
1000
0100
0010
,
1001
0000
1001
0000
0000
1001
0000
1001
,
0000
0001
0100
0000
,
1010
0000
1010
0000
0000
1010
0000
1010
,
0000
1000
0001
0010
,
0011
0000
0011
0000
0000
1100
0000
1100
,
0000
0000
1000
0000
,
1001
1000
0100
1000
,
0001
0100
0010
1000
,
0001
0010
0001
0100
,
0010
1000
0002
0003
,
1001
0001
0010
0001
,
0100
1000
0100
0001
,
1000
0100
0001
0100
,
1000
0010
2000
3000
,
1001
0000
1001
0000
0000
1001
0000
1001
,
0000
0001
0100
0010
,
1001
0000
1001
0000
0000
1001
0000
1001
,
0000
1000
0100
0000
,
0011
0000
0011
0000
0000
0011
0000
0011
,
0000
0001
1000
0010
,
1010
0000
1010
0000
0000
0101
0000
0101
,
0000
2001
0000
3002
,
0000
2003
0000
3002
,
0000
2003
3200
0320
,
0032
2003
0000
0002
,
3003
1000
1000
0010
,
0010
0001
0010
2000
,
3001
1000
1000
0100
,
0100
0001
0100
2000
,
3001
1000
1000
0010
,
0010
1000
0100
0001
,
0010
1000
0001
0001
,
0100
0010
0010
2000
,
3000
0001
0001
0010
,
0010
1000
0010
0002
,
1003
0001
0001
0100
,
0100
1000
0100
0002
,
1003
0001
0001
0010
,
0010
1000
1000
0100
,
0001
2000
0001
3001
,
0000
1000
0001
2000
,
3000
0001
0100
1000
,
0100
0002
0010
0013
,
0001
1000
0100
0001
,
0100
2000
0010
3010
,
1000
0001
0100
1000
,
0100
0001
0100
1000
,
0100
0001
1000
1000
,
0001
0010
0010
0200
,
0300
1000
1000
0010
,
0010
0001
0010
2000
,
3100
1000
1000
0100
,
0100
0001
0100
2000
,
3010
1000
1000
0100
,
0100
0001
0001
0010
,
1000
2002
0000
0000
,
3003
0001
1000
0200
,
0300
0000
1001
0000
1001
0000
0000
1001
,
0000
1001
0000
0000
1000
0000
0100
0000
,
0010
0000
1001
0000
1001
0000
0000
1001
,
0000
1001
0000
0000
0001
0000
0100
0000
,
0000
0000
1010
0000
1010
0000
0000
1010
,
0000
1010
0000
0000
1000
0000
0001
0000
,
0010
0000
0011
0000
0011
0000
0000
1100
,
0000
1100
0000
0000
0000
0000
0000
0000
;

//---------------dance-single - ----------------
#NOTEDATA:;
#CHARTNAME:;
#STEPSTYPE:dance-single;
#DESCRIPTION:;
#CHARTSTYLE:;
#DIFFICULTY:Easy;
#METER:5;
#RADARVALUES:0.273245,0.294989,0.215517,0.377155,0.000000,213.000000,189.000000,24.000000,42.000000,0.000000,0.000000,0.000000,0.000000,0.000000,0.273245,0.294989,0.215517,0.377155,0.000000,213.000000,189.000000,24.000000,42.000000,0.000000,0.000000,0.000000,0.000000,0.000000;
#CREDIT:;
#OFFSET:-0.706220;
#BPMS:0.000000=196.000000
,155.500000=98.000000
,173.000000=196.000000
;
#STOPS:155.500000=0.459183
;
#DELAYS:;
#WARPS:;
#TIMESIGNATURES:0.000000=4=4
;
#TICKCOUNTS:0.000000=4
;
#COMBOS:0.000000=1
;
#SPEEDS:0.000000=1.000000=0.000000=0
;
#SCROLLS:0.000000=1.000000
,155.500000=0.000000
,156.000000=1.000000
;
#FAKES:;
#LABELS:0.000000=Song Start
;
#NOTES:
0000
0000
0000
0000
,
0000
0000
0000
0000
,
0000
0000
0000
0000
,
0000
0000
0000
0000
,
1001
0000
1000
0000
,
0001
1000
0001
0000
,
0110
0000
0100
0000
,
0010
0100
0010
0000
,
2002
0000
0000
3003
,
0220
0000
0000
0330
,
0220
0000
0000
0330
,
2001
0000
3001
0000
,
0022
0000
0000
0033
,
2200
0000
0000
3300
,
2200
0000
0000
3300
,
0012
0000
1003
0000
,
1001
0000
0001
0000
,
0001
0100
0100
0000
,
1001
0000
1000
0000
,
1000
0100
0100
0000
,
1001
0000
1000
0000
,
1000
0010
0010
0000
,
1001
0000
0001
0000
,
0001
0000
2000
0000
,
3001
1000
0100
0000
,
0100
1000
0001
0000
,
1000
0001
0010
0000
,
0010
0001
2000
0000
,
3010
0100
0001
0000
,
0010
0100
1000
0000
,
0100
1000
0010
0000
,
0100
0001
0020
0030
,
1001
0000
0001
0000
,
0001
0100
0100
0000
,
1001
0000
1000
0000
,
1000
0100
0100
0000
,
1001
0000
1000
0000
,
1000
0010
0010
0000
,
1001
0000
0000
0000
0001
0000
0000
0001
,
0000
2000
0000
3002
,
0000
2003
0000
3002
,
0000
2003
3200
0320
,
0032
2003
0000
0002
,
3003
1000
0000
1000
,
0000
0010
0100
0002
,
0003
1000
0000
1000
,
0000
0100
0010
0002
,
0003
1000
0000
1000
,
0000
0010
0100
0001
,
0001
0000
1000
1000
,
0000
1000
0001
0020
,
0030
0001
0000
0001
,
0000
0010
0100
2000
,
3000
0001
0000
0001
,
0000
0100
0010
2000
,
3000
0001
0000
1000
,
0000
0001
0000
0100
,
0010
2002
0000
3003
,
0000
1000
0001
2000
,
3000
0001
0000
0001
,
1000
0020
0000
1030
,
0000
0001
0000
1000
,
0100
0020
0000
0130
,
0000
1000
0000
0001
,
0000
1000
0000
0010
,
0100
0000
0001
0001
,
0000
1000
1000
0200
,
0300
1000
0000
1000
,
0000
0010
0100
0001
,
0001
1000
0000
1000
,
0000
0100
1000
0020
,
0030
0100
0000
0001
,
0000
1000
0000
0100
,
0010
2002
0000
0000
,
3003
0001
0100
0020
,
0030
1001
0000
1000
,
0000
1000
0100
0100
,
0000
1001
0000
0001
,
0000
0001
0100
0100
,
0000
1001
0000
0001
,
0000
0001
0010
0010
,
0000
1001
0000
1000
,
0000
0001
0000
0000
0000
0000
0000
0000
;

//---------------dance-single - ----------------
#NOTEDATA:;
#CHARTNAME:;
#STEPSTYPE:dance-single;
#DESCRIPTION:;
#CHARTSTYLE:;
#DIFFICULTY:Beginner;
#METER:3;
#RADARVALUES:0.188578,0.308908,0.215517,0.152658,0.000000,147.000000,123.000000,24.000000,17.000000,0.000000,0.000000,0.000000,0.000000,0.000000,0.188578,0.308908,0.215517,0.152658,0.000000,147.000000,123.000000,24.000000,17.000000,0.000000,0.000000,0.000000,0.000000,0.000000;
#CREDIT:;
#OFFSET:-0.706220;
#BPMS:0.000000=196.000000
;
#STOPS:;
#DELAYS:;
#WARPS:;
#TIMESIGNATURES:0.000000=4=4
;
#TICKCOUNTS:0.000000=4
;
#COMBOS:0.000000=1
;
#SPEEDS:0.000000=1.000000=0.000000=0
;
#SCROLLS:0.000000=1.000000
;
#FAKES:;
#LABELS:0.000000=Song Start
;
#NOTES:
0000
0000
0000
0000
,
0000
0000
0000
0000
,
0000
0000
0000
0000
,
0000
0000
0000
0000
,
1001
0000
0000
0000
,
1000
1000
0000
0000
,
1001
0000
0000
0000
,
0001
0001
0000
0000
,
1001
0000
0000
0000
,
1001
0000
0000
0000
,
0110
0000
0000
0000
,
0110
0000
0000
0000
,
1001
0000
0000
0000
,
1001
0000
0000
0000
,
0110
0000
0000
0000
,
0110
0000
0000
0000
,
1001
0000
0000
0000
,
1000
0000
0000
0000
,
1001
0000
0000
0000
,
0001
0000
0000
0000
,
1001
0000
0000
0000
,
1000
0000
0000
0000
,
1001
0000
0000
0000
,
0001
0000
0000
0000
,
2000
0000
3000
0000
,
0200
0000
0300
0000
,
0020
0000
0030
0000
,
0002
0000
0003
0000
,
0200
0000
0300
0000
,
0020
0000
0030
0000
,
2000
0000
3000
0000
,
0002
0000
0003
0000
,
1001
0000
0000
0000
,
1000
0000
0000
0000
,
1001
0000
0000
0000
,
0001
0000
0000
0000
,
1001
0000
0000
0000
,
1000
0000
0000
0000
,
2002
0000
0000
0000
0000
0000
0000
3003
,
0000
0000
0000
0000
,
1000
0000
0000
0000
,
0001
0000
0000
0000
,
1000
0000
0000
0000
,
0001
0000
0000
0000
,
1000
0000
0001
0000
,
1000
0000
0001
0000
,
2000
0000
0000
0000
,
3000
0000
0000
0000
,
1000
0000
1000
0000
,
0010
0000
0010
0000
,
1000
0000
1000
0000
,
0100
0000
0100
0000
,
1000
0000
1000
0000
,
0001
0000
0001
0000
,
0000
1000
1000
0000
,
1000
1000
1000
0000
,
0001
0000
0001
0000
,
0010
0000
0010
0000
,
0001
0000
0001
0000
,
0100
0000
0100
0000
,
0001
0000
0001
0000
,
0001
0000
1000
0000
,
2002
0000
3003
0000
,
1000
1000
1000
0000
,
0001
0001
0001
0001
,
0002
0000
0003
0000
,
1000
1000
1000
1000
,
2000
0000
3000
0000
,
0010
0000
0100
0000
,
0010
0000
0100
0000
,
0000
0001
0001
0000
,
0001
0001
0001
0000
,
1000
0000
1000
0000
,
0001
0001
0001
0000
,
0001
0000
0001
0000
,
1000
1000
1000
0000
,
0001
0000
0001
0000
,
0001
0000
1000
0000
,
2002
0000
3003
0000
,
0001
0001
0001
0000
,
1001
0000
0000
0000
,
1000
0000
0000
0000
,
1001
0000
0000
0000
,
0001
0000
0000
0000
,
1001
0000
0000
0000
,
1000
0000
0000
0000
,
1001
0000
0000
0000
;

//---------------dance-single - [B-SIDE] Qrispy MAXIMIZER----------------
#NOTEDATA:;
#CHARTNAME:[B-SIDE] Qrispy MAXIMIZER;
#STEPSTYPE:dance-single;
#DESCRIPTION:[B-SIDE] Qrispy MAXIMIZER;
#CHARTSTYLE:;
#DIFFICULTY:Edit;
#METER:15;
#RADARVALUES:0.777401,0.791465,0.718391,0.377155,0.228987,606.000000,526.000000,80.000000,42.000000,0.000000,0.000000,0.000000,0.000000,0.000000,0.777401,0.791465,0.718391,0.377155,0.228987,606.000000,526.000000,80.000000,42.000000,0.000000,0.000000,0.000000,0.000000,0.000000;
#CREDIT:[B-SIDE] Qrispy MAXIMIZER;
#OFFSET:-0.706220;
#BPMS:0.000000=196.000000
,155.500000=49.000000
,163.000000=98.000000
,164.000000=196.000000
;
#STOPS:155.500000=0.765305
,164.000000=0.306122
;
#DELAYS:;
#WARPS:;
#TIMESIGNATURES:0.000000=4=4
;
#TICKCOUNTS:0.000000=4
;
#COMBOS:0.000000=1
;
#SPEEDS:0.000000=1.000000=0.000000=0
;
#SCROLLS:0.000000=1.000000
;
#FAKES:;
#LABELS:0.000000=Song Start
;
#NOTES:
0000
0000
0000
0000
,
0000
0000
0000
0000
,
0000
0000
0000
0000
,
0000
0000
0000
0000
,
1001
0000
1000
0100
1000
0010
0100
0101
,
0000
0000
0101
0000
0000
0000
0001
0000
1000
0001
1000
0001
1000
0001
1000
0001
,
1000
0000
0001
0100
0010
1000
0100
1100
,
0000
1100
0000
0001
0100
0010
1000
0000
,
1001
0100
0100
0100
0100
0000
0100
0100
,
1001
0001
0100
0010
2000
0000
3000
0000
,
1001
0100
0100
0100
0100
0000
0100
0100
,
1001
0000
0000
0001
0000
0000
0010
0000
0000
0001
0000
0000
0200
0000
0000
0000
0010
0000
0000
0000
0310
0000
0000
0000
,
1001
0100
0100
0100
0100
0000
0100
0100
,
1001
1000
0100
0010
0002
0000
0003
0000
,
1001
0100
0100
0100
0100
0000
0100
0100
,
1001
0000
0000
1000
0000
0000
0010
0000
0000
1000
0000
0000
0001
0000
0010
0000
0100
0000
1000
0000
0010
0000
0100
0000
,
0101
0000
1001
0000
1000
1100
0000
1001
,
0000
0000
0000
0000
0000
0000
0001
0000
0000
0100
0000
0000
0010
0000
0000
0000
0000
0000
0100
0000
0000
0000
0000
0000
0010
0000
0000
0000
1000
0000
0000
0000
0001
0000
0000
0000
1000
0000
0000
0000
0100
0000
0000
0000
0010
0000
0000
0000
,
0011
0000
1100
0000
1000
1010
0000
0101
,
0000
0000
1000
0010
0100
0000
0001
0000
2000
0000
0000
0000
3100
0000
0000
0000
,
1100
0000
1001
0000
0001
0101
0000
1001
,
0000
0000
0000
0000
0000
0000
1000
0000
0000
0100
0000
0000
0010
0000
0000
0000
0000
0000
0100
0000
0000
0000
0000
0000
0010
0000
0000
0000
0001
0000
0000
0000
1000
0000
0000
0000
0001
0000
0000
0000
0100
0000
0000
0000
0010
0000
0000
0000
,
1010
0000
0101
0000
1001
0011
0000
2100
,
0000
0000
0000
3002
0000
0000
0000
0000
0000
0000
0000
0000
1003
0000
0010
0000
0100
0000
0001
0000
0010
0000
0100
0000
,
1000
0010
0001
0010
1000
0000
1001
0001
,
0100
0000
1000
0000
0100
0000
0001
0000
0010
0000
0100
0000
1000
0000
0010
0100
,
0001
0010
1000
0010
0001
0000
1001
1000
,
0100
0000
0000
0001
0000
0000
0100
0000
0000
1000
0000
0000
0020
0000
0000
0000
0000
0000
1030
0000
0010
0000
0100
0000
,
0001
0100
1000
0100
0001
0000
0101
0100
,
0001
0000
0010
0000
1000
0000
0010
0000
0001
0000
0100
0000
0010
0000
0100
0001
,
1000
0100
0001
0100
1000
0000
1100
0100
,
1000
0010
0001
0010
2000
0000
3000
0000
,
0011
0000
1001
0000
1000
1010
0000
1001
,
0000
0000
0000
0000
0000
0000
0001
0000
0000
0010
0000
0000
0100
0000
0000
0000
0000
0000
0010
0000
0000
0000
0000
0000
0001
0000
0000
0000
1000
0000
0000
0000
0010
0000
0000
0000
0100
0000
0000
0000
0001
0000
0000
0000
1000
0000
0000
0000
,
1100
0000
0011
0000
0001
0101
0000
1010
,
0000
0000
1000
0001
0010
0000
0100
0000
2000
0000
0000
0000
3010
0000
0000
0000
,
1010
0000
1001
0000
0001
0011
0000
1001
,
0000
0000
0000
0000
0000
0000
1000
0000
0000
0010
0000
0000
0100
0000
0000
0000
0000
0000
0010
0000
0000
0000
0000
0000
1000
0000
0000
0000
0001
0000
0000
0000
0010
0000
0000
0000
0100
0000
0000
0000
1000
0000
0000
0000
0001
0000
0000
0000
,
0101
0000
1010
0000
1001
1100
0000
0011
,
2001
3002
2003
3002
,
2003
3020
0032
0203
2300
0000
0002
0000
,
3003
0000
1000
1000
1000
0100
1000
1000
,
1000
0100
1000
0010
0001
1000
0210
0000
,
0310
0100
0001
0001
0001
0100
0001
0001
,
0001
0100
0001
0010
1000
0001
0210
0000
,
0310
0001
1000
1000
1000
0010
1000
1000
,
1000
0010
1000
0001
0010
1000
0001
1000
,
0010
0000
0000
0000
0000
0000
0000
0000
0001
0000
0000
0000
0000
0000
0000
0000
0100
0000
0000
0000
0000
0000
0000
0000
0010
0000
0000
0000
0000
0000
0000
0000
0010
0000
0000
0000
0000
0000
0000
0000
0010
0000
0000
0000
0000
0000
0000
0000
0020
0000
0000
0000
0000
0000
0000
0000
0000
0000
0000
0000
0000
0000
0000
0030
,
0020
0000
0031
0010
1000
0100
0002
0000
,
0103
0010
0001
0001
0001
0100
0001
0001
,
0001
0100
0001
0010
1000
0001
0210
0000
,
0310
0100
1000
1000
1000
0100
1000
1000
,
1000
0100
1000
0010
0001
1000
0210
0000
,
0310
1000
0001
0001
0001
0100
0010
0010
,
0010
0100
1000
1000
1000
0100
0010
0001
,
0010
0000
0000
0000
0000
0000
0000
0000
1000
0000
0000
0000
0000
0000
0000
0000
0100
0000
0000
0000
0000
0000
0000
0000
0010
0000
0000
0000
0000
0000
0000
0000
0010
0000
0000
0000
0000
0000
0000
0000
0010
0000
0000
0000
0000
0000
0000
0000
0020
0000
0000
0000
0000
0000
0000
0000
0000
0000
0000
0000
0000
0000
0000
0030
,
0020
0000
1030
0010
0001
0100
2000
0000
,
3100
0001
1000
1000
1000
0100
0001
0001
,
0001
0000
0000
0000
0000
0000
0000
0000
0100
0000
0000
0000
0000
0000
0000
0000
2000
0000
0000
0000
0000
0000
0000
0000
0000
0000
0000
0000
0000
0000
0000
3000
2001
0000
0000
0000
0000
0000
0000
0000
0000
0000
0000
0000
0000
0000
0000
0000
0010
0000
0000
0000
0000
0000
0000
0000
0000
0000
0000
0000
0000
0000
0000
3000
,
1010
0100
0001
0001
0001
0100
1000
1000
,
1000
0000
0000
0000
0000
0000
0000
0000
0100
0000
0000
0000
0000
0000
0000
0000
0002
0000
0000
0000
0000
0000
0000
0000
0000
0000
0000
0000
0000
0000
0000
0003
1002
0000
0000
0000
0000
0000
0000
0000
0000
0000
0000
0000
0000
0000
0000
0000
0010
0000
0000
0000
0000
0000
0000
0000
0000
0000
0000
0000
0000
0000
0000
0003
,
0011
0100
1000
1000
1000
0010
0100
0100
,
0100
0010
0001
0001
0001
0010
0100
1000
,
0100
0000
0000
0000
0000
0000
0000
0000
0001
0000
0000
0000
0000
0000
0000
0000
0010
0000
0000
0000
0000
0000
0000
0000
0100
0000
0000
0000
0000
0000
0000
0000
0100
0000
0000
0000
0000
0000
0000
0000
0100
0000
0000
0000
0000
0000
0000
0000
0200
0000
0000
0000
0000
0000
0000
0000
0000
0000
0000
0000
0000
0000
0000
0300
,
0100
0010
1000
0010
0001
0100
2000
0000
,
3100
0001
0010
0010
0010
0100
0010
0010
,
0010
0000
0000
0000
0000
0000
0000
0000
0001
0000
0000
0000
0000
0000
0000
0000
0100
0000
0000
0000
0000
0000
0000
0000
1000
0000
0000
0000
0000
0000
0000
0000
0001
0000
0000
0000
0000
0000
0000
0000
0010
0000
0000
0000
0000
0000
0000
0000
0210
0000
0000
0000
0000
0000
0000
0000
0000
0000
0000
0000
0000
0000
0000
0300
,
0200
0000
0310
0010
0010
0100
0010
0010
,
0010
1000
0100
0001
1000
0010
0210
0000
,
1000
0000
0310
0010
0010
0001
1000
1000
,
1000
0001
0100
0100
0100
1000
0001
0010
,
1000
0000
2001
0100
0100
0100
0100
0000
,
3200
0000
0301
0100
1000
0010
0200
0000
,
0300
0000
1010
0000
0101
0000
0001
0011
,
0000
0000
0000
0000
0000
0000
1100
0000
0000
0000
0000
0000
0000
0000
0000
0000
0000
0000
0001
0000
0000
0100
0000
0000
0010
0000
0000
0000
0000
0000
1000
0000
0000
0000
0000
0000
0001
0000
0000
0000
0010
0000
0000
0000
0100
0000
0000
0000
,
0010
0000
0001
0000
0100
0000
0101
0000
0000
0000
0000
0000
1010
0000
0000
0000
0000
0000
1000
0000
0000
1001
0000
0000
,
0000
0000
0011
0000
0000
0000
0001
0100
0010
0000
1000
0000
0200
0000
0000
0000
,
0310
0000
0011
0000
1100
0000
1000
1010
,
0000
0000
0000
0000
0000
0000
0101
0000
0000
0000
0000
0000
0000
0000
0000
0000
0000
0000
1000
0000
0000
0100
0000
0000
0010
0000
0000
0000
0000
0000
0001
0000
0000
0000
0000
0000
1000
0000
0000
0000
0010
0000
0000
0000
0100
0000
0000
0000
,
0010
0000
1000
0000
0100
0000
1100
0000
0000
0000
0000
0000
0011
0000
0000
0000
0000
0000
0101
0000
0000
1010
0000
0000
,
0000
1001
0000
0000
0000
0000
0000
0000
;
