#TITLE:groovin';
#SUBTITLE:;
#ARTIST:Sota Fujimori;
#TITLETRANSLIT:;
#SUBTITLETRANSLIT:;
#ARTISTTRANSLIT:;
#GENRE:Synthesized Funk;
#CREDIT:;
#BANNER:groovin'.png;
#BACKGROUND:groovin'-bg.png;
#LYRICSPATH:;
#CDTITLE:cdtitle.png;
#MUSIC:groovin'.ogg;
#OFFSET:-0.479881;
#SAMPLESTART:0.482881;
#SAMPLELENGTH:13.714285;
#SELECTABLE:YES;
#BPMS:0.000000=140.000000
;
#STOPS:
;
#BGCHANGES:;
#KEYSOUNDS:;
#ATTACKS:;

//---------------dance-single - ----------------
#NOTES:
     dance-single:
     :
     Challenge:
     15:
     0.650749,0.695140,0.212696,0.274733,0.961564,514.000000,490.000000,24.000000,31.000000,57.000000,0.000000,0.650749,0.695140,0.212696,0.274733,0.961564,514.000000,490.000000,24.000000,31.000000,57.000000,0.000000:
// measure 0
0000
0000
0000
0000
,  // measure 1
0000
0000
0000
0000
,  // measure 2
0000
0000
0000
0000
,  // measure 3
0000
0000
0000
0000
,  // measure 4
0001
0000
0010
0000
0000
0000
0001
00M0
0000
0000
0000
0000
1000
0000
0010
0000
0000
0000
2000
00M0
0000
0000
0000
0000
3001
0000
0010
0000
0000
0000
0000
0000
,  // measure 5
0100
0000
0000
0000
1000
0000
0000
0000
0001
0000
0100
0000
0010
0000
0000
0000
0002
00M0
0000
0000
0000
0000
0013
0000
0100
0000
0000
0000
0010
0000
0000
0000
,  // measure 6
1010
0000
0000
0000
1100
0000
0000
1001
0000
0000
1010
0000
1000
0000
0001
0000
,  // measure 7
1000
0100
0000
0001
0000
0100
0000
1000
0000
0010
1000
0000
1002
0000
0000
0000
,  // measure 8
0013
0000
0001
0000
0100
0010
0000
1000
0000
0001
0020
000M
0030
0100
1000
0020
,  // measure 9
M000
0000
0130
0000
0001
1000
0000
0000
0001
0010
0100
1000
0001
0000
0000
0000
,  // measure 10
1000
0010
1000
0010
1000
0010
0100
0000
0001
1000
0001
0000
1000
0100
0000
0010
,  // measure 11
0001
0000
0001
0000
0010
0001
0000
0000
0100
0000
0010
0000
1000
0001
0020
MM0M
,  // measure 12
0000
0000
0000
0030
,  // measure 13
0001
0010
0100
1000
0001
0100
0010
0200
0000
0000
1300
0000
0100
0001
0000
0000
,  // measure 14
1000
0100
0000
0010
0000
0001
2000
0000
0000
0000
0001
0000
3001
0000
M00M
0000
,  // measure 15
1000
0000
0010
0100
0001
0000
0010
0100
0000
0100
0000
0010
0001
0000
0100
0000
,  // measure 16
1000
0000
0100
0001
0100
0000
0010
1000
0000
1000
0100
0000
0120
0000
0000
0000
,  // measure 17
0031
0000
0100
0000
0100
0000
0100
0000
0010
1000
0000
0001
0010
0000
0100
0000
,  // measure 18
1000
0000
0001
0000
0001
0000
0001
0000
0100
0010
1000
0001
1000
0001
1000
0100
,  // measure 19
1000
0000
0001
0100
0001
0100
0010
1000
0000
1000
0000
0100
0010
0000
0001
0000
,  // measure 20
0100
0000
0010
1000
0001
0000
0010
0100
0000
0100
0010
0000
0010
0000
0001
0000
,  // measure 21
1000
0000
0010
0000
1000
0000
0001
0010
0000
0001
1000
0000
0001
0000
0100
0000
,  // measure 22
0010
0000
1000
0000
1000
0000
1000
0000
0001
0100
0010
1000
0001
0000
0000
0000
,  // measure 23
2001
0000
0000
0000
3001
0000
0012
0000
0000
0000
1003
0000
0010
0100
0010
0100
,  // measure 24
0001
1000
0000
0000
0001
0000
2001
0000
3100
0010
0100
0010
0100
0010
0100
0010
,  // measure 25
0001
0000
0000
0000
1000
0000
0000
0000
0001
0000
1000
0000
0001
0200
0000
0000
,  // measure 26
0301
0000
1000
0000
0001
1000
0001
1000
0100
0010
0000
0001
0000
0100
0020
MM0M
,  // measure 27
0000
0000
0000
0000
0000
0000
0130
0MM0
,  // measure 28
1002
0000
0000
0010
0000
1000
0103
0202
,  // measure 29
0000
0000
0000
0000
0000
0000
0303
0M0M
,  // measure 30
0001
0100
0000
0100
0010
1000
0000
0001
0000
1000
0100
0010
0001
0000
0010
0001
,  // measure 31
1000
0010
0100
0010
1000
0001
0000
0001
4000
0400
0000
3000
0340
0004
0000
0030
,  // measure 32
1003
0000
0010
0100
0001
0000
0010
0100
0000
0100
1000
0000
0010
0000
0100
0000
,  // measure 33
0001
1000
0001
1000
0001
0010
0100
1000
0001
0000
1000
0020
0000
0000
0031
0000
,  // measure 34
0010
0100
0010
0000
1000
0000
0100
0010
0000
0010
0001
1000
0010
0000
1000
0001
,  // measure 35
0010
0100
1000
0010
0100
0001
0000
0001
0040
0400
0000
0030
4300
0004
0000
3000
,  // measure 36
0013
0000
0100
1000
0010
0000
0100
0001
0000
0001
0010
0000
0100
0000
1000
0000
,  // measure 37
0010
1000
0001
1000
0001
0000
1000
0100
0010
0001
1000
0000
0001
0000
0000
0000
,  // measure 38
2MM2
0000
0000
0000
3003
0000
0000
0000
0M11
0000
0000
11M0
0000
0000
M22M
0000
,  // measure 39
0000
0000
0000
0330
,  // measure 40
1001
0000
0000
0000
1000
0000
0010
0100
0000
0010
0100
0000
0001
1000
0000
0000
,  // measure 41
1000
0001
1000
0001
1000
0000
0100
0010
0000
0100
0010
0000
0001
1000
0000
0001
,  // measure 42
0100
0000
1000
0000
0100
0000
0010
1000
0001
0010
0000
0100
0010
0000
0100
0000
,  // measure 43
1000
0000
0010
0100
0001
0000
0010
0001
0000
1000
0010
0100
0001
0000
0000
0000
,  // measure 44
1001
0000
0000
0000
0001
0000
0100
0010
0000
0100
0010
0000
1000
0001
0000
0000
,  // measure 45
0001
1000
0001
1000
0001
0000
0010
0100
0000
0010
0100
0000
1000
0010
0000
0100
,  // measure 46
0001
0000
0010
0000
1000
0000
0010
0000
0001
0000
0010
1000
0000
0000
0010
0000
,  // measure 47
0110
0000
0000
0000
0011
0000
0000
0001
0100
0000
0010
0000
1000
0002
0000
0003
,  // measure 48
2000
0000
0000
0000
0000
0000
0000
0000
0000
0000
0000
0000
0000
0000
0000
0000
0000
0000
0000
0000
0000
0000
0000
0000
0MMM
0000
0000
0000
0000
0000
0000
0000
0000
0000
0000
0000
0000
0000
0000
0000
0000
0000
0M00
0000
0000
0000
0000
0000
0000
0000
0000
0000
0000
0000
0000
0000
0000
0000
0000
0000
0MM0
0000
0000
0000
0000
0000
0000
0000
0000
0000
000M
0000
0000
0000
0000
0000
0000
0000
0000
0000
0000
0000
0000
0000
0000
0000
000M
0000
0000
0000
0000
0000
0000
0000
0000
0000
0MM0
0000
0000
0000
0000
0000
0000
0000
0000
0000
0000
0000
0000
0000
0000
0000
0000
0000
0000
0000
0000
0000
0000
0000
0000
0000
0000
0000
0000
0000
0000
0000
0000
0000
0000
0000
0MMM
0000
0000
0000
0000
0000
0000
0000
0000
0000
0000
0000
0000
0000
0000
0000
0000
0000
000M
0000
0000
0000
0000
0000
0000
0000
0000
0000
0000
0000
0000
0000
0000
0000
0000
0000
00M0
0000
0000
0000
0000
0000
0000
0000
0000
0000
0000
0000
0000
0000
0000
0000
0000
0000
0M00
0000
0000
0000
0000
0000
,  // measure 49
0000
0000
0000
0000
0000
0000
0000
0000
0000
0000
0000
0000
0000
0000
0000
0000
0000
0000
0000
0000
0000
0000
0000
0000
0000
0000
0000
0000
0000
0000
0MM0
0000
0000
0000
0000
0000
0000
0000
0000
0000
000M
0000
0000
0000
0000
0000
0000
0000
0000
0000
0000
0000
0000
0000
0000
0000
000M
0000
0000
0000
0000
0000
0000
0000
0000
0000
0MM0
0000
0000
0000
0000
0000
0000
0000
0000
0000
000M
0000
0000
0000
0000
0000
0000
0000
0000
0000
0000
0000
0000
0000
0000
0000
000M
0000
0000
0000
0000
0000
0000
0000
0000
0000
0MM0
0000
0000
0000
0000
0000
0000
0000
0000
0000
0000
0000
0000
0000
0000
0000
0000
0000
0000
0000
0000
0000
0000
0000
0000
0000
0000
0000
0000
0000
0000
0000
0000
0000
0000
0000
0000
0000
0000
0000
0000
0000
0000
0000
0000
0000
0000
0000
0000
0000
0000
0000
0000
0000
0000
0000
0000
0000
0000
0000
0000
0000
0000
0000
0000
0000
0000
0000
0000
0000
0000
0000
0000
0000
0000
0000
0000
0000
0000
0000
0000
0000
0000
0000
0000
0000
0000
0000
0000
0000
,  // measure 50
3001
0100
0000
0010
0000
1000
0000
0100
0000
1000
0000
0010
0000
0002
0000
0000
,  // measure 51
0013
0000
0000
0010
1000
0000
0100
0000
0010
0001
0100
0010
1000
0000
0000
0000
,  // measure 52
1000
0100
0010
0000
0010
0000
0010
0001
0100
0010
0000
1000
0001
0000
1000
0100
,  // measure 53
0010
0000
0001
0100
0000
0001
0100
0000
0010
0100
0000
1000
0000
0100
0001
0000
,  // measure 54
1000
0000
0010
0000
0000
0000
1000
00M0
0000
0000
0000
0000
0001
0000
0010
0000
0000
0000
0002
00M0
0000
0000
0000
0000
1003
0000
0010
0000
0000
0000
0000
0000
,  // measure 55
0100
0000
0000
0000
0001
0000
0000
0000
1000
0000
0100
0000
0010
0000
0000
0000
2000
00M0
0000
0000
0000
0000
3010
0000
0100
0000
0000
0000
0010
0000
0000
0000
,  // measure 56
0011
0000
0000
0000
0101
0000
0000
1001
0000
0000
0011
0000
0001
0000
1000
0000
,  // measure 57
0001
0100
0000
1000
0000
0100
0000
0001
0000
0010
0001
0000
2001
0000
0000
0000
,  // measure 58
3010
0000
1000
0000
0100
0010
0000
0001
0000
1000
0020
M000
0030
0100
0001
0020
,  // measure 59
000M
0000
0130
0000
1000
0001
0000
0000
1000
0010
0100
0001
1000
0000
0000
0000
,  // measure 60
0001
0010
0001
0010
0001
0010
0100
0000
1000
0001
1000
0000
0001
0100
0000
0010
,  // measure 61
1000
0000
1000
0000
0010
1000
0000
0000
0100
0000
0010
0000
0001
1000
0020
MM0M
,  // measure 62
0000
0000
0000
0030
;

//---------------dance-single - ----------------
#NOTES:
     dance-single:
     :
     Hard:
     12:
     0.519080,0.556112,0.257008,0.301320,0.443117,410.000000,381.000000,29.000000,34.000000,0.000000,0.000000,0.519080,0.556112,0.257008,0.301320,0.443117,410.000000,381.000000,29.000000,34.000000,0.000000,0.000000:
// measure 0
0000
0000
0000
0000
,  // measure 1
0000
0000
0000
0000
,  // measure 2
0000
0000
0000
0000
,  // measure 3
0000
0000
0000
0000
,  // measure 4
0102
0000
0000
1003
0000
0000
2100
0000
0000
3001
0000
0000
1001
0000
0000
0000
,  // measure 5
1000
0000
0000
1000
0001
0000
0100
0000
0020
0000
0000
1030
0000
0000
0001
0000
,  // measure 6
0010
0000
0000
0000
1100
0000
0000
0011
0000
0000
0101
0000
1001
0000
0000
0000
,  // measure 7
0001
0100
0000
0010
0000
0100
0000
0010
0000
1000
0001
0000
0020
0000
0000
0000
,  // measure 8
0031
0000
1000
0000
0001
1000
0000
0010
0000
0000
0120
0000
0000
1030
0001
2000
,  // measure 9
0000
0000
3001
0000
0010
0100
0000
0000
1000
0000
0010
0100
0000
0000
0000
0000
,  // measure 10
0001
1000
0000
0001
1000
0000
1000
0000
0001
0000
0100
0000
0010
1000
0000
1000
,  // measure 11
0001
0000
0001
0000
1000
0001
0000
0000
0010
0000
0100
0000
1000
0001
2000
0000
,  // measure 12
0000
0000
0000
3000
,  // measure 13
0001
0000
0010
0000
1000
0000
0010
0002
0000
0000
1003
0000
0001
1000
0000
0000
,  // measure 14
0001
0100
0000
0010
0000
0100
0002
0000
0000
0000
1000
0000
1003
0000
0000
0000
,  // measure 15
0001
0010
0100
1000
0001
0100
0010
0100
,  // measure 16
1000
0100
0010
1000
0001
0010
0100
1000
,  // measure 17
0010
0000
1000
0000
1000
0000
1000
0000
0010
1000
0000
0001
0000
0000
0001
0000
,  // measure 18
0010
0000
0001
0000
0001
0000
0001
0000
0010
0001
0000
1000
0010
0000
1000
0000
,  // measure 19
0100
0010
0001
0100
0010
1000
0001
0010
,  // measure 20
1000
0010
0100
1000
0001
0100
0010
1000
,  // measure 21
0001
0000
0000
0000
0011
0000
0000
1100
0000
0000
1010
0000
1001
0000
0000
0000
,  // measure 22
1000
0010
0000
1000
0000
0010
0000
0100
0000
0001
1000
0000
1001
0000
0000
0000
,  // measure 23
2000
0000
3100
0020
0000
0031
0001
0100
,  // measure 24
0010
1000
0000
0000
1000
0000
1002
0000
0000
0000
1003
0000
0100
0000
0010
0000
,  // measure 25
0001
0000
0000
0000
1000
0000
0000
0000
0001
0000
0001
0000
1000
0020
0000
0000
,  // measure 26
1030
0000
0001
0000
1000
0000
0001
0000
1000
0100
0000
0001
0000
0100
2000
0000
,  // measure 27
0000
0000
0000
3000
,  // measure 28
1002
0000
0000
0203
0000
0310
1000
1002
,  // measure 29
0000
0000
0000
0003
,  // measure 30
1000
0000
0100
0000
0010
0001
0000
0100
0000
0000
0010
0000
1000
0000
0100
0000
,  // measure 31
0010
0001
0010
0000
0001
0000
0000
0000
4000
0000
0000
0000
3004
0000
0000
0000
,  // measure 32
1003
0010
0100
1000
1000
0100
0010
0010
,  // measure 33
1000
0000
0001
0000
1000
0100
1000
0000
0100
0000
0010
0002
0000
0000
1003
0000
,  // measure 34
0001
0000
0100
0000
0010
1000
0000
0100
0000
0000
0010
0000
0001
0000
0100
0000
,  // measure 35
0010
1000
0010
0000
1000
0000
0000
0000
0004
0000
0000
0000
4003
0000
0000
0000
,  // measure 36
3001
0010
0100
0001
0001
0100
0010
0010
,  // measure 37
0001
0100
1000
0100
0001
1000
0001
0000
,  // measure 38
2002
0000
0000
0000
3003
0000
0000
0000
0001
0000
0000
1000
0000
0000
0220
0000
,  // measure 39
0000
0000
0000
0330
,  // measure 40
1001
0000
0000
0000
0001
0000
0000
1000
0000
0010
0100
0000
0001
0000
0000
0000
,  // measure 41
1000
0000
0100
0000
0010
0000
0001
0100
0000
0100
0010
0000
1000
0000
0000
0000
,  // measure 42
0001
0000
0100
0000
0010
0000
1000
0000
0001
1000
0000
0100
0000
0000
0010
0000
,  // measure 43
0001
0000
1000
0001
1000
0000
0000
0001
0000
0100
0010
0000
1000
0000
0000
0000
,  // measure 44
1001
0000
0000
0000
1000
0000
0000
0100
0000
0010
0001
0000
1000
0000
0000
0000
,  // measure 45
0001
0000
0100
0000
0010
0000
1000
0100
0000
0100
0010
0000
0001
0000
0000
1000
,  // measure 46
0010
0000
0001
0000
0010
0000
1000
0000
0010
0000
0001
0010
0000
0000
0010
0000
,  // measure 47
2000
0000
0000
0000
3200
0000
0000
0000
0310
0000
0001
0000
0100
0020
0000
0000
,  // measure 48
2030
0000
0000
0000
,  // measure 49
0000
0000
0000
0000
,  // measure 50
3001
0100
0000
0010
0000
1000
0000
0010
0000
0100
0000
0001
0000
0020
0000
0000
,  // measure 51
0031
0000
1001
0000
0001
0100
0010
0000
,  // measure 52
1000
0000
0001
0000
1000
0000
0001
0000
0010
0100
0000
0010
0000
0000
0001
0000
,  // measure 53
1000
0000
0001
0000
1000
0000
0001
0000
0100
0010
0000
1000
0001
0000
0000
0000
,  // measure 54
2100
0000
0000
3001
0000
0000
0102
0000
0000
1003
0000
0000
1001
0000
0000
0000
,  // measure 55
0001
0000
0000
0001
1000
0000
0100
0000
0020
0000
0000
0031
0000
0000
1000
0000
,  // measure 56
0010
0000
0000
0000
0101
0000
0000
1010
0000
0000
1100
0000
1001
0000
0000
0000
,  // measure 57
1000
0100
0000
0010
0000
0100
0000
0010
0000
0001
1000
0000
0020
0000
0000
0000
,  // measure 58
1030
0000
0001
0000
1000
0001
0000
0010
0000
0000
0120
0000
0000
0031
1000
0002
,  // measure 59
0000
0000
1003
0000
0010
0100
0000
0000
0001
0000
0010
0100
0000
0000
0000
0000
,  // measure 60
1000
0001
0000
1000
0001
0000
0001
0000
1000
0000
0100
0000
0010
0001
0000
0001
,  // measure 61
1000
0000
1000
0000
0001
1000
0000
0000
0010
0000
0100
0000
0001
1000
0002
0000
,  // measure 62
0000
0000
0000
0003
;

//---------------dance-single - ----------------
#NOTES:
     dance-single:
     :
     Medium:
     8:
     0.362090,0.389278,0.079761,0.239283,0.079761,286.000000,277.000000,9.000000,27.000000,0.000000,0.000000,0.362090,0.389278,0.079761,0.239283,0.079761,286.000000,277.000000,9.000000,27.000000,0.000000,0.000000:
// measure 0
0000
0000
0000
0000
,  // measure 1
0000
0000
0000
0000
,  // measure 2
0000
0000
0000
0000
,  // measure 3
0000
0000
0000
0000
,  // measure 4
1000
0000
0000
1000
0000
0000
0001
0000
0000
0001
0000
0000
1000
0000
0000
0000
,  // measure 5
0001
0000
1000
0100
0020
0000
0031
0000
,  // measure 6
1000
0000
0000
0000
0010
0000
0000
0010
0000
0000
0100
0000
0010
0000
0000
0000
,  // measure 7
1000
0000
0001
0000
0010
0100
2000
0000
,  // measure 8
3001
0000
1000
0000
0010
0000
0000
0100
0000
0000
0002
0000
0000
0000
0020
0003
,  // measure 9
0000
0001
0031
0000
0010
0001
0100
0000
,  // measure 10
0010
0000
0010
0000
0100
0010
1000
0000
,  // measure 11
0001
0001
0001
0000
1000
0100
0010
0002
,  // measure 12
0000
0000
0000
0003
,  // measure 13
1000
0000
0010
0000
1000
0000
0000
0002
0000
0000
0000
0000
1003
0000
0000
0000
,  // measure 14
0100
0000
0000
0100
0000
0000
0200
0000
0000
0000
0000
0000
0300
0000
0000
0000
,  // measure 15
1000
0100
0010
0001
0000
1000
0000
0001
,  // measure 16
0100
0000
0010
1000
0000
0001
0001
0000
,  // measure 17
1000
0010
1000
0010
0100
0000
0001
0000
,  // measure 18
0010
0001
0010
0001
0100
0000
0010
0000
,  // measure 19
1000
0010
0100
0001
0000
1000
0000
0100
,  // measure 20
0010
0100
1000
0001
0000
0100
0100
0000
,  // measure 21
0001
0000
0000
0000
1000
0000
0000
0001
0000
0000
1000
0000
0100
0000
0000
0000
,  // measure 22
0010
0100
0010
0100
0010
0000
0110
0000
,  // measure 23
2001
0000
0000
3020
0000
0000
0130
0001
,  // measure 24
1000
0000
0000
2001
0000
0000
3100
0000
,  // measure 25
0010
0000
0000
0000
0010
0010
0010
0000
,  // measure 26
0001
0000
1000
0000
0001
0000
1000
0000
0001
0000
0000
1000
0000
0000
2002
0000
,  // measure 27
0000
0000
0000
3003
,  // measure 28
1002
0000
0000
0010
0000
1003
0000
0220
,  // measure 29
0000
0000
0000
0330
,  // measure 30
0001
0100
0001
0000
1000
0000
1000
0100
,  // measure 31
0010
0100
1000
0000
0040
0000
0430
0000
,  // measure 32
0301
0000
1000
0010
1000
0000
0001
0000
,  // measure 33
1000
0000
0100
0010
0100
0010
0001
0000
,  // measure 34
1000
0010
1000
0000
0001
0000
0001
0100
,  // measure 35
0010
1000
0001
0000
0040
0000
0430
0000
,  // measure 36
1300
0000
0001
0100
0001
0100
0010
0000
,  // measure 37
1000
0000
1000
0000
0100
0010
0001
0000
,  // measure 38
2002
0000
0000
0000
3003
0000
0000
0000
0100
0000
0000
0010
0000
0000
0220
0000
,  // measure 39
0000
0000
0000
0330
,  // measure 40
1000
0000
0000
0000
0010
0000
0000
1000
0000
0000
0010
0000
1000
0000
0000
0000
,  // measure 41
0001
0000
0000
0000
0010
0000
0000
0001
0000
0000
0010
0000
0001
0000
0000
0000
,  // measure 42
1000
0100
0010
0000
0010
0100
1000
0000
,  // measure 43
0001
0100
0010
0000
1000
0100
0010
0000
,  // measure 44
0001
0000
0000
0000
0100
0000
0000
0001
0000
0000
0100
0000
0001
0000
0000
0000
,  // measure 45
1000
0000
0000
0000
0100
0000
0000
1000
0000
0000
0100
0000
1000
0000
0000
0000
,  // measure 46
0010
0000
0100
0000
0010
0000
0100
0000
0010
0000
0000
0100
0000
0000
0001
0000
,  // measure 47
0010
0000
0100
0000
1000
0010
0100
0000
,  // measure 48
0202
0000
0000
0000
,  // measure 49
0000
0000
0000
0303
,  // measure 50
0001
0100
0010
0000
1000
0000
0100
0010
,  // measure 51
0001
1000
0020
1030
,  // measure 52
0100
0010
0100
0010
0001
0000
1000
0000
,  // measure 53
0010
0100
0010
0100
0001
0000
1000
0000
,  // measure 54
0001
0000
0000
0001
0000
0000
1000
0000
0000
1000
0000
0000
0001
0000
0000
0000
,  // measure 55
1000
0000
0001
0100
0020
0000
1030
0000
,  // measure 56
0001
0000
0000
0000
0010
0000
0000
0010
0000
0000
0100
0000
0010
0000
0000
0000
,  // measure 57
0001
0000
1000
0000
0010
0100
0002
0000
,  // measure 58
1003
0000
0001
0000
0010
0000
0000
0100
0000
0000
2000
0000
0000
0000
3020
0000
,  // measure 59
0000
1000
1030
0000
0010
1000
0100
0000
,  // measure 60
0010
0000
0010
0000
0100
0010
0001
0000
,  // measure 61
1000
1000
1000
0000
0001
0100
0010
2000
,  // measure 62
0000
0000
0000
3000
;

//---------------dance-single - ----------------
#NOTES:
     dance-single:
     :
     Easy:
     5:
     0.229155,0.278056,0.053174,0.168384,0.000000,181.000000,175.000000,6.000000,19.000000,0.000000,0.000000,0.229155,0.278056,0.053174,0.168384,0.000000,181.000000,175.000000,6.000000,19.000000,0.000000,0.000000:
0000
0000
0000
0000
,
0000
0000
0000
0000
,
0000
0000
0000
0000
,
0000
0000
0000
0000
,
1000
0000
0000
0001
0000
0000
1000
0000
,
0000
0010
0100
0001
,
0010
0000
0010
0000
,
0001
0100
0010
1000
,
0001
0000
0000
0010
0000
0010
0000
0020
,
0000
0130
0010
0001
,
1000
0000
0001
0000
,
0100
0000
0100
0000
0010
0000
2000
0002
,
0000
0000
0000
3003
,
0001
0010
0100
0010
,
0001
0000
0000
2000
0000
0000
3000
0000
,
0001
0001
0100
0100
,
0010
1000
0001
0000
,
0010
0010
0100
0010
,
0100
0100
0010
0100
,
1000
1000
0010
0010
,
0100
0001
0010
0000
,
0001
1000
0001
1000
,
0010
0010
0100
0001
,
1000
0000
0000
0001
0000
0000
1000
0000
,
0100
0000
0000
0010
0000
0000
0001
0000
,
1000
0000
0001
0000
,
1000
0000
0100
0000
0010
0000
0002
2000
,
0000
0000
0000
3003
,
0220
0000
0000
0000
0000
0330
0000
2002
,
0000
0000
0000
3003
,
1000
0000
0001
0000
,
1000
0100
0001
0100
,
1000
0000
0010
0000
,
0100
0001
1000
0001
,
0010
0000
0001
0000
,
1000
0010
0001
0010
,
1000
0000
0100
0000
,
0010
0001
0100
0010
,
2002
0000
3003
0000
1001
0000
0000
0220
,
0000
0000
0000
0330
,
1000
0010
1000
0010
,
0100
0001
0100
0001
,
1000
0000
0100
0000
,
1000
0100
0010
0001
,
0100
0010
0100
0010
,
1000
0001
1000
0001
,
0010
0010
0010
0010
,
0001
0100
0010
1000
,
2002
0000
0000
0000
,
0000
0000
0000
3003
,
0001
0100
0010
1000
,
0001
0000
1000
0000
,
0100
0100
0010
0100
,
0010
0010
0100
0010
,
0001
0000
0000
1000
0000
0000
0001
0000
,
0000
0010
0100
1000
,
0010
0000
0010
0000
,
1000
0100
0010
0001
,
1000
0000
0000
0010
0000
0010
0000
0020
,
0000
0130
0010
1000
,
0001
0000
1000
0000
,
0100
0000
0100
0000
0010
0000
0002
2000
,
0000
0000
0000
3003
;

//---------------dance-single - ----------------
#NOTES:
     dance-single:
     :
     Beginner:
     3:
     0.159522,0.191537,0.026587,0.053174,0.000000,126.000000,123.000000,3.000000,6.000000,0.000000,0.000000,0.159522,0.191537,0.026587,0.053174,0.000000,126.000000,123.000000,3.000000,6.000000,0.000000,0.000000:
0000
0000
0000
0000
,
0000
0000
0000
0000
,
0000
0000
0000
0000
,
0000
0000
0000
0000
,
1000
0000
0001
0000
,
0010
0010
0010
0000
,
0001
0000
0100
0000
,
0010
0010
0010
0000
,
1000
0000
0001
0000
,
0010
0000
0001
0000
,
1000
0000
0001
0000
,
0100
0100
0100
0100
,
0000
0000
0000
0000
,
0001
0000
0010
0000
,
0100
0100
0100
0000
,
1000
0000
1000
0000
,
0001
0000
0001
0000
,
0100
0100
0100
0000
,
0100
0100
0100
0000
,
0010
0000
1000
0000
,
0001
0000
0010
0000
,
0001
0000
1000
0000
,
0010
0010
0010
0000
,
1000
0000
0100
0000
,
0010
0000
0001
0000
,
0100
0000
0100
0000
,
0100
0100
0100
0100
,
0000
0000
0000
0000
,
2002
0000
0000
0000
0000
0000
0000
3003
,
0000
0000
0000
0000
,
0001
0000
0010
0000
,
0100
0100
0100
0000
,
1000
0000
0010
0000
,
0100
0000
0001
0000
,
1000
0000
0100
0000
,
0010
0010
0010
0000
,
0001
0000
1000
0000
,
0010
0000
0100
0000
,
0220
0000
0000
0000
0000
0000
0000
0330
,
0000
0000
0000
0000
,
0001
0000
0001
0000
,
1000
0000
1000
0000
,
0001
0000
0100
0000
,
0010
0000
1000
0000
,
0001
0000
0001
0000
,
1000
0000
1000
0000
,
0100
0100
0100
0000
,
0010
0000
0001
0000
,
2002
0000
0000
0000
,
3003
0000
0000
0000
,
1000
0000
0100
0100
,
0100
0000
0010
0000
,
0001
0001
0001
0000
,
1000
1000
1000
0000
,
0001
0000
1000
0000
,
0010
0010
0010
0000
,
1000
0000
0100
0000
,
0010
0010
0010
0000
,
0001
0000
1000
0000
,
0010
0000
1000
0000
,
0001
0000
1000
0000
,
0100
0100
0100
0100
;
