#VERSION:0.83;
#TITLE:do the thing;
#SUBTITLE:feat. Kanae Asaba;
#ARTIST:MK;
#TITLETRANSLIT:;
#SUBTITLETRANSLIT:;
#ARTISTTRANSLIT:;
#GENRE:Electro;
#ORIGIN:;
#CREDIT:;
#BANNER:do the thing feat. Kanae Asaba.png;
#BACKGROUND:do the thing feat. Kanae Asaba-bg.png;
#PREVIEWVID:;
#JACKET:do the thing feat. Kanae Asaba-jacket.png;
#CDIMAGE:;
#DISCIMAGE:;
#LYRICSPATH:;
#CDTITLE:cdtitle.png;
#MUSIC:do the thing feat. Kanae Asaba.ogg;
#OFFSET:-0.928253;
#SAMPLESTART:86.267586;
#SAMPLELENGTH:14.222221;
#SELECTABLE:YES;
#BPMS:0.000=135.000;
#STOPS:;
#DELAYS:;
#WARPS:;
#TIMESIGNATURES:0.000=4=4;
#TICKCOUNTS:0.000=4;
#COMBOS:0.000=1;
#SPEEDS:0.000=1.000=0.000=0;
#SCROLLS:0.000=1.000;
#FAKES:;
#LABELS:0.000=Song Start;
#BGCHANGES:;
#KEYSOUNDS:;
#ATTACKS:
;

//---------------dance-single - ----------------
#NOTEDATA:;
#CHARTNAME:;
#STEPSTYPE:dance-single;
#DESCRIPTION:;
#CHARTSTYLE:;
#DIFFICULTY:Hard;
#METER:11;
#RADARVALUES:0.456040,0.460505,0.233378,0.450086,0.229211,383.000000,355.000000,28.000000,54.000000,0.000000,0.000000,0.000000,0.000000,0.000000,0.456040,0.460505,0.233378,0.450086,0.229211,383.000000,355.000000,28.000000,54.000000,0.000000,0.000000,0.000000,0.000000,0.000000;
#CREDIT:;
#NOTES:
0000
0000
0000
0000
,
0000
0000
0000
0000
,
0000
0000
0000
0000
,
0000
0000
0000
0000
,
1001
0000
0000
0001
0000
0200
0000
0000
,
0310
0000
1000
0200
0000
0320
0000
0031
,
2000
0000
3001
0100
0010
1000
0000
1000
,
0100
0001
0100
2000
0000
3010
1000
0000
,
1001
0000
0000
1100
0000
0000
1100
0000
,
1001
0000
0000
0101
0000
0000
0101
0000
,
1001
0000
1000
0010
0100
0001
0000
0001
,
0010
0100
1000
0002
0000
0103
0010
0010
,
1000
0000
0000
0000
0010
0000
0000
0100
0000
0100
0000
0000
0001
0000
1000
0000
,
0001
0000
0000
0000
0010
0000
0000
0100
0000
0100
0000
0000
1000
0000
0001
0000
,
1000
0100
1000
0100
0010
0001
0010
0001
,
0100
1000
0100
0001
0010
0100
1000
0000
,
0001
0000
0100
0000
0010
0000
0000
0100
0000
0100
0000
0000
0010
0000
1000
0000
,
0001
0000
0010
0000
0100
0000
0000
0010
0000
0010
0000
0000
0001
0000
1000
0000
,
0010
0000
0100
0000
0001
0000
0000
1000
0000
1000
0000
0000
0001
0000
0010
0000
,
0100
0000
1000
0000
0001
0000
0000
0100
0000
0100
0000
0000
0010
0000
0010
0000
,
1000
0000
0001
0000
0010
0000
0000
0100
0000
0100
0000
0000
1000
0000
0010
0000
,
0100
0000
0001
0000
1000
0000
0000
0100
0000
0100
0000
0000
0010
0000
0100
0000
,
1000
0000
0010
0000
0100
0000
0000
0001
0000
0001
0000
0000
0010
0000
0001
0000
,
0100
0000
0010
0000
1000
0000
0000
0100
0000
0200
0000
0000
0310
0000
0000
0000
,
1002
0000
0100
0203
0000
0010
0320
0000
,
0230
0000
1300
0200
0000
0001
0301
0000
,
2001
0000
0100
3200
0000
0010
0320
0000
,
0230
0000
0301
0200
0000
1300
0001
0000
,
1002
0000
0103
0020
0000
1030
0200
0000
,
0310
0000
0000
0010
0001
0000
2000
0000
0000
0000
3001
0000
0100
0000
0000
0000
,
2001
0000
0000
0000
3100
0000
0020
0000
0000
0000
0031
0000
0100
0000
0000
0100
,
0010
0000
0000
0010
1000
0000
0002
0000
2000
0000
0000
0000
3003
0000
0000
0000
,
1001
0000
1000
0200
0000
0320
0000
0032
,
0000
0203
0000
2300
0000
3200
0000
0302
,
0000
1003
0000
0001
1000
0200
0000
0302
,
0000
0203
0000
2300
0000
3010
1010
0000
,
1001
0000
0001
0010
0100
2000
0000
3020
,
0000
0230
0000
0302
0000
1003
0001
0001
,
1000
0000
0010
1000
0100
0000
0010
0001
,
0100
1000
0100
0002
0000
0010
0013
0000
,
1001
0000
0000
1200
0000
0310
0001
1000
,
1001
0000
0000
0201
0000
0310
1000
0000
,
1001
0000
0000
0021
0000
0130
0010
0001
,
1001
0000
0000
1020
0000
0130
0001
0001
,
1000
0000
0000
0000
0010
0000
0000
0100
0000
0100
0000
0000
0001
0000
1000
0000
,
0001
0000
0000
0000
0010
0000
0000
0100
0000
0100
0000
0000
1000
0000
0001
0000
,
1000
0100
0010
0001
0100
1000
0100
0001
,
0020
0000
0000
0230
0000
0000
1300
0000
,
0001
0000
1000
0000
0010
0000
0000
0100
0000
0001
0000
0000
0100
0000
0010
0000
,
1000
0000
0001
0000
0010
0000
0000
0100
0000
1000
0000
0000
0010
0000
1000
0000
,
0001
0000
0010
0000
0100
0000
0000
0010
0000
0001
0000
0000
0100
0000
0010
0000
,
1000
0000
0100
0000
0010
0000
0000
0100
0000
1000
0000
0000
0001
0000
0001
0000
,
1000
0000
0100
0000
0010
0000
0000
0100
0000
1000
0000
0000
0001
0000
0100
0000
,
1000
0000
0100
0000
0001
0000
0000
0010
0000
0100
0000
0000
1000
0000
0010
0000
,
0001
0000
0010
0000
1000
0000
0000
0100
0000
0010
0000
0000
0001
0000
0010
0000
,
1000
0000
0010
0000
0001
0000
0000
0100
0000
0010
0000
0000
1000
0000
0100
0000
,
0020
0000
0000
0000
0130
0000
0000
1000
0000
0001
0000
0000
1000
0000
0010
0000
,
0100
0000
0001
0000
0010
0000
0000
0100
0000
0010
0000
0000
1002
0000
0000
0000
,
0013
0000
0001
0000
1000
0000
0000
0010
0000
0100
0000
0000
0001
0000
1000
0000
,
0100
0000
1000
0000
0010
0000
0000
0100
0000
0010
0000
0000
2001
0000
0000
0000
,
3001
0000
0100
0000
1000
0000
0000
0100
0000
0001
0000
0000
1002
0000
0000
0000
,
1003
0000
0100
0000
0001
0000
0000
0100
0000
1000
0000
0000
2001
0000
0000
0000
,
3001
0100
0001
0100
0010
1000
0010
1000
,
0100
0010
0001
0100
1000
0100
0001
0000
,
2002
0000
0000
0000
,
3003
0000
0000
0000
;

//---------------dance-single - ----------------
#NOTEDATA:;
#CHARTNAME:;
#STEPSTYPE:dance-single;
#DESCRIPTION:;
#CHARTSTYLE:;
#DIFFICULTY:Medium;
#METER:7;
#RADARVALUES:0.326253,0.379239,0.233378,0.425081,0.000000,274.000000,246.000000,28.000000,51.000000,0.000000,0.000000,0.000000,0.000000,0.000000,0.326253,0.379239,0.233378,0.425081,0.000000,274.000000,246.000000,28.000000,51.000000,0.000000,0.000000,0.000000,0.000000,0.000000;
#CREDIT:;
#NOTES:
0000
0000
0000
0000
,
0000
0000
0000
0000
,
0000
0000
0000
0000
,
0000
0000
0000
0000
,
1001
0000
0000
0202
0000
0000
0303
0000
,
1001
0000
0000
2200
0000
0000
3300
0000
,
1001
0000
0000
2020
0000
0000
3030
0000
,
1001
0000
0000
0012
0000
0000
1003
0000
,
1002
0000
0000
0203
0000
0000
0310
0000
,
2001
0000
0000
3200
0000
0000
0310
0000
,
0120
0000
0000
0032
0000
0000
0103
0000
,
0120
0000
0000
2030
0000
0000
3001
0000
,
1000
0100
0010
0001
,
1000
0010
0100
0001
,
0010
0010
0100
0100
,
2000
0001
0002
3003
,
0001
1000
0001
0000
0100
0000
0010
0000
,
1000
0001
1000
0000
0100
0000
0010
0000
,
0001
0100
0001
0000
1000
0000
0010
0000
,
1000
0100
1000
0000
0001
0000
1000
1000
,
0001
0100
0010
0000
0100
0000
0001
0000
,
1000
0100
0010
0000
0100
0000
1000
0000
,
0010
0100
0001
0000
0010
0000
0100
0000
,
1000
0010
0100
0000
0001
0000
1000
0000
,
2001
0000
0000
3200
0000
0000
0302
0000
,
0203
0000
0000
0320
0000
0000
0031
0000
,
1002
0000
0000
0203
0000
0000
2300
0000
,
3200
0000
0000
0320
0000
0000
0130
0000
,
1002
0000
0000
0023
0000
0000
2030
0000
,
3020
0000
0000
0032
0000
0000
0103
0000
,
2001
0000
0000
3020
0000
0000
0032
0000
,
0023
0000
0000
2000
0000
0000
3030
0000
,
1001
0000
0000
0001
0000
1000
0000
0001
,
0000
0100
0000
0001
0000
0010
0000
0100
,
0000
1000
0000
0010
0000
1000
0000
0001
,
0000
0010
0000
0001
0000
1000
0001
0000
,
0101
0000
0000
1000
0000
0010
0000
0100
,
0000
0001
0000
0010
0000
0100
0000
1000
,
0000
0001
0000
0100
0000
0001
0000
1000
,
0100
0000
0010
0001
0000
0001
1000
0000
,
1002
0000
0000
0000
0000
0103
0010
2000
,
0000
0000
0000
3100
0000
0010
0001
0000
,
2001
0000
0000
0000
0000
3010
0100
0002
,
0000
0000
0000
0023
0000
0130
1000
0000
,
1001
0000
0001
0000
0100
0000
0010
1000
,
0100
0000
0100
0000
0010
0001
1000
0000
,
0001
0100
0010
1000
,
2002
0000
0000
3003
0000
0000
1001
0000
,
0001
1000
0100
0000
0010
0000
0100
0000
,
1000
0001
0100
0000
0010
0000
0100
0000
,
0001
0010
0100
0000
0010
0000
0001
0000
,
1000
0010
0100
0000
0001
0000
1000
1000
,
0001
0010
0100
0000
1000
0000
0010
0000
,
0100
0001
0010
0000
0100
0000
1000
0000
,
0010
1000
0100
0000
0010
0000
0001
0000
,
0100
0010
1000
0000
0001
0000
1000
0100
,
0020
0031
0100
1000
,
0100
0010
0100
0000
0001
0000
1002
0000
,
1003
0100
1000
0000
0100
0000
0001
0000
,
0100
0010
0100
0000
1000
0000
2001
0000
,
3001
0100
0010
0000
0100
0000
1002
0000
,
1003
0100
0010
0000
0100
0000
2001
0000
,
3010
0010
0100
0100
,
0001
1000
0001
1000
0001
1000
0100
0000
,
0220
0000
0000
0000
,
0330
0000
0000
0000
;

//---------------dance-single - ----------------
#NOTEDATA:;
#CHARTNAME:;
#STEPSTYPE:dance-single;
#DESCRIPTION:;
#CHARTSTYLE:;
#DIFFICULTY:Easy;
#METER:4;
#RADARVALUES:0.203610,0.243797,0.083349,0.241713,0.000000,171.000000,161.000000,10.000000,29.000000,0.000000,0.000000,0.000000,0.000000,0.000000,0.203610,0.243797,0.083349,0.241713,0.000000,171.000000,161.000000,10.000000,29.000000,0.000000,0.000000,0.000000,0.000000,0.000000;
#CREDIT:;
#NOTES:
0000
0000
0000
0000
,
0000
0000
0000
0000
,
0000
0000
0000
0000
,
0000
0000
0000
0000
,
2200
0000
0000
3300
0000
0000
0000
0000
,
0202
0000
0000
0303
0000
0000
0000
0000
,
0022
0000
0000
0033
0000
0000
0000
0000
,
2020
0000
0000
3030
0000
0000
1000
0000
,
2200
0000
0000
3300
0000
0000
0001
0000
,
0202
0000
0000
0303
0000
0000
1000
0000
,
0001
1000
0100
0000
,
0010
0001
1000
0001
,
0100
0000
0010
0000
,
1000
0000
0001
0000
,
0010
0100
0010
0100
,
1000
0002
2000
3003
,
0001
1000
0010
0000
,
1000
0001
0010
0000
,
0001
1000
0100
0000
,
1000
0001
0100
0000
,
0010
1000
0100
0000
,
0010
0001
0100
0000
,
0010
0100
0001
0000
,
0010
0100
1000
0000
,
2001
0000
0000
3000
,
0200
0000
0000
0300
,
1002
0000
0000
0003
,
0200
0000
0000
0300
,
2001
0000
0000
3000
,
0020
0000
0000
0030
,
1002
0000
0000
0003
,
0020
0000
0130
0010
,
0100
0000
0100
0010
,
0001
0100
0010
1000
,
0001
0000
1000
0010
,
0100
0001
0010
0100
,
1000
0000
0001
0100
,
0010
1000
0001
0000
,
1000
0100
0010
0100
,
1000
0001
0100
0010
,
2000
0000
0000
3001
,
0020
0000
0130
0010
,
0002
0000
0000
1003
,
0020
0000
0130
0001
,
1000
0100
0010
0000
,
0001
0100
0010
0000
,
1000
1000
0001
0001
,
0020
0000
0000
0030
0000
0000
0000
0000
,
0001
0100
0010
0000
,
1000
0010
0100
0000
,
0001
0010
0100
0000
,
1000
0100
0010
0000
,
0100
1000
0010
0000
,
0100
0001
0010
0000
,
0001
0100
0010
0000
,
1000
0100
0010
0000
,
0001
0100
1000
0000
,
1000
0100
0001
0000
,
1000
0100
0001
0000
,
0001
0100
1000
0000
,
0010
1000
0100
0000
,
0100
0001
0010
0000
,
1000
1000
0001
0001
,
1000
0100
0010
0002
,
2000
0000
0000
0000
,
3003
0000
0000
0000
;

//---------------dance-single - ----------------
#NOTEDATA:;
#CHARTNAME:;
#STEPSTYPE:dance-single;
#DESCRIPTION:;
#CHARTSTYLE:;
#DIFFICULTY:Beginner;
#METER:2;
#RADARVALUES:0.130977,0.162531,0.075014,0.083349,0.000000,110.000000,101.000000,9.000000,10.000000,0.000000,0.000000,0.000000,0.000000,0.000000,0.130977,0.162531,0.075014,0.083349,0.000000,110.000000,101.000000,9.000000,10.000000,0.000000,0.000000,0.000000,0.000000,0.000000;
#CREDIT:;
#NOTES:
0000
0000
0000
0000
,
0000
0000
0000
0000
,
0000
0000
0000
0000
,
0000
0000
0000
0000
,
1001
0000
0000
0000
,
1001
0000
0000
0000
,
0110
0000
0000
0000
,
0110
0000
0000
0000
,
2000
0000
0000
3000
0000
0000
0000
0000
,
0002
0000
0000
0003
0000
0000
0000
0000
,
1000
0000
1000
0000
,
0100
0000
0010
0000
,
0001
0000
0001
0000
,
1000
0000
1000
0000
,
0010
0000
0100
0000
,
0002
0000
0000
0003
,
1000
0000
1000
0000
,
0100
0000
0100
0000
,
0010
0000
0010
0000
,
0001
0000
0001
0000
,
0100
0000
0100
0000
,
0010
0000
0010
0000
,
1000
0000
1000
0000
,
0001
0000
0001
0000
,
1001
0000
0000
0000
,
1000
0000
0000
0000
,
1001
0000
0000
0000
,
0001
0000
0000
0000
,
1001
0000
0000
0000
,
1000
0000
0000
0000
,
1001
0000
0000
0000
,
0001
0000
0000
0000
,
1000
0000
0100
0000
,
1000
0000
0100
0000
,
0010
0000
0001
0000
,
0010
0000
0001
0000
,
0100
0000
0001
0000
,
0100
0000
0001
0000
,
1000
0000
0010
0000
,
1000
0000
0010
0000
,
2000
0000
0000
3000
0000
0000
0000
0000
,
0002
0000
0000
0003
0000
0000
0000
0000
,
2000
0000
0000
3000
0000
0000
0000
0000
,
0002
0000
0000
0003
0000
0000
0000
0000
,
1000
0000
1000
0000
,
0100
0000
0100
0000
,
0010
0000
0001
0000
,
2000
0000
0000
3000
0000
0000
0000
0000
,
0001
0000
0001
0000
,
0100
0000
0100
0000
,
0010
0000
0010
0000
,
1000
0000
1000
0000
,
0100
0000
0100
0000
,
0010
0000
0010
0000
,
0001
0000
0001
0000
,
1000
0000
1000
0000
,
0001
0000
0001
0000
,
0100
0000
0100
0000
,
1000
0000
1000
0000
,
0010
0000
0010
0000
,
0001
0000
0001
0000
,
1000
0000
1000
0000
,
0100
0000
0100
0000
,
0010
0000
0100
0000
,
2002
0000
0000
0000
,
3003
0000
0000
0000
;

//---------------dance-single - ----------------
#NOTEDATA:;
#CHARTNAME:;
#STEPSTYPE:dance-single;
#DESCRIPTION:;
#CHARTSTYLE:;
#DIFFICULTY:Challenge;
#METER:14;
#RADARVALUES:0.617976,0.677213,0.341732,0.291723,0.616785,519.000000,478.000000,41.000000,35.000000,0.000000,0.000000,0.000000,0.000000,0.000000,0.617976,0.677213,0.341732,0.291723,0.616785,519.000000,478.000000,41.000000,35.000000,0.000000,0.000000,0.000000,0.000000,0.000000;
#CREDIT:;
#NOTES:
0000
0000
0000
0000
,
0000
0000
0000
0000
,
0000
0000
0000
0000
,
0000
0000
0000
0000
,
1001
0000
0000
1020
0000
0100
0000
0130
,
0110
0000
0100
0102
0000
1000
0000
1003
,
1001
0000
0001
2001
0100
0100
0000
3100
,
0110
0010
0001
1002
0000
0103
0010
0000
,
1000
0000
0100
0000
0000
0010
0000
0100
0000
1000
0000
0000
0100
0000
1000
0000
,
0001
0000
0100
0000
0000
0010
0000
0100
0000
0001
0000
0000
0100
0000
0001
0000
,
1001
0000
1000
1002
0100
0100
0000
1003
,
1100
0100
0010
0012
0000
1003
0001
0001
,
1000
0000
0100
0000
0000
0010
0000
0001
0000
0100
0000
0000
1000
0000
0100
0000
,
0001
0000
0010
0000
0000
0100
0000
1000
0000
0010
0000
0000
0001
0000
0010
0000
,
1000
0100
0001
0100
1000
0010
0001
0010
,
1000
0010
1000
0010
1000
0001
1000
0001
1000
0100
1000
0100
0010
0000
0000
0000
,
0001
0000
0100
0000
0010
1000
0000
1000
0000
0010
1000
0000
0100
0000
0010
0000
,
0100
0000
1000
0000
0001
0100
0000
0100
0000
0001
0100
0000
0010
1000
0010
1000
,
0001
0000
0010
0000
0100
1000
0000
1000
0000
0100
1000
0000
0001
0000
0100
0000
,
0010
0000
1000
0000
0001
0010
0000
0010
0000
0001
0010
0000
0100
0000
0100
0000
,
0010
0000
0001
0000
1000
0010
0000
0010
0000
0100
0001
0000
1000
0000
0100
0000
,
1000
0000
0010
0000
0100
0001
0000
0001
0000
0010
0100
0000
1000
0001
1000
0001
,
0100
0000
0010
0000
1000
0100
0000
0100
0000
0010
0001
0000
0100
0000
0010
0000
,
1000
0000
0001
0000
0010
0100
0000
0100
0000
2000
0000
0000
3001
0100
0010
1000
,
0002
0000
0103
1002
0000
1003
0101
0000
,
1002
0000
0103
2010
0000
3010
0101
0000
,
2001
0000
3100
2001
0000
3001
1100
0000
,
2001
0000
0000
0000
3100
0000
0012
0000
0000
0000
1003
0000
0001
0100
0010
1000
,
0002
0000
0103
2010
0000
3100
0011
0000
,
2001
0000
3000
0001
0100
0000
0210
0000
0000
0000
0301
0000
1000
0100
0010
0001
,
2000
0000
0000
0000
3100
0000
0012
0000
0000
0000
0103
0000
1010
0000
0000
0010
,
1000
0000
0000
1000
0100
0000
0012
0000
1000
0000
1003
0000
0001
0100
0001
0100
,
0001
0000
1000
0100
0000
0000
0100
0010
0000
0000
0010
0001
0000
0000
0001
0100
,
0000
0000
0100
1000
0000
0000
1000
0100
0000
0000
0100
0001
0000
0000
0001
1000
,
0000
0000
1000
0001
0000
0000
0001
0010
0000
0000
0010
1000
0000
0000
1000
0010
,
0000
0000
0010
0001
0000
0000
0001
0100
0000
0000
0100
0010
2000
0000
0000
0000
,
3001
0000
1000
0100
0000
0000
0100
0001
0000
0000
0001
0100
0000
0000
0100
0010
,
0000
0000
0010
0001
0000
0000
0001
0100
0000
0000
0001
1000
0001
0000
1000
0000
,
0100
0000
0010
0001
0000
0000
0001
0100
0000
0000
0100
0010
0000
0000
0010
1000
,
0001
0000
1000
0100
0000
0010
0001
0000
,
1001
0000
0000
0021
0000
0130
1000
0001
,
1001
0000
0000
1020
0000
0130
0001
0000
,
1001
0000
0000
1200
0000
0310
0001
1000
,
1001
0000
0000
0201
0000
0310
1000
1000
,
0001
0000
0010
0000
0000
0100
0000
1000
0000
0010
0000
0000
0001
0000
0010
0000
,
1000
0000
0100
0000
0000
0010
0000
0001
0000
0100
0000
0000
1000
0000
0100
0000
,
0001
0010
1000
0010
0001
0100
1000
0100
,
0002
0000
0000
0000
0000
0000
2003
0000
0000
0000
0000
0000
3001
0010
0100
1000
,
0001
0000
0100
0000
0010
1000
0000
0001
0000
1000
0100
0000
0010
0000
0100
0000
,
1000
0000
0010
0000
0100
0001
0000
1000
0000
0001
0010
0000
0100
1000
0100
1000
,
0001
0000
0010
0000
0100
1000
0000
0010
0000
0100
0001
0000
1000
0000
0100
0000
,
1000
0000
0010
0000
0100
0001
0000
0010
0000
0100
1000
0000
0001
0000
0001
0000
,
0100
0000
1000
0000
0100
0001
0000
0010
0000
0100
1000
0000
0001
0000
1000
0000
,
0100
0000
0001
0000
0100
1000
0000
0010
0000
0100
0001
0000
0010
0100
0010
0100
,
1000
0000
0010
0000
0001
0010
0000
1000
0000
0100
0010
0000
0001
0000
1000
0000
,
0001
0000
0100
0000
1000
0100
0000
0001
0000
0010
0100
0000
1000
0001
1000
0001
,
0100
0010
0100
0010
1000
0001
0000
0001
1000
0000
0100
0000
0001
0000
0100
0000
,
1000
0000
0010
0000
0100
0001
0000
1000
0000
0001
0010
0000
0210
0000
0000
0000
,
1300
0000
0010
0000
0100
0001
0000
0010
0000
0001
0100
0000
1000
0000
0100
0000
,
0001
0000
0010
0000
0100
1000
0000
0001
0000
1000
0010
0000
0210
0000
0000
0000
,
0301
0000
0010
0000
1000
0010
0000
0001
0000
0100
0010
0000
0120
0000
0000
0000
,
1030
0000
0010
0000
0001
0010
0000
1000
0000
0100
0010
0000
0120
0000
0000
0000
,
0031
0100
1000
0100
0001
0010
1000
0010
,
0001
0100
0001
0100
0001
1000
0001
1000
0001
0010
0001
0010
0100
1000
0001
0200
,
0020
0000
0000
0000
,
0330
0000
0000
0000
;
