#VERSION:0.83;
#TITLE:do i smile?;
#SUBTITLE:;
#ARTIST:t+pazolite;
#TITLETRANSLIT:;
#SUBTITLETRANSLIT:;
#ARTISTTRANSLIT:;
#GENRE:Extreme Hardcore;
#ORIGIN:;
#CREDIT:;
#BANNER:do i smile.png;
#BACKGROUND:do i smile-bg.png;
#PREVIEWVID:;
#JACKET:do i smile-jacket.png;
#CDIMAGE:;
#DISCIMAGE:;
#LYRICSPATH:;
#CDTITLE:cdtitle.png;
#MUSIC:do i smile.ogg;
#OFFSET:-0.119101;
#SAMPLESTART:101.004601;
#SAMPLELENGTH:14.769234;
#SELECTABLE:YES;
#DISPLAYBPM:65.000000:321.000000;
#BPMS:0.000=130.000,
30.000=520.000,
32.000=260.000,
96.000=130.000,
141.000=131.000,
142.000=134.000,
143.000=138.000,
144.000=140.500,
145.000=144.000,
146.000=146.000,
147.000=148.750,
148.000=153.750,
149.000=155.000,
150.000=158.250,
151.000=162.250,
152.000=164.000,
153.000=167.000,
154.000=170.500,
155.000=174.000,
156.000=175.500,
157.000=179.000,
158.000=183.000,
159.000=185.000,
160.000=188.000,
161.000=191.000,
162.000=193.000,
163.000=198.000,
164.000=201.500,
165.000=204.000,
166.000=207.000,
167.000=210.000,
168.000=212.000,
169.000=215.000,
170.000=217.000,
171.000=220.000,
172.000=225.000,
173.000=228.000,
175.000=234.000,
177.000=240.000,
179.000=246.000,
181.000=252.000,
183.000=259.000,
185.000=264.000,
187.000=268.000,
189.000=277.000,
191.000=283.000,
193.000=287.000,
195.000=294.000,
197.000=300.000,
199.000=306.000,
201.000=311.000,
203.000=316.000,
205.000=321.000,
237.000=326.000,
238.000=332.000,
239.000=338.000,
240.000=344.000,
241.000=350.000,
242.000=356.000,
243.000=362.000,
244.000=370.000,
245.000=376.000,
246.000=382.000,
247.000=389.000,
248.000=400.000,
249.000=415.000,
250.000=430.000,
251.000=445.000,
252.000=460.000,
253.000=475.000,
254.000=480.000,
255.000=490.000,
256.000=500.000,
261.000=520.000,
262.000=530.000,
263.000=550.000,
264.000=570.000,
265.000=600.000,
266.000=640.000,
267.000=680.000,
269.000=690.000,
273.000=700.000,
277.000=760.000,
281.000=900.000,
285.000=1000.000,
293.000=1100.000,
297.000=1200.000,
301.000=1300.000,
305.000=1500.000,
309.000=1700.000,
313.000=2000.000,
389.000=1900.000,
390.500=260.000,
518.000=130.000,
534.000=65.000;
#STOPS:30.000=0.519,
30.500=0.058,
31.000=0.058,
31.500=0.058,
134.000=0.692,
140.500=0.692,
390.500=0.359,
453.000=0.692;
#DELAYS:;
#WARPS:;
#TIMESIGNATURES:0.000=4=4;
#TICKCOUNTS:0.000=4;
#COMBOS:0.000=1;
#SPEEDS:0.000=1.000=0.000=0;
#SCROLLS:0.000=1.000;
#FAKES:;
#LABELS:0.000=Song Start;
#BGCHANGES:;
#KEYSOUNDS:;
#ATTACKS:
;

//---------------dance-single - ----------------
#NOTEDATA:;
#CHARTNAME:;
#STEPSTYPE:dance-single;
#DESCRIPTION:;
#CHARTSTYLE:;
#DIFFICULTY:Challenge;
#METER:17;
#RADARVALUES:0.885581,1.493915,0.585981,0.046262,0.308411,804.000000,728.000000,76.000000,6.000000,8.000000,0.000000,2.000000,0.000000,0.000000,0.885581,1.493915,0.585981,0.046262,0.308411,804.000000,728.000000,76.000000,6.000000,8.000000,0.000000,2.000000,0.000000,0.000000;
#CREDIT:;
#OFFSET:-0.119101;
#BPMS:0.000000=130.000000
,30.000000=520.000000
,32.000000=260.000000
,96.000000=130.000000
,141.000000=131.000000
,142.000000=134.000000
,143.000000=138.000000
,144.000000=140.500000
,145.000000=144.000000
,146.000000=146.000000
,147.000000=148.750000
,148.000000=153.750000
,149.000000=155.000000
,150.000000=158.250000
,151.000000=162.250000
,152.000000=164.000000
,153.000000=167.000000
,154.000000=170.500000
,155.000000=174.000000
,156.000000=175.500000
,157.000000=179.000000
,158.000000=183.000000
,159.000000=185.000000
,160.000000=188.000000
,161.000000=191.000000
,162.000000=193.000000
,163.000000=198.000000
,164.000000=201.500000
,165.000000=204.000000
,166.000000=207.000000
,167.000000=210.000000
,168.000000=212.000000
,169.000000=215.000000
,170.000000=217.000000
,171.000000=220.000000
,172.000000=225.000000
,173.000000=228.000000
,175.000000=234.000000
,177.000000=240.000000
,179.000000=246.000000
,181.000000=251.999985
,183.000000=259.000000
,185.000000=264.000000
,187.000000=268.000000
,189.000000=277.000000
,191.000000=283.000000
,193.000000=287.000000
,195.000000=294.000000
,197.000000=300.000000
,199.000000=306.000000
,201.000000=311.000000
,203.000000=316.000000
,205.000000=321.000000
,237.000000=326.000000
,238.000000=332.000000
,239.000000=338.000000
,240.000000=344.000000
,241.000000=350.000000
,242.000000=356.000000
,243.000000=362.000000
,244.000000=370.000000
,245.000000=376.000000
,246.000000=382.000000
,247.000000=389.000000
,248.000000=400.000000
,249.000000=415.000000
,250.000000=430.000000
,251.000000=445.000000
,252.000000=460.000000
,253.000000=475.000000
,254.000000=480.000000
,255.000000=490.000031
,256.000000=499.999969
,261.000000=520.000000
,262.000000=530.000000
,263.000000=550.000000
,264.000000=570.000000
,265.000000=600.000000
,266.000000=640.000000
,267.000000=680.000000
,269.000000=690.000000
,273.000000=700.000000
,277.000000=760.000000
,281.000000=900.000000
,285.000000=999.999939
,293.000000=1100.000000
,297.000000=1200.000000
,301.000000=1300.000000
,305.000000=1500.000000
,309.000000=1700.000000
,313.000000=1999.999878
,389.000000=1492.599976
,390.500000=260.000000
,518.000000=130.000000
,534.000000=65.000000
;
#STOPS:30.000000=0.519231
,30.500000=0.057693
,31.000000=0.057693
,31.500000=0.057693
,134.000000=0.692307
,140.500000=0.692307
,390.500000=0.345154
,453.000000=0.692307
;
#DELAYS:;
#WARPS:;
#TIMESIGNATURES:0.000000=4=4
;
#TICKCOUNTS:0.000000=4
;
#COMBOS:0.000000=1
;
#SPEEDS:0.000000=1.000000=0.000000=0
;
#SCROLLS:0.000000=1.000000
;
#FAKES:;
#LABELS:0.000000=Song Start
;
#DISPLAYBPM:*;
#NOTES:
0000
0000
0000
0000
,
0000
0000
0000
0000
,
0000
0000
0000
0000
,
0000
0000
0000
0000
,
1001
0001
1000
0001
,
0110
0100
0010
0100
,
1001
0100
1001
0010
,
0110
0000
1001
0000
0002
0103
0010
0100
,
0001
0001
1000
0001
1000
0001
0100
0010
,
0100
1000
0001
0010
1000
0100
0001
0100
,
1000
0000
0001
0000
1001
0000
0000
0000
0011
0000
0000
1100
0000
0000
1001
0000
,
1000
0001
0010
1000
0010
0001
0100
0010
,
1000
1000
0001
1000
0001
1000
0100
0010
,
0100
0001
1000
0010
0001
0100
1000
0100
,
0001
0000
1000
0000
1001
0000
0000
0000
0011
0000
0000
1100
0000
0000
1001
0000
,
0001
0010
0001
0010
0100
1000
0001
1000
,
0010
0010
1000
0010
1000
0010
0001
1000
,
0100
0001
0010
0001
0100
1000
0100
0001
,
0010
0000
0100
0000
1100
0000
0000
0000
0011
0000
0000
1001
0000
0000
1010
0000
,
1000
0010
0001
0010
0100
0001
1000
0100
,
0010
0010
0001
0010
0001
0010
1000
0001
,
0100
1000
0010
1000
0100
0001
0100
1000
,
0010
0000
0100
0000
0101
0000
0000
0000
0011
0000
0000
1001
0000
0000
0001
0000
,
2000
0000
3001
1000
0010
0100
0001
1000
,
0100
0000
0100
0000
0100
0000
0100
0000
1000
0001
1000
0010
0000
0010
0000
1000
,
0001
0000
0001
0000
0001
0000
0001
0000
0100
0010
0100
0001
0000
0001
0000
1000
,
0100
0000
0100
0000
0100
0000
0100
0000
0010
0001
1000
0001
0000
0001
0000
0100
,
0010
0000
0010
0000
0010
0000
0010
0000
1000
0001
0010
0100
0000
0010
0001
0100
,
0010
0000
0000
0000
0000
0000
0010
0000
0000
0000
0000
0000
1010
0000
0000
0000
0000
0000
0010
0000
0000
0100
0000
0000
0001
0000
0000
1000
0000
0000
0100
0000
0000
0010
0000
0000
0100
0000
0000
0000
0010
0000
0100
0000
0000
0000
0010
0000
,
0001
0000
0001
0000
1000
0000
1001
0000
1000
0010
0100
0010
1000
0000
0001
0010
,
0100
0000
0000
0000
0000
0000
0100
0000
0000
0000
0000
0000
0110
0000
0000
0000
0000
0000
0100
0000
0000
1000
0000
0000
0010
0000
0000
0100
0000
0000
0001
0000
0000
1000
0000
0000
0001
0000
0000
0000
0100
0000
0001
0000
0000
0000
1000
0000
,
0010
0000
0010
0000
1000
0000
1010
0000
1000
0010
0001
0010
1000
0100
1000
0100
,
1100
0000
1000
0000
0001
0000
1000
0001
0101
0000
0001
0100
0001
1000
0100
0000
,
1100
1000
0101
0001
1100
0011
0001
1000
,
0001
1000
1010
0000
1000
0010
1000
0001
0010
0000
0011
0000
1000
0000
1010
0000
,
0001
0000
0011
0000
1001
0000
1000
0000
0001
0000
0001
0000
1000
0100
0010
0001
,
0000
0001
0000
1000
0001
0000
0001
0000
1000
0000
1000
0000
0001
0100
0010
1000
,
0000
1000
0000
0001
1000
0000
1000
0000
0100
0000
0100
0000
1000
0100
0010
0001
,
0000
0001
0000
1000
0001
0000
0001
0000
0100
0000
0100
0000
0001
0100
0010
1000
,
0000
1000
0000
0001
1000
0000
0010
0000
1000
0000
0010
0000
0100
0001
0100
0001
,
0000
1000
0000
0100
0010
0000
0100
0000
0010
0000
0100
0000
1000
0001
1000
0001
,
0000
0100
0000
0010
1000
0000
0100
0000
0010
0000
0001
0000
1000
0001
1000
0001
,
0000
1000
0000
0010
0100
0000
0001
0000
1000
0000
0001
0000
0010
0100
0010
0100
,
0000
0010
0000
0001
1000
0000
0010
0000
1000
0000
0010
0000
0001
0000
0010
0000
,
0001
0010
1000
0010
0001
0010
1000
0010
,
1000
0010
1000
0100
1000
0100
0001
0100
,
0001
0100
1000
0100
0001
0100
1000
0100
,
1000
0100
1000
0010
1000
0010
0001
0010
,
0001
0010
1000
0100
0001
1000
0010
0001
,
0010
0001
1000
0100
1000
0100
0001
0100
,
0001
0100
1000
0010
0001
1000
0200
0000
,
0000
0000
0301
0010
0001
0010
0001
0100
,
1000
0100
0010
1000
0010
1000
0100
0001
,
0100
0010
0001
1000
0001
1000
0010
0001
,
0010
0100
0001
1000
0001
1000
0100
0010
,
1000
0010
0001
0100
0001
0100
1000
0100
,
0010
0001
0010
1000
0010
1000
0100
0001
,
0100
0010
1000
0010
1000
0010
0001
0100
,
0010
1000
0010
0100
0001
1000
0100
0000
,
1000
1MM1
0001
1000
,
0001
1000
0001
1000
,
0001
1000
0001
1000
,
0001
1000
0001
1000
,
0001
1000
0001
1000
,
0001
1000
0001
1000
,
0001
1000
0001
1000
,
0001
1000
0001
1000
,
0004
4000
0000
0000
,
0000
0000
0000
0000
,
0000
0000
0000
0000
,
0000
0000
0000
0000
,
0000
0000
0000
0000
,
0000
0000
0000
0000
,
0000
0000
0000
0000
,
0000
0000
0000
0000
,
0000
0000
0000
0000
,
0000
0000
0000
0000
,
0000
0000
0000
0000
,
0000
0000
0000
0000
,
0000
0000
0000
0000
,
0000
0000
0000
0000
,
0000
0000
0000
0000
,
0000
0000
0000
0000
,
0000
0000
0000
0000
,
0000
0000
0000
0000
,
0000
0000
0000
0000
,
0000
0000
0000
0000
,
0000
0000
0000
0000
,
0000
0000
0000
0000
,
0000
0000
0000
0000
,
0000
0000
0000
0000
,
0000
0000
0000
0000
,
0000
0000
0000
0000
,
0000
0000
0000
0000
0000
0MM0
0000
0000
,
0000
0000
0000
0000
,
0000
0000
0000
0000
,
0000
3003
0000
0000
,
0000
0000
0000
0000
0000
MMMM
0001
0100
,
1000
0100
0001
0000
0001
0000
0001
0000
,
0001
0000
0010
0001
1000
0010
0000
0010
,
0000
0100
0001
0000
1000
0000
1000
0000
,
1000
0000
0001
0010
0100
1000
0000
1000
,
0000
0010
0110
0000
0100
0000
0100
0000
,
0100
0000
0010
1000
0001
0010
0000
0010
,
0000
0100
1000
0000
0001
0000
0001
0000
,
0001
0000
1000
0010
1000
0001
0011
0000
,
1100
0000
1001
0000
0001
0100
0001
0100
,
0001
0100
0010
1000
0001
0010
0100
0010
,
0001
1000
1001
0000
1000
0100
1000
0100
,
1000
0100
0010
0001
1000
0001
0101
0000
,
1010
0000
1001
0000
0001
0010
0001
0010
,
0001
0100
0110
0000
1000
0010
1000
0010
,
1000
0100
0110
0000
0001
0101
0000
1000
,
1100
0000
1001
0000
1000
0100
0001
0100
,
1000
0100
0001
0100
1000
1000
0100
0010
,
0001
0100
0010
1000
0001
0001
1000
0001
,
0101
0000
0000
0110
0000
0000
1010
0000
0010
0000
1000
0000
0100
0000
0001
0000
,
0100
0001
0100
1000
0001
0100
1000
0100
,
0001
0100
1000
0100
0001
0001
0100
0010
,
1000
0001
1000
0100
0010
0010
0001
1000
,
1001
0000
0000
0011
0000
0000
1100
0000
1000
0000
0001
0000
1000
0000
0010
0000
,
0001
1000
0100
0001
1000
0010
0001
0010
,
1000
0010
0001
0010
1000
1000
0100
0001
,
0100
1000
0010
0100
0001
0001
1000
0100
,
1100
0000
0000
0011
0000
0000
0101
0000
0001
0000
1000
0000
0010
0000
0001
0000
,
0010
0001
0010
1000
0001
0010
1000
0010
,
0001
0010
1000
0010
0001
0001
0100
1000
,
0100
0001
0010
0100
1000
1000
0010
0100
,
0101
0000
0000
1010
0000
0000
1000
0000
0002
0000
0000
0000
0010
0000
0010
0000
,
0000
1000
1003
0001
1001
0000
0101
0000
,
1001
1100
0011
0101
,
1010
0000
1100
0011
1001
0000
0100
0000
,
0100
0100
1001
0100
,
1100
0000
0011
0000
0000
0101
0000
0000
2002
0000
3003
0000
0000
0000
0000
0000
;

//---------------dance-single - ----------------
#NOTEDATA:;
#CHARTNAME:;
#STEPSTYPE:dance-single;
#DESCRIPTION:;
#CHARTSTYLE:;
#DIFFICULTY:Hard;
#METER:15;
#RADARVALUES:0.721462,1.182612,0.354673,0.138785,0.092523,655.000000,609.000000,46.000000,18.000000,0.000000,0.000000,0.000000,0.000000,0.000000,0.721462,1.182612,0.354673,0.138785,0.092523,655.000000,609.000000,46.000000,18.000000,0.000000,0.000000,0.000000,0.000000,0.000000;
#CREDIT:;
#OFFSET:-0.119101;
#BPMS:0.000000=130.000000
,30.000000=65.000000
,31.000000=260.000000
,95.000000=130.000000
,140.000000=131.000000
,141.000000=134.000000
,142.000000=138.000000
,143.000000=140.500000
,144.000000=144.000000
,145.000000=146.000000
,146.000000=148.750000
,147.000000=153.750000
,148.000000=155.000000
,149.000000=158.250000
,150.000000=162.250000
,151.000000=164.000000
,152.000000=167.000000
,153.000000=170.500000
,154.000000=174.000000
,155.000000=175.500000
,156.000000=179.000000
,157.000000=183.000000
,158.000000=185.000000
,159.000000=188.000000
,160.000000=191.000000
,161.000000=193.000000
,162.000000=198.000000
,163.000000=201.500000
,164.000000=204.000000
,165.000000=207.000000
,166.000000=210.000000
,167.000000=212.000000
,168.000000=215.000000
,169.000000=217.000000
,170.000000=220.000000
,171.000000=225.000000
,172.000000=228.000000
,174.000000=234.000000
,176.000000=240.000000
,178.000000=246.000000
,180.000000=251.999985
,182.000000=259.000000
,184.000000=264.000000
,186.000000=268.000000
,188.000000=277.000000
,190.000000=283.000000
,192.000000=287.000000
,194.000000=294.000000
,196.000000=300.000000
,198.000000=306.000000
,200.000000=311.000000
,202.000000=316.000000
,204.000000=321.000000
,236.000000=326.000000
,237.000000=332.000000
,238.000000=338.000000
,239.000000=344.000000
,240.000000=350.000000
,241.000000=356.000000
,242.000000=362.000000
,243.000000=370.000000
,244.000000=376.000000
,245.000000=382.000000
,246.000000=389.000000
,247.000000=400.000000
,248.000000=415.000000
,249.000000=430.000000
,250.000000=445.000000
,251.000000=460.000000
,252.000000=475.000000
,253.000000=480.000000
,254.000000=490.000031
,255.000000=499.999969
,260.000000=520.000000
,261.000000=530.000000
,262.000000=550.000000
,263.000000=570.000000
,264.000000=600.000000
,265.000000=640.000000
,266.000000=680.000000
,268.000000=690.000000
,272.000000=700.000000
,276.000000=760.000000
,280.000000=900.000000
,284.000000=999.999939
,292.000000=1100.000000
,296.000000=1200.000000
,300.000000=1300.000000
,304.000000=1500.000000
,308.000000=1700.000000
,312.000000=1999.999878
,388.000000=1492.599976
,389.500000=260.000000
,517.000000=130.000000
,533.000000=65.000000
;
#STOPS:133.000000=0.692307
,139.500000=0.692307
,389.500000=0.345154
,452.000000=0.692307
;
#DELAYS:;
#WARPS:;
#TIMESIGNATURES:0.000000=4=4
;
#TICKCOUNTS:0.000000=4
;
#COMBOS:0.000000=1
;
#SPEEDS:0.000000=1.000000=0.000000=0
;
#SCROLLS:0.000000=1.000000
;
#FAKES:;
#LABELS:0.000000=Song Start
;
#DISPLAYBPM:130.000000:321.000000;
#NOTES:
0000
0000
0000
0000
,
0000
0000
0000
0000
,
0000
0000
0000
0000
,
0000
0000
0000
0000
,
1001
0001
0001
0001
,
0110
0100
0100
0100
,
1001
1000
0110
0010
,
1001
0000
0000
0000
0000
0000
0000
0000
0110
0000
0000
0000
0000
0000
0000
0000
2000
0000
0000
0000
0000
3001
1000
0001
0010
0000
0000
0000
0001
0000
0000
0000
,
0010
0000
0001
0010
0100
1000
0001
0100
,
0010
0100
0010
1000
0001
1000
0100
0010
,
0001
0000
0000
0000
1000
0000
0000
0001
0000
0000
1000
0000
0001
0000
0010
0000
,
0001
0100
0001
0010
0001
0100
0010
1000
,
0010
0000
1000
0010
0100
0001
1000
0100
,
0010
0100
0010
0001
1000
0001
0100
0010
,
1000
0000
0000
0000
0001
0000
0000
1000
0000
0000
0001
0000
0010
0000
0100
0000
,
1000
0010
0100
0001
1000
0100
1000
0001
,
1000
0000
0001
0100
0010
1000
0001
0010
,
0100
1000
0100
1000
0001
0100
0010
1000
,
0001
0000
0000
0000
1000
0000
0000
0001
0000
0000
1000
0000
0001
0000
0010
0000
,
0001
0100
0010
1000
0001
0010
0001
1000
,
0001
0000
1000
0100
0010
0001
1000
0010
,
0100
0001
0100
0001
1000
0100
0010
0001
,
1000
0000
0000
0000
0001
0000
0000
1000
0000
0000
0001
0000
1000
0000
0000
0000
,
0010
1000
0100
0010
0001
0000
2001
0000
,
0001
3010
1000
1002
,
1000
0013
0001
2001
,
0001
3100
1000
1002
,
1000
0000
0103
0000
0001
0000
1000
1000
,
0001
0000
1000
0100
0010
0001
0000
1000
0001
0000
0100
0000
0001
0000
0001
0000
,
0001
0000
1000
0000
0001
0010
0100
0010
0001
0000
1000
0010
0100
0000
0100
0000
,
0010
0000
1000
0001
0010
0100
0000
1000
0100
0000
1000
0000
0010
0000
0010
0000
,
0010
0000
0100
0000
0001
1000
0001
1000
0100
0010
0100
0000
1001
0000
0000
0000
,
0001
0100
0101
0000
0001
1000
1100
0000
,
0101
0000
1100
1001
0000
1000
0010
1010
,
0000
0001
0010
0011
0000
1010
0000
0011
,
0001
0100
0001
0100
1000
0100
1000
0100
,
0001
0100
1000
0100
0001
0100
0001
0100
,
0001
0010
0001
0010
1000
0010
1000
0010
,
0001
0010
1000
0010
0001
0010
0001
1000
,
0010
1000
0010
1000
0100
1000
0100
1000
,
0010
1000
0100
1000
0010
1000
0010
0100
,
0001
0100
0001
0100
0010
0100
0010
0100
,
0001
0100
0010
0100
0001
0100
0001
0100
,
0001
0010
0001
0010
0100
1000
0100
1000
,
0001
0010
0100
1000
0001
0010
0001
0010
,
0001
0100
0001
0100
0010
1000
0010
1000
,
0001
0100
0010
1000
0001
0100
0001
0100
,
0001
1000
0001
1000
0100
0010
0100
0010
,
0001
1000
0010
0100
0001
1000
0001
1000
,
0100
0010
0100
0010
0001
0100
0001
0100
,
0010
1000
0100
0010
0002
0000
0000
0000
,
1003
0000
1000
0000
0001
0010
0100
1000
,
0001
0000
0001
0000
1000
0010
0100
0001
,
1000
0000
1000
0000
0001
0010
0100
1000
,
0001
0000
0001
0000
1000
0010
0100
0001
,
1000
0000
1000
0000
0010
0100
0001
0010
,
0001
0000
0001
0000
0010
0100
1000
0010
,
1000
0000
1000
0000
0010
0100
0001
0010
,
0001
1000
1001
0000
,
1000
0001
1000
0001
,
2000
0000
3000
0000
,
0002
0000
0003
0000
,
2000
0000
3000
0000
,
0002
0000
0003
0000
,
2000
0000
3000
0000
,
0002
0000
0003
0000
,
2000
0000
3000
0000
,
2002
0000
0000
0000
,
0000
0000
0000
0000
,
0000
0000
0000
0000
,
0000
0000
0000
0000
,
0000
0000
0000
0000
,
0000
0000
0000
0000
,
0000
0000
0000
0000
,
0000
0000
0000
0000
,
0000
0000
0000
0000
,
0000
0000
0000
0000
,
0000
0000
0000
0000
,
0000
0000
0000
0000
,
0000
0000
0000
0000
,
0000
0000
0000
0000
,
0000
0000
0000
0000
,
0000
0000
0000
0000
,
0000
0000
0000
0000
,
0000
0000
0000
0000
,
0000
0000
0000
0000
,
0000
0000
0000
0000
,
0000
0000
0000
0000
,
0000
0000
0000
0000
,
0000
0000
0000
0000
,
0000
0000
0000
0000
,
0000
0000
0000
0000
,
0000
0000
0000
0000
,
0000
0000
0000
0000
,
0000
0000
0000
0000
,
0000
0000
0000
0000
,
0000
0000
0000
0000
,
0000
0000
0000
3003
1000
0100
0010
0001
,
0100
0100
0100
0100
,
0001
1000
0001
1000
0000
1000
0000
0100
,
0010
0010
0010
0010
,
0001
1000
0001
1000
0000
0010
0100
0000
,
0110
0010
0010
0010
,
1000
0100
1000
0100
0000
0100
0000
0010
,
0001
0001
0001
0001
,
0100
0010
1000
0001
0010
0000
0110
0000
,
1001
0000
0001
0100
0001
0100
0001
0100
,
0010
1000
0010
0100
0001
1000
0100
0000
,
1001
0000
1000
0100
1000
0100
1000
0100
,
0010
0001
1000
0000
1010
0000
0101
0000
,
1001
0000
0001
0010
0100
0010
0001
0000
,
0110
0000
1000
0100
0010
0100
1000
0000
,
1001
0000
0001
0100
0000
0010
1000
0000
,
1001
0000
1000
0100
1000
0100
0001
0100
,
0001
0100
1000
0100
0010
0001
0100
0010
,
1000
0000
0001
0000
0010
0000
0100
0000
0010
0000
0000
0000
0001
0000
0000
0010
,
0000
0001
1000
0001
0100
1000
0100
0001
,
0010
0000
0001
0100
0001
0100
1000
0100
,
1000
0100
0001
0100
0010
1000
0100
0010
,
0001
0000
1000
0000
0010
0000
0100
0000
0010
0000
0000
0000
1000
0000
0000
0010
,
0000
1000
0010
0001
0010
1000
0001
0010
,
0100
0000
1000
0010
1000
0010
0001
0010
,
0001
0010
1000
0010
0100
0001
0010
0100
,
1000
0000
0010
0000
1000
0000
0001
0000
1000
0000
0000
0000
0100
0000
0000
0010
,
0000
0001
1000
0100
0001
0100
1000
0010
,
0100
0000
0001
0010
0001
0010
1000
0010
,
1000
0010
0001
0010
0100
1000
0010
0100
,
0001
0000
0010
0000
0001
0000
1000
0000
0001
0000
0000
0000
0100
0000
0000
0010
,
0000
1000
0200
0000
0000
0010
0000
0000
,
0310
1001
0101
1001
,
1100
0011
0101
1010
,
1100
1000
1001
0000
0100
0000
0100
0000
,
0100
0000
1001
0000
0100
0000
1001
1001
,
0000
1001
0000
0000
0220
0000
0330
0000
0000
0000
0000
0000
0000
0000
0000
0000
;

//---------------dance-single - ----------------
#NOTEDATA:;
#CHARTNAME:;
#STEPSTYPE:dance-single;
#DESCRIPTION:;
#CHARTSTYLE:;
#DIFFICULTY:Medium;
#METER:13;
#RADARVALUES:0.509980,0.975109,0.370093,0.200467,0.030841,463.000000,415.000000,48.000000,26.000000,0.000000,0.000000,0.000000,0.000000,0.000000,0.509980,0.975109,0.370093,0.200467,0.030841,463.000000,415.000000,48.000000,26.000000,0.000000,0.000000,0.000000,0.000000,0.000000;
#CREDIT:;
#OFFSET:-0.119101;
#BPMS:0.000000=130.000000
,30.000000=65.000000
,31.000000=260.000000
,95.000000=130.000000
,140.000000=131.000000
,141.000000=134.000000
,142.000000=138.000000
,143.000000=140.500000
,144.000000=144.000000
,145.000000=146.000000
,146.000000=148.750000
,147.000000=153.750000
,148.000000=155.000000
,149.000000=158.250000
,150.000000=162.250000
,151.000000=164.000000
,152.000000=167.000000
,153.000000=170.500000
,154.000000=174.000000
,155.000000=175.500000
,156.000000=179.000000
,157.000000=183.000000
,158.000000=185.000000
,159.000000=188.000000
,160.000000=191.000000
,161.000000=193.000000
,162.000000=198.000000
,163.000000=201.500000
,164.000000=204.000000
,165.000000=207.000000
,166.000000=210.000000
,167.000000=212.000000
,168.000000=215.000000
,169.000000=217.000000
,170.000000=220.000000
,171.000000=225.000000
,172.000000=228.000000
,174.000000=234.000000
,176.000000=240.000000
,178.000000=246.000000
,180.000000=251.999985
,182.000000=259.000000
,184.000000=264.000000
,186.000000=268.000000
,188.000000=277.000000
,190.000000=283.000000
,192.000000=287.000000
,194.000000=294.000000
,196.000000=300.000000
,198.000000=306.000000
,200.000000=311.000000
,202.000000=316.000000
,204.000000=321.000000
,236.000000=326.000000
,237.000000=332.000000
,238.000000=338.000000
,239.000000=344.000000
,240.000000=350.000000
,241.000000=356.000000
,242.000000=362.000000
,243.000000=370.000000
,244.000000=376.000000
,245.000000=382.000000
,246.000000=389.000000
,247.000000=400.000000
,248.000000=415.000000
,249.000000=430.000000
,250.000000=445.000000
,251.000000=460.000000
,252.000000=475.000000
,253.000000=480.000000
,254.000000=490.000031
,255.000000=499.999969
,260.000000=520.000000
,261.000000=530.000000
,262.000000=550.000000
,263.000000=570.000000
,264.000000=600.000000
,265.000000=640.000000
,266.000000=680.000000
,268.000000=690.000000
,272.000000=700.000000
,276.000000=760.000000
,280.000000=900.000000
,284.000000=999.999939
,292.000000=1100.000000
,296.000000=1200.000000
,300.000000=1300.000000
,304.000000=1500.000000
,308.000000=1700.000000
,312.000000=1999.999878
,388.000000=1492.599976
,389.500000=65.140999
,390.000000=130.000000
,391.000000=260.000000
,516.000000=130.000000
,532.000000=65.000000
;
#STOPS:133.000000=0.692307
,139.500000=0.692307
,451.000000=0.692307
;
#DELAYS:;
#WARPS:;
#TIMESIGNATURES:0.000000=4=4
;
#TICKCOUNTS:0.000000=4
;
#COMBOS:0.000000=1
;
#SPEEDS:0.000000=1.000000=0.000000=0
;
#SCROLLS:0.000000=1.000000
,389.500000=1.995670
,390.000000=1.000000
;
#FAKES:;
#LABELS:0.000000=Song Start
;
#DISPLAYBPM:65.000000:321.000000;
#NOTES:
// measure 0
0000
0000
0000
0000
,  // measure 1
0000
0000
0000
0000
,  // measure 2
0000
0000
0000
0000
,  // measure 3
0000
0000
0000
0000
,  // measure 4
1001
0010
0010
0010
,  // measure 5
1001
0100
0100
0100
,  // measure 6
1001
0010
1001
0100
,  // measure 7
1001
0000
0110
0000
2002
3003
1000
0000
,  // measure 8
0100
0010
0001
0100
,  // measure 9
0001
0000
0010
0000
0001
1000
0001
1000
,  // measure 10
0001
0100
0010
1000
,  // measure 11
1000
0001
0020
0000
0230
0000
0310
0000
,  // measure 12
0001
0100
0010
1000
,  // measure 13
0001
0000
0010
0000
0100
1000
0100
1000
,  // measure 14
0100
0010
0001
1000
,  // measure 15
1000
0010
0100
0010
1000
0000
0001
0000
,  // measure 16
0010
0100
1000
0010
,  // measure 17
0100
0000
0001
0000
0010
0100
0010
0100
,  // measure 18
0010
0001
1000
0010
,  // measure 19
0010
0100
0002
0000
2003
0000
3100
0000
,  // measure 20
0010
0100
1000
0010
,  // measure 21
1000
0000
0100
0000
0010
0001
0010
0001
,  // measure 22
0010
0100
1000
0020
,  // measure 23
0000
0000
0030
2001
,  // measure 24
0010
3010
0010
1002
,  // measure 25
0100
0103
0100
2001
,  // measure 26
0100
3100
0100
1002
,  // measure 27
0010
0000
0013
0000
0010
0000
0001
1000
,  // measure 28
0001
0000
0100
0000
0010
1000
0000
1000
0001
0000
0000
0000
1000
0000
0100
0000
,  // measure 29
1000
0000
0010
0000
0100
0001
0000
0001
0010
0000
0100
0000
1000
0000
0001
0000
,  // measure 30
1000
0000
0100
0000
0010
0001
0000
0001
1000
0000
0000
0000
0001
0000
0100
0000
,  // measure 31
0001
0000
0010
0000
0100
0000
1000
0001
1000
0000
0001
0000
1001
0000
0000
0000
,  // measure 32
0001
0101
0001
1001
,  // measure 33
0110
0000
1001
1001
0000
1000
0000
1100
,  // measure 34
0000
1000
0000
1001
0000
0110
0000
1001
,  // measure 35
0001
0001
1000
1000
,  // measure 36
0001
1000
0001
0001
,  // measure 37
0010
0010
0100
0100
,  // measure 38
0010
0100
0010
0010
,  // measure 39
0001
0001
0100
0100
,  // measure 40
0001
0100
0001
0001
,  // measure 41
1000
1000
0010
0010
,  // measure 42
1000
0010
1000
1000
,  // measure 43
0100
0010
0001
0010
,  // measure 44
0100
1000
0010
1000
,  // measure 45
0001
0010
0100
0010
,  // measure 46
0001
0100
0010
1000
,  // measure 47
0001
0100
0001
0010
,  // measure 48
0100
1000
0010
1000
,  // measure 49
0100
0010
0001
0100
,  // measure 50
0010
1000
0002
0000
,  // measure 51
1003
0100
1000
0100
,  // measure 52
0010
0100
0010
0100
,  // measure 53
0001
0100
0001
0100
,  // measure 54
0010
0001
0010
0100
,  // measure 55
1000
0010
1000
0010
,  // measure 56
0100
0010
0100
0010
,  // measure 57
0001
0010
0001
0010
,  // measure 58
1000
0100
0010
0001
,  // measure 59
1000
0001
1000
0001
,  // measure 60
2000
0000
3000
0000
,  // measure 61
0002
0000
0003
0000
,  // measure 62
2000
0000
3000
0000
,  // measure 63
0002
0000
0003
0000
,  // measure 64
2000
0000
3000
0000
,  // measure 65
0002
0000
0003
0000
,  // measure 66
2000
0000
0000
0000
,  // measure 67
0002
0000
0000
0000
,  // measure 68
0000
0000
0000
0000
,  // measure 69
0000
0000
0000
0000
,  // measure 70
0000
0000
0000
0000
,  // measure 71
0000
0000
0000
0000
,  // measure 72
0000
0000
0000
0000
,  // measure 73
0000
0000
0000
0000
,  // measure 74
0000
0000
0000
0000
,  // measure 75
0000
0000
0000
0000
,  // measure 76
0000
0000
0000
0000
,  // measure 77
0000
0000
0000
0000
,  // measure 78
0000
0000
0000
0000
,  // measure 79
0000
0000
0000
0000
,  // measure 80
0000
0000
0000
0000
,  // measure 81
0000
0000
0000
0000
,  // measure 82
0000
0000
0000
0000
,  // measure 83
0000
0000
0000
0000
,  // measure 84
0000
0000
0000
0000
,  // measure 85
0000
0000
0000
0000
,  // measure 86
0000
0000
0000
0000
,  // measure 87
0000
0000
0000
0000
,  // measure 88
0000
0000
0000
0000
,  // measure 89
0000
0000
0000
0000
,  // measure 90
0000
0000
0000
0000
,  // measure 91
0000
0000
0000
0000
,  // measure 92
0000
0000
0000
0000
,  // measure 93
0000
0000
0000
0000
,  // measure 94
0000
0000
0000
0000
,  // measure 95
0000
0000
0000
0000
,  // measure 96
0000
0000
0000
0000
,  // measure 97
0000
0000
0000
3003
2002
3003
1000
0000
,  // measure 98
0100
1000
0100
1000
,  // measure 99
0100
1000
0100
0010
,  // measure 100
0001
0010
0001
0010
,  // measure 101
0001
0010
0001
1001
,  // measure 102
1000
0010
1000
0010
,  // measure 103
1000
0010
1000
0001
,  // measure 104
0100
0001
0100
0001
,  // measure 105
0100
1001
0110
1001
,  // measure 106
1000
0100
0010
0001
,  // measure 107
0100
0010
1000
1001
,  // measure 108
0001
0010
0100
1000
,  // measure 109
0010
1010
0101
1001
,  // measure 110
1000
0001
1000
1001
,  // measure 111
0001
1000
0001
1001
,  // measure 112
0000
0011
0000
0000
1100
0000
1001
0000
,  // measure 113
1000
0100
0010
0001
,  // measure 114
0100
0000
1000
0000
0100
0000
0001
1000
,  // measure 115
0001
1000
0001
0000
0010
0000
0001
0000
,  // measure 116
1000
0100
0010
0100
1000
0000
0001
1000
,  // measure 117
0001
0100
0001
1000
,  // measure 118
0100
0000
0001
0000
0100
0000
1000
0001
,  // measure 119
1000
0001
1000
0000
0010
0000
0100
0010
,  // measure 120
1000
0000
0001
1000
0000
0001
1000
0000
,  // measure 121
0001
0010
0001
1000
,  // measure 122
0010
0000
0001
0000
0010
0000
1000
0001
,  // measure 123
1000
0001
1000
0000
0100
0000
0010
0000
,  // measure 124
0001
0000
0100
0000
0010
1000
0001
1000
,  // measure 125
0100
1000
0001
1000
,  // measure 126
0010
0000
0001
0000
0010
0000
1000
0001
,  // measure 127
1000
0001
1000
0000
0001
0000
0010
0100
,  // measure 128
2000
0000
0000
0001
0000
0000
3001
0000
,  // measure 129
1001
0101
1001
1100
,  // measure 130
1001
0000
1010
0000
1001
0000
0001
0100
,  // measure 131
0210
0000
0301
0000
,  // measure 132
1001
0000
0000
0000
0000
0000
0000
0000
1001
0000
1001
0000
0000
1001
0000
0000
,  // measure 133
0220
0330
0000
0000
0000
0000
0000
0000
;

//---------------dance-single - ----------------
#NOTEDATA:;
#CHARTNAME:;
#STEPSTYPE:dance-single;
#DESCRIPTION:;
#CHARTSTYLE:;
#DIFFICULTY:Easy;
#METER:10;
#RADARVALUES:0.376702,0.874105,0.470327,0.154206,0.003855,342.000000,281.000000,61.000000,20.000000,0.000000,0.000000,0.000000,0.000000,0.000000,0.376702,0.874105,0.470327,0.154206,0.003855,342.000000,281.000000,61.000000,20.000000,0.000000,0.000000,0.000000,0.000000,0.000000;
#CREDIT:;
#OFFSET:-0.119101;
#BPMS:0.000000=130.000000
,30.000000=260.000000
,95.000000=130.000000
,141.000000=131.000000
,142.000000=134.000000
,143.000000=138.000000
,144.000000=140.500000
,145.000000=144.000000
,146.000000=146.000000
,147.000000=148.750000
,148.000000=153.750000
,149.000000=155.000000
,150.000000=158.250000
,151.000000=162.250000
,152.000000=164.000000
,153.000000=167.000000
,154.000000=170.500000
,155.000000=174.000000
,156.000000=175.500000
,157.000000=179.000000
,158.000000=183.000000
,159.000000=185.000000
,160.000000=188.000000
,161.000000=191.000000
,162.000000=193.000000
,163.000000=198.000000
,164.000000=201.500000
,165.000000=204.000000
,166.000000=207.000000
,167.000000=210.000000
,168.000000=212.000000
,169.000000=215.000000
,170.000000=217.000000
,171.000000=220.000000
,172.000000=225.000000
,173.000000=228.000000
,175.000000=234.000000
,177.000000=240.000000
,179.000000=246.000000
,181.000000=251.999985
,183.000000=259.000000
,185.000000=264.000000
,187.000000=268.000000
,189.000000=277.000000
,191.000000=283.000000
,193.000000=287.000000
,195.000000=294.000000
,197.000000=300.000000
,199.000000=306.000000
,201.000000=311.000000
,203.000000=316.000000
,205.000000=321.000000
,237.000000=326.000000
,238.000000=332.000000
,239.000000=338.000000
,240.000000=344.000000
,241.000000=350.000000
,242.000000=356.000000
,243.000000=362.000000
,244.000000=370.000000
,245.000000=376.000000
,246.000000=382.000000
,247.000000=389.000000
,248.000000=400.000000
,249.000000=415.000000
,250.000000=430.000000
,251.000000=445.000000
,252.000000=460.000000
,253.000000=475.000000
,254.000000=480.000000
,255.000000=490.000031
,256.000000=499.999969
,261.000000=520.000000
,262.000000=530.000000
,263.000000=550.000000
,264.000000=570.000000
,265.000000=600.000000
,266.000000=640.000000
,267.000000=680.000000
,269.000000=690.000000
,273.000000=700.000000
,277.000000=760.000000
,281.000000=900.000000
,285.000000=999.999939
,293.000000=1100.000000
,297.000000=1200.000000
,301.000000=1300.000000
,305.000000=1500.000000
,309.000000=1700.000000
,313.000000=1999.999878
,389.000000=1492.599976
,390.500000=65.140999
,391.000000=130.000000
,392.000000=260.000000
,517.000000=130.000000
,533.000000=65.000000
;
#STOPS:30.000000=0.692308
,133.000000=0.461541
,140.000000=0.461537
,452.000000=0.692307
;
#DELAYS:;
#WARPS:;
#TIMESIGNATURES:0.000000=4=4
;
#TICKCOUNTS:0.000000=4
;
#COMBOS:0.000000=1
;
#SPEEDS:0.000000=1.000000=0.000000=0
;
#SCROLLS:0.000000=1.000000
,390.500000=1.995670
,391.000000=1.000000
;
#FAKES:;
#LABELS:0.000000=Song Start
;
#DISPLAYBPM:*;
#NOTES:
0000
0000
0000
0000
,
0000
0000
0000
0000
,
0000
0000
0000
0000
,
0000
0000
0000
0000
,
1002
0000
0103
0000
,
2001
0000
3100
0000
,
1001
0000
0110
0000
,
1001
0110
0002
1003
,
0000
1000
0000
0010
,
1000
0100
0010
0001
,
0000
0001
1000
0010
,
1000
0200
0320
0031
,
0000
0001
0000
0010
,
0001
0100
0010
1000
,
0000
1000
0001
1000
,
0100
0010
0001
0100
,
0000
0100
0000
0010
,
1000
0100
1000
0010
,
0000
0010
0100
0001
,
1000
0002
0023
0130
,
0000
0100
0000
0010
,
0001
0100
0001
0010
,
0000
0010
0100
2000
,
0000
3001
1000
1002
,
0000
0013
0000
1002
,
0000
0103
0000
2001
,
0000
3010
0000
2001
,
0000
3100
0000
1000
,
1001
0000
0001
0010
0100
1000
0001
0000
,
0100
0010
1000
0001
0010
0000
0001
0000
,
1001
0000
1000
0010
0100
0001
1000
0000
,
0100
0010
0001
0001
1000
0000
1001
0000
,
0010
1001
0100
1001
,
0110
1001
0110
1000
,
0110
0001
0110
1001
,
0110
1100
0000
0110
,
0000
0011
0011
0011
,
0000
0101
0000
0110
,
0000
1010
1010
1010
,
0000
0011
0000
1001
,
0000
0101
0101
0101
,
0000
1010
0000
1001
,
0000
1100
1100
1100
,
0000
1000
0000
0001
,
0000
1000
0001
1000
,
0000
0010
0000
0100
,
0000
0010
0100
0010
,
0000
1000
0000
0100
,
0000
0010
0100
1000
,
0000
0001
0000
0100
,
0000
0010
1000
0200
,
0000
1300
0100
0010
,
0000
0001
0010
0100
,
0000
1000
0010
0100
,
0000
0001
0100
0010
,
0000
1000
0001
0010
,
0000
0001
1000
0010
,
0000
0100
0001
0010
,
0000
0100
1000
0020
,
0030
2002
0000
0000
,
0000
0000
0000
0000
,
0000
0000
0000
0000
,
0000
0000
0000
0000
,
0000
0000
0000
0000
,
0000
0000
0000
0000
,
0000
0000
0000
0000
,
0000
0000
0000
0000
,
0000
0000
0000
0000
,
0000
0000
0000
0000
,
0000
0000
0000
0000
,
0000
0000
0000
0000
,
0000
0000
0000
0000
,
0000
0000
0000
0000
,
0000
0000
0000
0000
,
0000
0000
0000
0000
,
0000
0000
0000
0000
,
0000
0000
0000
0000
,
0000
0000
0000
0000
,
0000
0000
0000
0000
,
0000
0000
0000
0000
,
0000
0000
0000
0000
,
0000
0000
0000
0000
,
0000
0000
0000
0000
,
0000
0000
0000
0000
,
0000
0000
0000
0000
,
0000
0000
0000
0000
,
0000
0000
0000
0000
,
0000
0000
0000
0000
,
0000
0000
0000
0000
,
0000
0000
0000
0000
,
0000
0000
0000
0000
,
0000
0000
0000
0000
,
0000
0000
0000
0000
,
0000
0000
0000
0000
,
0000
0000
0000
0000
,
0000
0000
0000
0000
,
0000
0000
0000
0000
,
0000
0000
0000
0000
0000
3003
0000
0000
,
1000
0000
1000
0000
,
1000
0000
0100
0010
,
0001
0000
0001
0000
,
0001
0000
0100
0010
,
0110
0000
0100
0000
,
0100
0000
0010
1000
,
0001
0000
0001
0000
,
0001
0000
1000
0001
,
1001
0000
1000
0000
,
0010
0000
1000
0000
,
1001
0000
0001
0000
,
0010
0000
0001
1000
,
1001
0000
0100
0000
,
1001
0000
0010
0000
,
1001
0000
0000
0110
0000
0000
1001
0000
,
1001
1000
0010
1000
,
0010
0100
0001
1000
,
0001
0010
0000
0010
,
0001
0100
0010
1000
,
0000
0001
0010
0001
,
0010
0100
1000
0001
,
1000
0010
0000
1000
,
0010
0100
0010
1000
,
0001
0010
0100
0010
,
0100
1000
0001
0100
,
0010
1000
0000
0010
,
0100
0001
1000
0100
,
0000
1000
0001
1000
,
0001
0010
0100
1000
,
0001
0100
0000
0010
,
1000
0000
0002
0000
0000
1000
0000
0000
,
1003
1001
0101
1001
,
1100
1001
1010
1001
,
0001
0100
0020
0000
0000
0000
1030
0000
,
0000
0000
1001
0000
0000
0000
1000
0100
,
0000
0010
0000
0000
0220
0000
0330
0000
0000
0000
0000
0000
0000
0000
0000
0000
;

//---------------dance-single - ----------------
#NOTEDATA:;
#CHARTNAME:;
#STEPSTYPE:dance-single;
#DESCRIPTION:;
#CHARTSTYLE:;
#DIFFICULTY:Beginner;
#METER:7;
#RADARVALUES:0.266555,0.492687,0.146495,0.115654,0.000000,242.000000,223.000000,19.000000,15.000000,0.000000,0.000000,0.000000,0.000000,0.000000,0.266555,0.492687,0.146495,0.115654,0.000000,242.000000,223.000000,19.000000,15.000000,0.000000,0.000000,0.000000,0.000000,0.000000;
#CREDIT:;
#OFFSET:-0.119101;
#BPMS:0.000000=260.000000
,224.000000=131.000000
,225.000000=134.000000
,226.000000=138.000000
,227.000000=140.500000
,228.000000=144.000000
,229.000000=146.000000
,230.000000=148.750000
,231.000000=153.750000
,232.000000=155.000000
,233.000000=158.250000
,234.000000=162.250000
,235.000000=164.000000
,236.000000=167.000000
,237.000000=170.500000
,238.000000=174.000000
,239.000000=175.500000
,240.000000=179.000000
,241.000000=183.000000
,242.000000=185.000000
,243.000000=188.000000
,244.000000=191.000000
,245.000000=193.000000
,246.000000=198.000000
,247.000000=201.500000
,248.000000=204.000000
,249.000000=207.000000
,250.000000=210.000000
,251.000000=212.000000
,252.000000=215.000000
,253.000000=217.000000
,254.000000=220.000000
,255.000000=225.000000
,256.000000=228.000000
,258.000000=234.000000
,260.000000=240.000000
,262.000000=246.000000
,264.000000=251.999985
,266.000000=259.000000
,268.000000=264.000000
,270.000000=268.000000
,272.000000=277.000000
,274.000000=283.000000
,276.000000=287.000000
,278.000000=294.000000
,280.000000=300.000000
,282.000000=306.000000
,284.000000=311.000000
,286.000000=316.000000
,288.000000=321.000000
,320.000000=326.000000
,321.000000=332.000000
,322.000000=338.000000
,323.000000=344.000000
,324.000000=350.000000
,325.000000=356.000000
,326.000000=362.000000
,327.000000=370.000000
,328.000000=376.000000
,329.000000=382.000000
,330.000000=389.000000
,331.000000=400.000000
,332.000000=415.000000
,333.000000=430.000000
,334.000000=445.000000
,335.000000=460.000000
,336.000000=475.000000
,337.000000=480.000000
,338.000000=490.000031
,339.000000=499.999969
,344.000000=520.000000
,345.000000=530.000000
,346.000000=550.000000
,347.000000=570.000000
,348.000000=600.000000
,349.000000=640.000000
,350.000000=680.000000
,352.000000=690.000000
,356.000000=700.000000
,360.000000=760.000000
,364.000000=900.000000
,368.000000=999.999939
,376.000000=1100.000000
,380.000000=1200.000000
,384.000000=1300.000000
,388.000000=1500.000000
,392.000000=1700.000000
,396.000000=1999.999878
,472.000000=995.066650
,473.000000=260.563995
,475.000000=260.000000
;
#STOPS:;
#DELAYS:;
#WARPS:;
#TIMESIGNATURES:0.000000=4=4
;
#TICKCOUNTS:0.000000=4
;
#COMBOS:0.000000=1
;
#SPEEDS:0.000000=1.000000=0.000000=0
;
#SCROLLS:0.000000=1.000000
,224.000000=1.984732
,225.000000=1.940298
,226.000000=1.884050
,227.000000=1.850533
,228.000000=1.805555
,229.000000=1.780821
,230.000000=1.747899
,231.000000=1.691056
,232.000000=1.677419
,233.000000=1.642969
,234.000000=1.602465
,235.000000=1.585365
,236.000000=1.556886
,237.000000=1.524926
,238.000000=1.494252
,239.000000=1.481481
,240.000000=1.452513
,241.000000=1.420765
,242.000000=1.405405
,243.000000=1.382978
,244.000000=1.361256
,245.000000=1.347150
,246.000000=1.313131
,247.000000=1.290322
,248.000000=1.274509
,249.000000=1.256038
,250.000000=1.238095
,251.000000=1.226415
,252.000000=1.209302
,253.000000=1.198156
,254.000000=1.181818
,255.000000=1.155555
,256.000000=1.140350
,258.000000=1.111111
,260.000000=1.083333
,262.000000=1.056910
,264.000000=1.031746
,266.000000=1.003861
,268.000000=0.984848
,270.000000=0.970149
,272.000000=0.938628
,274.000000=0.918727
,276.000000=0.905923
,278.000000=0.884353
,280.000000=0.866666
,282.000000=0.849673
,284.000000=0.836012
,286.000000=0.822784
,288.000000=0.809968
,320.000000=0.797546
,321.000000=0.783132
,322.000000=0.769230
,323.000000=0.755813
,324.000000=0.742857
,325.000000=0.730337
,326.000000=0.718232
,327.000000=0.702702
,328.000000=0.691489
,329.000000=0.680628
,330.000000=0.668380
,331.000000=0.650000
,332.000000=0.626506
,333.000000=0.604651
,334.000000=0.584269
,335.000000=0.565217
,336.000000=0.547368
,337.000000=0.541666
,338.000000=0.530612
,339.000000=0.520000
,344.000000=0.500000
,345.000000=0.490566
,346.000000=0.472727
,347.000000=0.456140
,348.000000=0.433333
,349.000000=0.406250
,350.000000=0.382352
,352.000000=0.376811
,356.000000=0.371428
,360.000000=0.342105
,364.000000=0.288888
,368.000000=0.260000
,376.000000=0.236363
,380.000000=0.216666
,384.000000=0.200000
,388.000000=0.173333
,392.000000=0.152941
,396.000000=0.130000
,472.000000=0.261288
,473.000000=0.997835
,475.000000=1.000000
;
#FAKES:;
#LABELS:0.000000=Song Start
;
#DISPLAYBPM:*;
#NOTES:
0000
0000
0000
0000
,
0000
0000
0000
0000
,
0000
0000
0000
0000
,
0000
0000
0000
0000
,
0000
0000
0000
0000
,
0000
0000
0000
0000
,
0000
0000
0000
0000
,
0000
0000
0000
0000
,
1001
0000
0000
0000
,
0000
0000
0000
0000
,
1001
0000
0000
0000
,
0000
0000
0000
0000
,
1001
0000
0000
0000
,
1001
0000
0000
0000
,
1001
0000
1001
0000
,
0020
0000
0030
0000
,
1000
0000
1000
0000
,
0001
0000
0010
0000
,
0001
1000
0001
0000
,
0100
0100
0100
0000
,
0001
0000
0001
0000
,
1000
0000
0010
0000
,
1000
0001
1000
0000
,
0100
0010
0100
0010
,
0100
0000
0100
0000
,
1000
0000
0010
0000
,
1000
0001
1000
0000
,
0010
0010
0010
0000
,
0100
0000
0100
0000
,
0001
0000
0010
0000
,
0001
1000
0001
0000
,
0200
0000
0300
0000
,
1002
0000
0000
0000
,
0003
0000
0000
0000
,
0020
0000
0000
0000
,
0030
0000
0000
0000
,
0200
0000
0000
0000
,
0300
0000
0000
0000
,
2000
0000
0000
0000
,
3000
0000
0000
0000
,
0001
0000
1001
0000
,
0001
0000
0010
0000
,
0100
0000
1000
0001
,
1000
0000
0010
0000
,
1000
0000
1001
0000
,
1000
0000
0100
0000
,
0010
0000
0001
1000
,
0002
0000
1003
1000
,
1000
0000
0000
0000
,
0001
0000
0000
0000
,
1000
0000
0001
0000
,
1000
0000
0000
0000
,
0001
0000
0000
0000
,
1000
0000
0000
0000
,
0001
0000
1000
0000
,
0001
0000
0000
0000
,
1000
0000
0100
0000
,
1000
0100
1000
0000
,
0001
0000
0100
0000
,
0001
0100
0001
0000
,
1000
0000
0010
0000
,
1000
0010
1000
0000
,
0001
0000
0010
0000
,
0001
0010
0001
0000
,
1000
0000
0001
0000
,
1000
0001
1000
0000
,
0010
0000
0100
0000
,
0010
0100
0010
0000
,
1000
0000
0001
0000
,
1000
0001
1000
0000
,
0010
0000
0100
0000
,
0010
0100
0020
0000
,
1030
0000
0010
0000
,
0100
0000
0001
0000
,
1000
0000
0100
0000
,
0010
0000
0001
0000
,
0100
0000
0010
0000
,
1000
0000
0100
0000
,
0010
0000
0001
0000
,
1000
0000
1001
0000
,
2002
0000
0000
0000
,
0000
0000
0000
0000
,
0000
0000
0000
0000
,
0000
0000
0000
0000
,
0000
0000
0000
0000
,
0000
0000
0000
0000
,
0000
0000
0000
0000
,
0000
0000
0000
0000
,
0000
0000
0000
0000
,
0000
0000
0000
0000
,
0000
0000
0000
0000
,
0000
0000
0000
0000
,
0000
0000
0000
0000
,
0000
0000
0000
0000
,
0000
0000
0000
0000
,
0000
0000
0000
0000
,
0000
0000
0000
0000
,
0000
0000
0000
0000
,
0000
0000
0000
0000
,
0000
0000
0000
0000
,
0000
0000
0000
0000
,
0000
0000
0000
0000
,
0000
0000
0000
0000
,
0000
0000
0000
0000
,
0000
0000
0000
0000
,
0000
0000
0000
0000
,
0000
0000
0000
0000
,
0000
0000
0000
0000
,
0000
0000
0000
0000
,
0000
0000
0000
0000
,
0000
0000
0000
0000
,
0000
0000
0000
0000
,
0000
0000
0000
0000
,
0000
0000
0000
0000
,
0000
0000
0000
0000
,
3003
0000
0000
0000
,
0000
0000
0000
0000
,
0000
0000
0000
0000
,
0000
1001
0000
0000
,
0000
1000
0000
1000
,
0000
0100
0000
0010
,
0000
0001
0000
0001
,
0000
0100
0000
0010
,
0000
1001
0000
0001
,
0000
0100
0000
0010
,
0000
1000
0000
1000
,
0000
0100
0000
0010
,
0010
0010
0000
0001
,
0000
0001
0000
1000
,
0000
1001
0000
0001
,
0000
0100
0000
0100
,
0100
0100
0000
0010
,
0000
0110
0000
0010
,
0000
0110
0000
0100
,
0100
0100
0000
0000
,
0000
0001
0000
0001
,
0000
0010
0100
0010
,
0000
0001
0000
0100
,
0000
0010
0010
0010
,
0000
1000
0000
1000
,
0000
0010
0100
0010
,
0000
1000
0000
0100
,
0000
0010
0010
0010
,
0000
0001
0000
1000
,
0000
0001
0100
0001
,
0000
0010
0000
0001
,
0000
1000
1000
1000
,
0000
0010
0000
1000
,
0000
0100
0010
0100
,
0000
1000
0000
0010
,
0000
0220
0000
0330
,
0000
0001
0000
0001
,
0000
1000
0000
1000
,
0000
0001
0000
0001
,
0000
1000
0000
0001
,
1000
0002
0000
0000
,
0000
0003
0000
0000
,
0000
1001
0000
0000
,
0000
0100
0000
0100
,
0000
2002
0000
3003
;

//---------------dance-single - [B-SIDE] Half Way Corrected----------------
#NOTEDATA:;
#CHARTNAME:[B-SIDE] Half Way Corrected;
#STEPSTYPE:dance-single;
#DESCRIPTION:[B-SIDE] Half Way Corrected;
#CHARTSTYLE:;
#DIFFICULTY:Edit;
#METER:18;
#RADARVALUES:0.923030,2.131217,0.585981,0.046262,0.489603,838.000000,762.000000,76.000000,6.000000,8.000000,0.000000,2.000000,0.000000,0.000000,0.923030,2.131217,0.585981,0.046262,0.489603,838.000000,762.000000,76.000000,6.000000,8.000000,0.000000,2.000000,0.000000,0.000000;
#CREDIT:[B-SIDE] Half Way Corrected;
#OFFSET:-0.119101;
#BPMS:0.000000=130.000000
,30.000000=520.000000
,32.000000=260.000000
,96.000000=65.000000
,104.000000=130.000000
,133.000000=131.000000
,134.000000=134.000000
,135.000000=138.000000
,136.000000=140.500000
,137.000000=144.000000
,138.000000=146.000000
,139.000000=148.750000
,140.000000=153.750000
,141.000000=155.000000
,142.000000=158.250000
,143.000000=162.250000
,144.000000=164.000000
,145.000000=167.000000
,146.000000=170.500000
,147.000000=174.000000
,148.000000=175.500000
,149.000000=179.000000
,150.000000=183.000000
,151.000000=185.000000
,152.000000=188.000000
,153.000000=191.000000
,154.000000=193.000000
,155.000000=198.000000
,156.000000=201.500000
,157.000000=204.000000
,158.000000=207.000000
,159.000000=210.000000
,160.000000=212.000000
,161.000000=215.000000
,162.000000=217.000000
,163.000000=220.000000
,164.000000=225.000000
,165.000000=228.000000
,167.000000=234.000000
,169.000000=240.000000
,171.000000=246.000000
,173.000000=251.999985
,175.000000=259.000000
,177.000000=264.000000
,179.000000=268.000000
,181.000000=277.000000
,183.000000=283.000000
,185.000000=287.000000
,187.000000=294.000000
,189.000000=300.000000
,191.000000=306.000000
,193.000000=311.000000
,195.000000=316.000000
,197.000000=321.000000
,229.000000=326.000000
,230.000000=332.000000
,231.000000=338.000000
,232.000000=344.000000
,233.000000=350.000000
,234.000000=356.000000
,235.000000=362.000000
,236.000000=370.000000
,237.000000=376.000000
,238.000000=382.000000
,239.000000=389.000000
,240.000000=400.000000
,241.000000=415.000000
,242.000000=430.000000
,243.000000=445.000000
,244.000000=460.000000
,245.000000=475.000000
,246.000000=480.000000
,247.000000=490.000031
,248.000000=499.999969
,253.000000=520.000000
,254.000000=530.000000
,255.000000=550.000000
,256.000000=570.000000
,257.000000=600.000000
,258.000000=640.000000
,259.000000=680.000000
,261.000000=690.000000
,265.000000=700.000000
,269.000000=760.000000
,273.000000=900.000000
,277.000000=999.999939
,285.000000=1100.000000
,289.000000=1200.000000
,293.000000=1300.000000
,297.000000=1500.000000
,301.000000=1700.000000
,305.000000=1999.999878
,381.000000=1492.599976
,382.500000=260.000000
,510.000000=130.000000
,526.000000=65.000000
;
#STOPS:30.000000=0.519231
,30.500000=0.057693
,31.000000=0.057693
,31.500000=0.057693
,126.000000=0.692307
,132.500000=0.692307
,382.500000=0.345154
,445.000000=0.692307
;
#DELAYS:;
#WARPS:;
#TIMESIGNATURES:0.000000=4=4
;
#TICKCOUNTS:0.000000=4
;
#COMBOS:0.000000=1
;
#SPEEDS:0.000000=1.000000=0.000000=0
;
#SCROLLS:0.000000=1.000000
;
#FAKES:;
#LABELS:0.000000=Song Start
;
#DISPLAYBPM:*;
#NOTES:
0000
0000
0000
0000
,
0000
0000
0000
0000
,
0000
0000
0000
0000
,
0000
0000
0000
0000
,
1001
0001
1000
0001
,
0110
0100
0010
0100
,
1001
0100
1001
0010
,
0110
0000
1001
0000
0002
0103
0010
0100
,
0001
0001
1000
0001
1000
0001
0100
0010
,
0100
0001
1000
0000
0001
0000
0010
0000
1000
0000
0010
0000
0001
1000
0001
1000
,
0010
0000
1000
0000
1001
0000
0000
0000
0011
0000
0000
1100
0000
0000
1001
0000
,
1000
0000
0001
0100
0010
0000
1000
0010
0100
0001
0100
0001
0100
0000
0010
0000
,
1000
1000
0001
1000
0001
1000
0100
0010
,
0100
1000
0001
0000
1000
0000
0010
0000
0001
0000
0010
0000
1000
0010
1000
0010
,
0100
0000
0001
0000
1010
0000
0000
0000
0011
0000
0000
1100
0000
0000
1001
0000
,
0001
0000
0010
0100
1000
0000
0100
0010
0001
0000
1000
0000
0001
0000
1000
0000
,
0010
0010
1000
0010
1000
0010
0001
1000
,
0100
0001
0100
0000
0010
0000
1000
0000
0100
0000
0001
0000
0100
1000
0100
1000
,
0001
0000
0100
0000
1001
0000
0000
0000
0011
0000
0000
1001
0000
0000
1010
0000
,
1000
0000
0010
0100
0001
0000
0100
0010
1000
0001
1000
0001
1000
0000
0100
0000
,
0010
0010
0001
0010
0001
0010
1000
0001
,
0100
1000
0100
0000
0010
0000
0001
0000
0100
0000
1000
0000
0100
0001
0100
0001
,
1000
0000
0100
0000
1001
0000
0000
0000
0011
0000
0000
1001
0000
0000
0001
0000
,
2000
0000
0000
0000
3001
1000
0001
1000
0100
0000
0100
0000
1000
0000
1000
0000
,
0001
0000
0001
0000
0001
0000
0001
0000
1000
0001
1000
0010
0000
0010
0000
1000
0100
0000
0100
0000
0100
0000
0100
0000
0010
0001
0100
0010
0000
0010
0000
1000
,
0001
0000
0001
0000
0001
0000
0001
0000
0010
0001
1000
0010
0000
0010
0000
1000
0100
0000
0100
0000
0100
0000
0100
0000
0010
0001
0100
0010
0000
0100
0010
1000
,
0001
0000
0000
0000
0000
0000
1000
0000
0000
0000
0000
0000
1001
0000
0000
0000
0000
0000
0001
0000
0000
0100
0000
0000
0010
0000
0000
1000
0000
0000
0100
0000
0000
0010
0000
0000
0100
0000
0000
0000
0010
0000
0100
0000
0000
0000
0010
0000
,
0001
0000
0001
0000
1000
0000
1001
0000
1000
0010
0100
0010
1000
0000
0001
0010
,
0100
0000
0000
0000
0000
0000
0010
0000
0000
0000
0000
0000
0110
0000
0000
0000
0000
0000
0100
0000
0000
1000
0000
0000
0010
0000
0000
0100
0000
0000
0001
0000
0000
1000
0000
0000
0001
0000
0000
0000
0100
0000
0001
0000
0000
0000
1000
0000
,
0010
0000
0010
0000
1000
0000
1010
0000
1000
0010
0001
0010
1000
0100
1000
0100
,
1100
0000
1000
0000
0001
0000
1000
0001
0101
0000
0001
0100
0001
1000
0100
0000
,
1100
1000
0101
0001
1100
0011
0001
1000
,
0001
1000
1010
0000
1000
0010
1000
0001
0010
0000
0011
0000
1000
0000
1010
0000
,
0001
0000
0011
0000
1001
0000
1000
0000
0001
0000
0001
0000
1000
0100
0010
0001
,
0000
0001
0000
1000
0001
0000
0001
0000
1000
0000
1000
0000
0001
0100
0010
1000
,
0000
1000
0000
0001
1000
0000
1000
0000
0100
0000
0100
0000
1000
0100
0010
0001
,
0000
0001
0000
1000
0001
0000
0001
0000
0100
0000
0100
0000
0001
0100
0010
1000
,
0000
1000
0000
0001
1000
0000
0010
0000
1000
0000
0010
0000
0100
0001
0100
0001
,
0000
1000
0000
0100
0010
0000
0100
0000
0010
0000
0100
0000
1000
0001
1000
0001
,
0000
0100
0000
0010
1000
0000
0100
0000
0010
0000
0001
0000
1000
0001
1000
0001
,
0000
1000
0000
0010
0100
0000
0001
0000
1000
0000
0001
0000
0010
0100
0010
0100
,
0000
0010
0000
0001
1000
0000
0010
0000
1000
0000
0010
0000
0001
0000
0010
0000
,
0001
0010
1000
0010
0001
0010
1000
0010
,
1000
0010
1000
0100
1000
0100
0001
0100
,
0001
0100
1000
0100
0001
0100
1000
0100
,
1000
0100
1000
0010
1000
0010
0001
0010
,
0001
0010
1000
0100
0001
1000
0010
0001
,
0010
0001
1000
0100
1000
0100
0001
0100
,
0001
0100
1000
0010
0001
1000
0200
0000
,
0000
0000
0301
0100
1000
0100
0001
1000
,
0010
0001
0010
1000
0100
0001
0100
1000
,
0001
0010
1000
0010
0001
0100
0010
0001
,
0010
0100
0001
0010
0100
1000
0010
0100
,
1000
0100
0010
1000
0100
0001
1000
0010
,
0001
1000
0001
0100
1000
0001
0010
1000
,
0001
1000
0100
0001
0100
1000
0010
0001
,
0010
1000
0100
0010
0001
0100
0010
0000
,
1000
1MM1
0001
1000
,
0001
1000
0001
1000
,
0001
1000
0001
1000
,
0001
1000
0001
1000
,
0001
1000
0001
1000
,
0001
1000
0001
1000
,
0001
1000
0001
1000
,
0001
1000
0001
1000
,
0004
4000
0000
0000
,
0000
0000
0000
0000
,
0000
0000
0000
0000
,
0000
0000
0000
0000
,
0000
0000
0000
0000
,
0000
0000
0000
0000
,
0000
0000
0000
0000
,
0000
0000
0000
0000
,
0000
0000
0000
0000
,
0000
0000
0000
0000
,
0000
0000
0000
0000
,
0000
0000
0000
0000
,
0000
0000
0000
0000
,
0000
0000
0000
0000
,
0000
0000
0000
0000
,
0000
0000
0000
0000
,
0000
0000
0000
0000
,
0000
0000
0000
0000
,
0000
0000
0000
0000
,
0000
0000
0000
0000
,
0000
0000
0000
0000
,
0000
0000
0000
0000
,
0000
0000
0000
0000
,
0000
0000
0000
0000
,
0000
0000
0000
0000
,
0000
0000
0000
0000
,
0000
0000
0000
0000
0000
0MM0
0000
0000
,
0000
0000
0000
0000
,
0000
0000
0000
0000
,
0000
3003
0000
0000
,
0000
0000
0000
0000
0000
0000
0000
0000
0000
0000
MMMM
0000
0001
1000
0001
1000
,
0001
1000
0001
1000
0001
0000
0000
0000
0001
0000
0000
0000
0001
0000
0000
0000
,
0001
0000
0010
0001
1000
0010
0000
0010
,
0000
0100
0001
0000
1000
0000
1000
0000
,
1000
0000
0001
0010
0100
1000
0000
1000
,
0000
0010
0110
0000
0100
0000
0100
0000
,
0100
0000
0010
1000
0001
0010
0000
0010
,
0000
0100
1000
0000
0001
0000
0001
0000
,
0001
0000
1000
0010
1000
0001
0011
0000
,
1100
0000
1001
0000
0001
0100
0001
0100
,
0001
0100
0010
1000
0001
0010
0100
0010
,
0001
1000
1001
0000
1000
0100
1000
0100
,
1000
0100
0010
0001
1000
0001
0101
0000
,
1010
0000
1001
0000
0001
0010
0001
0010
,
0001
0100
0110
0000
1000
0010
1000
0010
,
1000
0100
0110
0000
0001
0101
0000
1000
,
1100
0000
1001
0000
1000
0100
0001
0100
,
1000
0100
0001
0100
1000
1000
0100
0010
,
0001
0100
0010
1000
0001
0001
1000
0001
,
0101
0000
0000
0110
0000
0000
1010
0000
0010
0000
1000
0001
0010
0000
0001
1000
,
0010
1000
0100
0010
0001
0100
1000
0100
,
0001
0100
1000
0100
0001
0001
0100
0010
,
1000
0001
1000
0100
0010
0010
0001
1000
,
1001
0000
0000
0011
0000
0000
1100
0000
1000
0000
0001
0100
0010
0000
1000
0100
,
0010
1000
0010
0001
1000
0010
0001
0010
,
1000
0010
0001
0010
1000
1000
0100
0001
,
0100
1000
0010
0100
0001
0001
1000
0100
,
1100
0000
0000
0011
0000
0000
0101
0000
0001
0000
1000
0001
0010
0000
0001
1000
,
0010
0100
0010
1000
0001
0010
1000
0010
,
0001
0010
1000
0010
0001
0001
0100
1000
,
0100
0001
0010
0100
1000
1000
0010
0100
,
0101
0000
0000
1010
0000
0000
1000
0000
0002
0000
0000
0000
0010
0000
0010
0000
,
0000
1000
1003
0001
1001
0000
0101
0000
,
1001
1100
0011
0101
,
1010
0000
1100
0011
1001
0000
0100
0000
,
0100
0100
1001
0100
,
1100
0000
0011
0000
0000
0101
0000
0000
2002
0000
3003
0000
0000
0000
0000
0000
;
