#TITLE:Zauberkugel;
#SUBTITLE:;
#ARTIST:xi;
#TITLETRANSLIT:;
#SUBTITLETRANSLIT:;
#ARTISTTRANSLIT:;
#GENRE:Progressive Jazz;
#CREDIT:;
#BANNER:Zauberkugel.png;
#BACKGROUND:Zauberkugel-bg.png;
#LYRICSPATH:;
#CDTITLE:cdtitle.png;
#MUSIC:Zauberkugel.ogg;
#OFFSET:-0.895230;
#SAMPLESTART:22.393600;
#SAMPLELENGTH:12.508142;
#SELECTABLE:YES;
#BPMS:0.000000=153.500000
;
#STOPS:
;
#BGCHANGES:;
#KEYSOUNDS:;
#ATTACKS:;

//---------------dance-single - ----------------
#NOTES:
     dance-single:
     :
     Challenge:
     16:
     0.817153,0.938449,0.666806,0.417758,0.939955,712.000000,629.000000,83.000000,52.000000,0.000000,0.000000,0.817153,0.938449,0.666806,0.417758,0.939955,712.000000,629.000000,83.000000,52.000000,0.000000,0.000000:
// measure 0
0000
0000
0000
0000
,  // measure 1
0000
0000
0000
0000
,  // measure 2
0000
0000
0000
2000
,  // measure 3
0000
0000
0002
0000
0000
0000
0000
0000
0000
0000
0000
0000
3000
0000
0000
0203
,  // measure 4
0000
0000
0000
0000
,  // measure 5
0000
0000
0000
0300
0000
0000
0020
0000
0000
1030
0000
0000
0001
1000
0001
1000
,  // measure 6
0100
0000
0010
0002
0000
0000
0103
0000
0010
0000
1000
0000
0001
0000
1000
0200
,  // measure 7
0000
0000
0301
0000
0100
0000
0010
0000
0001
0000
0100
0020
0000
0000
0130
0000
,  // measure 8
1000
0000
0100
0000
0001
0000
0010
0200
0000
0000
0310
0000
1000
0000
0010
0000
,  // measure 9
0001
0000
0100
0020
0000
0000
1030
0001
1000
0000
0010
0000
1000
0000
0001
0010
,  // measure 10
0100
0000
1000
0000
0001
0000
0100
0020
0000
0000
0000
2000
0000
0000
0030
0000
,  // measure 11
3000
0000
0001
0000
1000
0100
1000
0100
0010
0001
0010
0001
0100
0000
0100
0000
,  // measure 12
0001
1000
0000
0000
0000
0000
0001
1000
0000
0000
0000
0000
1001
0000
1000
0100
,  // measure 13
0010
0001
0010
0100
1000
0001
0100
0010
1000
0000
0100
0000
1001
0000
0000
0000
,  // measure 14
0001
0000
0010
0000
0001
0000
0100
0000
0020
0000
0000
1030
0000
0000
2000
0000
,  // measure 15
0000
0000
3100
0000
0000
0000
0100
0000
0010
0001
0000
0100
0000
0000
0210
0000
,  // measure 16
0000
0000
0310
0000
0001
0000
0010
0000
2000
0000
0000
3100
0000
0000
0020
0000
,  // measure 17
0000
0031
0010
0100
1000
0000
0001
0000
0101
0000
0000
1001
0000
0000
1020
0000
,  // measure 18
0000
0000
1030
0001
1000
0000
0010
0000
0001
0000
0010
1000
0000
1010
0000
1001
,  // measure 19
0000
1000
0100
0010
0001
0000
1001
0000
0000
0000
0001
0000
0010
0000
1000
0000
,  // measure 20
0010
0001
0000
0010
0001
1000
0100
0010
0001
0000
0100
0000
0001
0100
0010
1000
,  // measure 21
0001
0100
0000
0101
0000
1100
0000
0101
0000
0000
1000
0000
1001
0000
0001
0000
,  // measure 22
2000
0000
0000
0000
3001
0000
0000
0000
0010
0001
0010
0001
0010
0001
0000
0000
,  // measure 23
2000
0000
0000
0000
3001
0000
0000
0000
1000
0100
0000
0010
0000
0000
0001
0000
,  // measure 24
1000
0000
0001
0000
0100
0000
0010
0000
1010
0000
0000
1001
0000
0000
1100
0000
,  // measure 25
0000
1000
0100
0010
0001
1000
0010
0100
0001
0000
0000
0110
0000
0000
1000
0000
,  // measure 26
1001
0000
0000
0000
0000
0000
0000
0000
0000
1200
0000
0000
0000
0000
0000
0000
0000
0000
0310
0000
0000
0000
0000
0000
0001
0000
1000
0000
0001
0000
1000
0000
0000
0000
0000
0000
1001
0000
0000
0000
0000
0000
0000
0000
0000
0102
0000
0000
,  // measure 27
0000
0000
0000
0000
0000
0000
0013
0000
0000
0000
0000
0000
0100
0000
1000
0000
0100
0000
1000
0000
0000
0000
0000
0000
1001
0000
0000
0000
0000
0000
0000
0000
0000
2001
0000
0000
0000
0000
0000
0000
0000
0000
3010
0000
0000
0000
0000
0000
,  // measure 28
0001
0000
0000
0000
0000
0000
0010
0000
0000
0000
0000
0000
1000
0000
0000
0000
0000
0000
0100
0000
0010
0000
0100
0000
0010
0000
0000
0000
0000
0000
0001
0000
0000
0100
0000
0000
0010
0000
0000
0000
0000
0000
1000
0000
0000
0000
0000
0000
,  // measure 29
1001
0000
0000
0000
0000
0000
0000
0000
0000
1020
0000
0000
0000
0000
0000
0000
0000
0000
0130
0000
0000
0000
0000
0000
0001
0000
1000
0000
0001
0000
1000
0000
0000
0000
0000
0000
1001
0000
0000
0000
0000
0000
0000
0000
0000
0012
0000
0000
,  // measure 30
0000
0000
0000
0000
0000
0000
0103
0000
0000
0000
0000
0000
0010
0000
1000
0000
0010
0000
1000
0000
0000
0000
0000
0000
1001
0000
0000
0000
0000
0000
0000
0000
0000
2001
0000
0000
0000
0000
0000
0000
0000
0000
3100
0000
0000
0000
0000
0000
,  // measure 31
0001
0000
0000
0000
0000
0000
0100
0000
0000
0000
0000
0000
1000
0000
0000
0000
0000
0000
0010
0000
0100
0000
0010
0000
0100
0000
0000
0000
0000
0000
0001
0000
0000
0100
0000
0000
0010
0000
0000
1000
0000
0000
0001
0000
0000
1000
0000
0000
,  // measure 32
0001
0000
0000
0000
0000
0000
1000
0000
0000
0010
0000
0000
1000
0000
0000
0000
0000
0000
0100
0000
0000
0000
0000
0000
0010
0000
0001
0000
0010
0000
0001
0000
0000
0000
0000
0000
1000
0000
0000
0000
0000
0000
0001
0000
0000
0010
0000
0000
,  // measure 33
0001
0000
0000
0000
0000
0000
0100
0000
0000
0000
0000
0000
0010
0000
1000
0000
0010
0000
1000
0000
0000
0000
0000
0000
0001
0000
0000
0000
0000
0000
1000
0000
0000
0001
0000
0000
1000
0000
0000
0000
0000
0000
0100
0000
0000
0000
0000
0000
,  // measure 34
0001
0000
0000
0000
0000
0000
1000
0000
0000
0000
0000
0000
0010
0000
0000
0000
0000
0000
0001
0000
0000
1000
0000
0000
0010
0000
0000
0000
0100
0000
0000
0000
0001
0000
0000
0000
1000
0000
0000
0000
0000
0000
0001
0000
0000
0100
0000
0000
,  // measure 35
0001
0000
0000
0000
0000
0000
0010
0000
0000
0000
0000
0000
0100
0000
1000
0000
0100
0000
1000
0000
0000
0000
0000
0000
0001
0000
0000
0000
0000
0000
1000
0000
0000
0100
0000
0000
1000
0000
0000
0000
0000
0000
0010
0000
0000
0000
0000
0000
,  // measure 36
0100
0000
0001
0000
0100
0000
0001
0000
0000
0000
0000
0000
1001
0000
0000
0000
0000
0000
0000
0000
0000
1100
0000
0000
0000
0000
0000
0000
0000
0000
0110
0000
0000
0000
0000
0000
0000
0000
0000
0011
0000
0000
0000
0000
0000
0000
0000
0000
,  // measure 37
0101
0000
0000
0110
0000
0000
1010
0000
0000
1001
0000
0000
1100
0000
0110
0000
,  // measure 38
0012
0000
0000
0010
0000
0000
1000
0000
0000
0000
0100
0000
0100
0000
0003
0000
,  // measure 39
0000
0100
0000
0001
0000
0110
0000
1001
,  // measure 40
1000
0000
0000
0001
0000
0000
0000
0000
0000
0000
1000
0100
1000
0100
1000
0000
,  // measure 41
0000
0011
0000
1010
0000
1100
0000
0101
,  // measure 42
0001
0000
0000
0000
0000
0000
0000
0000
0000
1001
0000
0000
0000
0000
0000
0000
0000
0000
1100
0000
0000
0000
0000
0000
0000
0000
0000
0000
0000
0000
0011
0000
0000
0000
0000
0000
0001
0000
1000
0000
0001
0000
1000
0000
0000
0000
0000
0000
,  // measure 43
0001
0000
0100
0000
0000
0010
1000
0000
0001
0000
1000
0000
0100
0000
0010
0000
,  // measure 44
0001
1000
0100
1000
0001
0100
0001
1000
0100
0010
0001
0100
0010
0000
1000
0000
,  // measure 45
0100
0000
0000
0000
0010
0000
0000
0000
0001
0000
0000
0000
2000
0000
0000
0000
0000
0000
0000
0000
0000
0000
0000
0000
3001
0000
0000
0000
1000
0000
0000
0000
0001
0000
0000
1000
0000
0000
0001
0000
0000
1000
0000
0000
0001
0000
0000
1000
0000
0000
0001
0000
0000
1000
0000
0000
0002
0000
0000
0000
0000
0000
0000
0000
,  // measure 46
1003
0000
0000
0000
0000
0000
0000
0000
0000
1000
0000
0000
0100
0000
0000
0000
0000
0000
0020
0000
0000
0000
0000
0000
0000
0000
0000
0000
0000
0000
0031
0000
0000
0000
0000
0000
1000
0000
0010
0000
1000
0000
0020
0000
0000
0000
0000
0000
,  // measure 47
0000
0130
0000
0200
0000
0320
0000
2030
,  // measure 48
0000
0000
3100
0010
0100
0000
0002
0000
0000
0000
1003
0000
0010
0000
0001
0100
,  // measure 49
0000
0000
0100
0000
0010
0100
0000
2000
0000
3100
0010
1000
0001
0020
0000
0000
,  // measure 50
0032
0000
0000
0203
0000
0000
0310
0000
0110
0000
0000
0101
0000
0000
1001
0000
,  // measure 51
1000
0000
0001
0100
0010
1000
0001
1000
0100
0000
0000
0110
0000
0000
0011
0000
,  // measure 52
0001
0000
1000
0001
1000
0100
0010
0001
1000
0000
0010
0100
0001
0100
0010
0100
,  // measure 53
0001
1000
0000
0000
0000
0000
0001
1000
0000
0000
1000
0100
0010
0002
0000
0000
,  // measure 54
0003
0000
0100
0010
0100
0010
0000
0000
0100
0010
0100
0010
0000
0100
0010
1000
,  // measure 55
0001
0010
0000
0010
0000
0010
0000
0010
0100
1000
0001
0010
0100
0000
0000
0000
,  // measure 56
1001
0000
0001
0100
0010
0000
0100
0010
1000
0000
0010
1000
0001
1000
0200
0000
,  // measure 57
0000
0000
0301
0000
0100
0000
1000
0100
0010
0001
0000
0001
0100
0000
0020
0000
,  // measure 58
0000
0000
1030
0000
0010
0000
0100
0000
0101
0000
0000
1001
0000
0000
0021
0000
,  // measure 59
0000
0031
0010
0100
1000
0000
0001
0000
0101
0000
0000
0110
0000
0000
2010
0000
,  // measure 60
0000
0000
3010
1000
0100
0000
0010
0000
1000
0000
0010
0001
0000
0011
0000
1001
,  // measure 61
0000
0001
0100
0010
1000
0000
1001
0000
0000
0000
1000
0000
0100
0000
0001
0000
,  // measure 62
0100
1000
0000
0100
1000
0001
0010
0100
1000
0000
0010
0000
0100
0001
1000
0010
,  // measure 63
0100
0001
0000
0101
0000
1100
0000
0101
0000
0000
1000
0000
1001
0000
0000
0000
,  // measure 64
0001
0100
0001
0010
0001
0100
0001
0010
0001
0100
0001
0010
0001
0100
0001
0010
,  // measure 65
0100
0000
0010
0100
1000
0001
0100
0010
1000
0001
0000
0010
0000
0000
0120
0000
,  // measure 66
0000
0000
1030
0000
0010
0000
0001
0000
0200
0000
0000
1300
0000
0000
2000
0000
,  // measure 67
3100
0000
1000
0100
0001
0000
0010
0000
0011
0000
0000
1001
0000
0000
0102
0000
,  // measure 68
0000
0000
0013
0000
0100
0010
0100
1000
0001
0000
0100
0010
0000
1010
0000
1001
,  // measure 69
0000
1000
0010
0100
0010
0001
0020
0000
0000
0000
1030
0000
0100
0000
0001
0000
,  // measure 70
0100
1000
0000
0100
1000
0001
0100
0010
1000
0000
0001
0000
0010
0001
0100
0001
,  // measure 71
1000
0100
0000
1100
0000
0101
0000
1100
0000
0000
0001
0000
1001
0000
1000
0000
,  // measure 72
0002
0000
0000
0000
1003
0000
0000
0000
0010
1000
0010
1000
0010
1000
0000
0000
,  // measure 73
0002
0000
0000
0000
1003
0000
0000
0000
0001
0010
0000
0100
0000
0000
1000
0000
,  // measure 74
0001
0000
0100
0000
0010
0000
1000
0000
1010
0000
0000
1001
0000
0000
1100
0000
,  // measure 75
0000
1000
0100
0010
0001
1000
0010
0100
0001
0000
0000
0110
0000
0000
2002
0000
,  // measure 76
0000
0000
0000
0000
,  // measure 77
0000
0000
0000
0000
0000
0000
0000
3003
;

//---------------dance-single - ----------------
#NOTES:
     dance-single:
     :
     Medium:
     10:
     0.410872,0.469225,0.313318,0.473995,0.180761,358.000000,319.000000,39.000000,59.000000,0.000000,0.000000,0.410872,0.469225,0.313318,0.473995,0.180761,358.000000,319.000000,39.000000,59.000000,0.000000,0.000000:
0000
0000
0000
0000
,
0000
0000
0000
0000
,
0000
0000
0000
2000
,
0000
0000
0002
0000
0000
0000
0000
0000
0000
0000
0000
0000
3000
0000
0000
0203
,
0000
0000
0000
0000
,
0000
0000
0000
0300
0000
0000
0020
0000
0000
1030
0000
0000
0001
0000
1000
0000
,
0001
0000
0010
0000
0001
0100
0001
0000
,
0100
0000
0010
1000
0010
0000
1000
0000
,
0100
1000
0100
0000
1000
0000
0001
0010
,
0001
0000
1000
0000
0010
0100
0010
0000
,
1000
0000
0100
0000
0010
0000
0001
0000
2000
0000
0000
0002
0000
0000
0000
0000
,
0000
3003
0001
1000
0001
1000
0100
0000
,
1001
0000
0000
1001
0000
0000
1001
0000
,
0001
0100
0010
1000
0100
0000
0110
0000
,
1000
0000
0000
0000
0100
0000
0000
0000
0010
0000
0000
0001
0000
0000
0200
0000
,
0000
0000
0310
0000
0000
0000
0100
0000
0010
0000
0000
1000
0000
0000
0200
0000
,
0000
0000
0310
0000
0100
0000
0000
0000
0010
0000
0000
0001
0000
0000
2000
0000
,
0000
0000
3001
0000
1000
0000
0000
0000
1001
0000
0000
1001
0000
0000
1002
0000
,
0000
0000
0000
0000
0103
0000
0000
0000
0010
0000
0000
2002
0000
0000
0000
3003
,
0000
0000
0000
1001
0000
0000
1001
0000
0000
0000
0001
0000
1000
0000
0000
0000
,
0100
0001
0010
1000
,
0200
0000
0000
0000
0000
0000
0000
0300
0000
0000
0000
0000
0110
0000
0000
0000
,
1002
0000
0000
0000
0103
0010
0100
0000
,
0020
0000
0000
0000
0000
0000
0000
0000
0130
0000
0000
0020
0000
0000
2030
0000
,
0000
0000
3001
0000
0010
0000
0000
0000
1100
0000
0000
1100
0000
0000
1100
0000
,
0000
0000
0000
0000
0010
0000
0000
0000
1001
0000
0000
1001
0000
0000
0000
0000
,
0002
0000
0000
2000
0000
0000
0000
0000
3003
0000
0000
0000
2000
0000
0000
0002
,
0000
0000
0000
0000
3003
0000
0000
0000
2000
0000
0000
0200
0000
0000
0000
0000
,
3300
0010
0001
0100
,
0002
0000
0000
2000
0000
0000
0000
0000
3003
0000
0000
0000
2000
0000
0000
0002
,
0000
0000
0000
0000
3003
0000
0000
0000
0002
0000
0000
0020
0000
0000
0000
0000
,
0033
0100
1000
0010
,
1000
0000
1000
0000
0100
0010
0001
0000
,
0001
0000
1000
0010
0100
0000
0100
0000
,
0010
1000
0001
0010
0100
0000
1000
0000
,
1000
0000
0010
1000
0100
0000
0100
0000
,
0010
0000
0001
0000
0100
0000
0000
0100
0000
0000
0010
0000
0000
0010
0000
0000
,
1000
0000
0000
1000
0000
0000
0001
0000
0000
0001
0000
0000
1000
0000
0100
0000
,
0020
0000
0000
0100
0000
0000
0100
0000
0000
0000
0001
0000
0001
0000
0030
0000
,
0000
0001
0000
0100
0000
0010
0000
1000
,
0001
0000
0000
1000
0000
0000
0000
0000
0000
0000
1000
0000
0100
0000
0010
0000
,
0000
0001
0000
0100
0000
0010
0000
1000
,
0001
0000
0000
1000
0000
0000
0001
0000
0000
0000
0010
0000
0001
0000
0100
0000
,
0000
0000
0010
0000
0000
1000
0000
0000
0001
0000
0100
0000
0010
0000
1000
0000
,
0001
0000
1000
0100
0000
0010
0001
0000
,
0220
0000
0000
0330
,
1001
0000
0001
0200
0000
0310
1000
0200
,
0000
1300
0000
0200
0000
0320
0000
0032
,
0000
0103
0010
2000
0000
3010
0100
0001
,
0000
0000
0001
0000
0010
0000
0000
0100
0000
0000
1000
0000
0010
0000
0100
0000
,
0001
0000
0000
0002
0000
0000
0000
0000
1003
0000
0000
0001
0000
0000
0100
0000
,
0000
0000
0010
0000
0100
0000
0000
0000
0001
0000
0000
1000
0000
0000
0100
0000
,
0000
0000
0010
0000
0001
0000
0000
0000
0100
0000
0000
0010
0000
0000
1000
0000
,
1001
0000
0000
1001
0000
0000
0110
0000
,
0000
1000
1000
0000
1000
1000
0000
1000
,
0002
0000
1003
0110
,
1000
0000
0000
0000
0010
0000
1000
0000
0100
0000
0000
0010
0000
0000
0002
0000
,
0000
0000
1003
0000
0000
0000
0001
0000
1000
0000
0000
0010
0000
0000
0200
0000
,
0000
0000
0310
0000
0100
0000
0000
0000
0001
0000
0000
1000
0000
0000
0200
0000
,
0000
0000
1300
0000
0100
0000
0000
0000
1001
0000
0000
1001
0000
0000
2001
0000
,
0000
0000
0000
0000
3010
0000
0000
0000
1000
0000
0000
0220
0000
0000
0000
0330
,
0000
0000
0000
1001
0000
0000
1001
0000
0000
0000
1000
0000
0001
0000
0000
0000
,
0010
1000
0100
0001
,
0020
0000
0030
0110
,
0001
1000
0001
1000
0001
1000
0001
1000
,
0002
0000
0000
0000
0103
0000
0000
0000
0010
0000
0000
1000
0000
0000
0002
0000
,
0000
0000
1003
0000
0001
0000
0000
0000
0010
0000
0000
0100
0000
0000
2000
0000
,
0000
0000
3100
0000
1000
0000
0000
0000
0001
0000
0000
0100
0000
0000
0020
0000
,
0000
0000
0000
0000
1030
0000
0000
0000
0001
0000
0000
2002
0000
0000
0000
3003
,
0000
0000
0000
0110
0000
0000
1001
0000
0000
0000
1000
0000
0100
0000
0000
0000
,
0001
0010
1000
0100
,
0020
0000
0000
0000
0000
0000
0000
0030
0000
0000
0000
0000
0110
0000
0000
0000
,
2001
0000
0000
0000
3010
0100
0010
0000
,
0200
0000
0000
0000
0000
0000
0000
0000
0301
0000
0000
1000
0000
0000
0200
0000
,
0000
0000
0310
0000
0001
0000
0000
0000
0100
0000
0000
0100
0000
0000
0110
0000
,
0000
0000
0000
0000
0010
0000
0000
0000
1001
0000
0000
0110
0000
0000
2002
0000
,
0000
0000
0000
0000
,
0000
0000
0000
0000
0000
0000
0000
3003
;

//---------------dance-single - ----------------
#NOTES:
     dance-single:
     :
     Easy:
     6:
     0.311023,0.437943,0.337420,0.457927,0.032135,271.000000,229.000000,42.000000,57.000000,0.000000,0.000000,0.311023,0.437943,0.337420,0.457927,0.032135,271.000000,229.000000,42.000000,57.000000,0.000000,0.000000:
0000
0000
0000
0000
,
0000
0000
0000
0000
,
0000
0000
0000
2000
,
0000
0000
0002
0000
0000
0000
0000
0000
0000
0000
0000
0000
3000
0000
0000
0203
,
0000
0000
0000
0000
,
0000
0000
0000
0300
0000
0000
0020
0000
0000
0000
0000
0000
1030
0000
0000
0000
,
0001
0010
0001
1000
,
0010
1000
0001
0100
,
0001
1000
0100
1000
,
0010
0100
0010
1000
,
0001
1000
0200
0000
,
0000
0310
0000
0110
,
1001
0000
0000
1001
0000
0000
1001
0000
,
0110
0000
0010
1001
,
0001
0010
0100
1000
,
0002
0003
0100
0010
,
1000
0100
0010
0001
,
0002
0000
0000
0000
0003
0000
0000
0000
1001
0000
0000
1001
0000
0000
2002
0000
,
0000
3003
1000
0000
0010
0000
0100
0000
,
0002
2000
3003
0001
,
1000
0100
0010
0001
,
0200
0000
0000
0000
0000
0000
0000
0300
0000
0000
0000
0000
0110
0000
0000
0000
,
1002
0000
0010
0010
,
2003
0000
3010
0100
,
0001
0000
0000
0000
1000
0000
0000
0000
1001
0000
0000
1001
0000
0000
1001
0000
,
0000
0000
0000
0000
0000
0000
0000
0000
0110
0000
0000
0110
0000
0000
0000
0000
,
2002
0000
3003
0220
,
0000
0330
2002
3003
,
1000
0100
0010
0001
,
0202
0000
0303
2020
,
0000
3030
0202
0303
,
0001
0010
0100
1000
,
0001
0001
0100
1000
,
1000
0100
0001
0001
,
0100
0010
1000
0001
,
0001
0010
1000
1000
,
0010
0000
0000
0000
0002
0000
0000
0003
0000
0000
0200
0000
0000
0300
0000
0000
,
0020
0000
0000
0030
0000
0000
2000
0000
0000
3000
0000
0000
0002
0000
0003
0000
,
2000
0000
0000
3000
,
0000
0001
0000
1000
,
0100
0010
0000
0100
,
0000
0010
0000
0001
,
0100
0000
0000
0100
0000
0000
0010
0000
,
0010
1000
0001
1000
,
0100
0010
0001
0100
,
0220
0000
0000
0330
,
0001
0000
0000
2000
0000
0000
3200
0000
,
0000
0310
0000
0002
0000
2003
0000
3002
,
0000
0103
0000
0020
0000
0000
1030
0000
,
0001
1000
0100
0010
,
0002
0000
1003
0010
,
0101
0000
0001
0010
,
1100
0000
1000
0001
,
0110
0000
0000
0110
0000
0000
1001
0000
,
0000
1000
0000
0000
1000
0000
0000
0000
,
0002
0000
1003
0110
,
0001
0010
0001
0100
,
0020
0030
1000
0100
,
0010
0001
1000
0010
,
0020
0000
0000
0000
0030
0000
0000
0000
1001
0000
0000
1001
0000
0000
2002
0000
,
0000
3003
1000
0000
0100
0000
0010
0000
,
0002
2000
3003
0001
,
0100
0010
1000
0100
,
0020
0000
0000
0000
0000
0000
0000
0030
0000
0000
0000
0000
0110
0000
0000
0000
,
0001
1000
0001
1000
,
0010
1000
0100
0010
,
0001
0100
0010
1000
,
2000
0000
0000
0000
3000
0000
0000
0000
1001
0000
0000
1001
0000
0000
2002
0000
,
0000
3003
0001
0000
1000
0000
0100
0000
,
0010
0001
0100
0010
,
1000
0001
0010
0001
,
0200
0000
0000
0000
0000
0000
0000
0300
0000
0000
0000
0000
0110
0000
0000
0000
,
2001
0000
0010
0010
,
3002
0000
0013
0001
,
0100
0000
0000
0000
0010
0000
0000
0000
1001
0000
0000
1001
0000
0000
1001
0000
,
0000
0000
0000
0000
0000
0000
0000
0000
0100
0000
0000
0010
0000
0000
2002
0000
,
0000
0000
0000
0000
,
0000
0000
0000
0000
0000
0000
0000
3003
;

//---------------dance-single - ----------------
#NOTES:
     dance-single:
     :
     Beginner:
     2:
     0.161824,0.218971,0.088372,0.168710,0.000000,141.000000,130.000000,11.000000,21.000000,0.000000,0.000000,0.161824,0.218971,0.088372,0.168710,0.000000,141.000000,130.000000,11.000000,21.000000,0.000000,0.000000:
0000
0000
0000
0000
,
0000
0000
0000
0000
,
0000
0000
0000
2000
,
0000
0000
0000
3000
,
0002
0000
0000
0000
,
0000
0003
0000
0000
,
0001
0000
0000
0010
,
0000
0000
0100
0000
,
0000
1000
0000
0000
,
0010
0000
0000
0100
,
0000
0000
0002
0000
,
0003
2000
0000
3000
,
1001
0000
0000
0000
,
0010
0000
0000
1001
,
0000
0001
0001
0000
,
0100
0000
0010
0000
,
1000
0000
0100
0100
,
0100
0000
0000
0000
0020
0000
0000
0030
,
0000
0001
0001
0000
,
1000
2000
3000
0001
,
0001
0000
0100
0000
,
0020
0000
0030
1001
,
1001
0000
0001
0000
,
1000
0000
0001
0000
,
0010
0000
0000
0000
0200
0000
0000
0300
,
0000
0000
0010
0000
,
0001
0000
0000
0100
,
0000
0000
0010
0000
,
0000
1000
1000
1000
,
1000
0000
0000
0100
,
0000
0000
0010
0000
,
0000
0001
0001
0001
,
0001
0000
0000
0100
,
0000
0000
0010
0000
,
0000
1000
0000
0100
,
0000
0000
0010
0000
,
0000
0002
0000
0000
,
0000
0000
0003
0000
,
2002
0000
0000
0000
,
3003
0000
0000
0000
,
1000
0000
0000
0000
,
0001
0000
0000
0000
,
0100
0000
0000
0000
,
0010
0000
1000
0000
,
0100
0000
0010
0000
,
0002
0000
0003
0000
,
1000
0000
0010
0000
,
1000
0000
0001
0000
,
0010
0000
0100
0000
,
1000
0000
0001
0000
,
0100
0000
0010
0010
,
0010
0000
1000
1000
,
1000
0000
0001
0001
,
0001
0000
0000
1001
,
0000
0000
0000
0000
,
0020
0000
0030
1001
,
0000
1000
1000
0000
,
0010
0000
1000
0000
,
0100
0000
0010
0010
,
0010
0000
0000
0000
0002
0000
0000
0003
,
0000
1000
1000
0000
,
0010
0020
0030
0100
,
0100
0000
0001
0000
,
2000
0000
3000
1001
,
0001
0000
1000
0000
,
0001
0000
0010
0000
,
0001
0000
0100
0100
,
0100
0000
0000
0000
0020
0000
0000
0030
,
0000
1000
1000
0000
,
0100
0100
0100
0000
,
0010
0000
0001
0000
,
0200
0000
0300
1001
,
1001
0000
0001
0000
,
0010
0000
0100
0000
,
1000
0000
0000
0000
0020
0000
0000
0030
,
0000
0000
2002
0000
,
0000
0000
0000
0000
,
0000
0000
0000
0000
0000
0000
0000
3003
;

//---------------dance-single - ----------------
#NOTES:
     dance-single:
     :
     Hard:
     13:
     0.649591,0.719478,0.490062,0.433826,0.538265,566.000000,505.000000,61.000000,54.000000,0.000000,0.000000,0.649591,0.719478,0.490062,0.433826,0.538265,566.000000,505.000000,61.000000,54.000000,0.000000,0.000000:
0000
0000
0000
0000
,
0000
0000
0000
0000
,
0000
0000
0000
2000
,
0000
0000
0002
0000
0000
0000
0000
0000
0000
0000
0000
0000
3000
0000
0000
0203
,
0000
0000
0000
0000
,
0000
0000
0000
0300
0000
0000
0020
0000
0000
1030
0000
0000
0001
0000
1000
0000
,
0100
0000
0000
0010
0000
0000
0001
0000
0100
0000
0010
0000
1000
0000
0000
0100
,
0000
0000
0010
0000
0001
0000
0100
0000
1000
0000
0000
0100
0000
0000
0001
0000
,
0010
0000
0100
0000
1000
0000
0000
0100
0000
0000
1000
0000
0010
0000
0100
0000
,
0001
0000
0000
0010
0000
0000
1000
0000
0010
0000
0001
0000
0010
0000
0000
0100
,
1000
0000
0001
0000
0100
0000
0010
2000
0000
0000
0000
0002
0000
0000
0000
0000
,
3003
0001
0010
1000
0010
0001
0100
0100
,
0001
1000
0000
0000
0000
0000
0001
1000
0000
0000
0000
0000
1001
0000
0001
0000
,
0010
1000
0001
0100
1000
0010
0110
0000
,
1000
0000
0001
0000
0010
0000
0001
0000
0200
0000
0000
0310
0000
0000
0020
0000
,
0000
0000
1030
0000
0000
0000
1000
0000
0100
0010
0000
0001
0000
0000
0200
0000
,
0000
0000
1300
0000
0100
0000
0001
0000
0020
0000
0000
0031
0000
0000
0002
0000
,
0000
0000
1003
0010
1000
0000
0001
0000
0101
0000
0000
1001
0000
0000
0021
0000
,
0000
0000
0031
0000
1000
0000
0010
0000
0001
0000
0010
1000
0000
0100
0000
0010
,
0000
0001
1000
0002
0000
0000
1003
0000
0000
0000
0001
0000
0010
0000
0100
0000
,
1000
0001
0000
1000
0001
0000
0100
0000
0010
0000
1000
0000
0100
0000
0010
0000
,
0001
1000
0000
1000
0000
0001
0000
1000
0000
0000
0010
0000
0110
0000
0100
0000
,
0002
0000
0000
0000
1003
0000
0000
0000
0001
0000
0010
0000
0001
0000
0000
0020
,
0000
0000
0000
0000
0031
0000
0000
0000
0100
0010
0000
2000
0000
0000
3002
0000
,
1003
0000
1000
0000
0001
0000
0100
0000
0101
0000
0000
0110
0000
0000
1010
0000
,
0000
0000
1000
0000
0001
0000
1000
0000
1100
0000
0000
0011
0000
0000
0001
0000
,
1001
0000
0000
1020
0000
0000
0130
0000
0010
0000
1000
0000
1001
0000
0000
0021
,
0000
0000
0130
0000
0010
0000
0001
0000
1001
0000
0000
2001
0000
0000
3100
0000
,
1000
0010
0001
1000
0100
0001
0010
0001
,
1001
0000
0000
1200
0000
0000
0310
0000
0100
0000
1000
0000
1001
0000
0000
0201
,
0000
0000
0310
0000
0100
0000
0001
0000
1001
0000
0000
1002
0000
0000
0103
0000
,
0001
0010
1000
0001
0100
1000
0010
0100
,
0101
0000
0000
0001
0100
0000
0010
0000
1000
0001
1000
0000
0001
0000
0000
1000
,
0100
0000
0010
0000
0001
1000
0001
0000
0100
0000
0000
0010
0100
0000
0001
0000
,
1000
0000
0000
0000
0000
0000
0100
0000
0000
0000
0000
0000
0001
0000
0000
0000
0000
0000
0100
0000
0000
0000
0000
0000
1000
0000
0000
0000
0100
0000
0000
0000
0010
0000
0000
0000
0001
0000
0000
0000
0000
0000
0000
0000
0000
1000
0000
0000
,
0001
0000
0100
0000
0010
1000
0010
0000
0100
0000
0000
0001
1000
0000
0100
0000
,
0010
0001
0010
0000
0001
0000
0000
0101
0000
0000
1000
0000
0000
1100
0000
0000
,
0001
0000
0000
0011
0000
0000
1000
0000
0000
1010
0000
0000
0001
0000
1001
0000
,
2000
0000
0000
0010
0000
0000
0001
0000
0000
0000
0100
0000
0100
0000
3000
0000
,
0000
0100
0000
1000
0000
1010
0000
0101
,
0100
0000
0000
0010
0000
0000
0000
0000
0000
0000
1000
0000
0100
0000
0010
0000
,
0000
0011
0000
1100
0000
1010
0000
0101
,
0001
0000
0000
1001
0000
0000
1100
0000
0000
0000
0010
0000
0001
0000
0100
0000
,
0010
0000
1000
0000
0000
0010
1000
0000
0001
0000
1000
0000
0100
0000
0010
0000
,
0001
0100
1000
0100
0001
0001
1000
0100
,
0010
0001
0010
0002
0000
0000
1003
0000
0004
4000
0000
0000
0000
0000
3000
0003
,
1000
0000
0000
1000
0100
0000
0020
0000
0000
0000
0031
0000
0100
0010
0200
0000
,
0000
0310
0000
0200
0000
0302
0000
2003
,
0000
0000
3100
0010
0100
0000
0020
0000
0000
0000
0031
0000
0100
0000
0010
1000
,
0000
0000
1000
0000
0100
0010
0000
0002
0000
0000
0103
0000
0010
2000
0000
0000
,
3002
0000
0000
0203
0000
0000
0310
0000
0110
0000
0000
0101
0000
0000
1001
0000
,
1000
0000
0100
0000
0001
0000
0100
0000
1100
0000
0000
0110
0000
0000
0011
0000
,
0001
0000
0100
0000
1000
0000
0100
0000
0101
0000
0000
0011
0000
0000
1001
0000
,
0001
1000
0000
0000
0000
0000
0001
1000
0000
0000
0100
0010
0100
0020
0000
0000
,
0030
0000
0001
0100
0001
0100
0000
0000
0001
0100
0001
0100
0000
0001
0100
0001
,
0100
0010
0000
0010
0000
0010
0000
0010
1000
0000
0001
0000
0110
0000
0000
0000
,
0001
0000
1000
0000
0100
0000
0010
0000
0200
0000
0000
1300
0000
0000
2000
0000
,
0000
0000
3001
0000
0000
0000
0001
0100
0010
0100
0000
0010
0000
0000
2000
0000
,
0000
0000
3010
0000
0001
0000
0010
0000
2000
0000
0000
3100
0000
0000
0200
0000
,
0000
0000
0310
0001
0010
0000
0100
0000
1100
0000
0000
1001
0000
0000
1020
0000
,
0000
0000
0130
0000
0001
0000
0010
0000
1000
0000
0010
0001
0000
0100
0000
0010
,
0000
1000
0001
2000
0000
0000
3001
0000
0000
0000
1000
0000
0010
0000
0100
0000
,
0001
1000
0000
0001
1000
0000
0100
0000
0010
0000
0001
0000
0100
0000
0010
0000
,
1000
0001
0000
0001
0000
1000
0000
0001
0000
0000
1000
0000
1001
0000
0000
0000
,
0001
0010
0001
0000
1000
0100
1000
0000
0001
0010
0001
0000
1000
0100
1000
0000
,
0002
0000
1003
0010
1000
0010
1000
0000
0010
0100
0000
0001
0000
0000
0020
0000
,
0000
0000
1030
0000
0010
0000
0001
0000
0200
0000
0000
1300
0000
0000
2000
0000
,
0000
0000
3100
0010
0100
0000
0001
0000
0101
0000
0000
1010
0000
0000
0021
0000
,
0000
0000
1030
0000
0010
0001
0010
0000
0001
0000
0100
0010
0000
1000
0000
0100
,
0000
0010
0000
0001
1000
0001
2000
0000
0000
0000
3010
0000
0001
0000
0010
0000
,
1000
0010
0000
1000
0010
0000
0100
0000
0001
0000
0010
0000
0100
0000
0010
0000
,
0001
1000
0000
1000
0000
0001
0000
1000
0000
0000
0010
0000
0110
0000
0100
0000
,
0002
0000
0000
0000
1003
0000
0000
0000
0010
0000
1000
0000
0010
0000
0000
2000
,
0000
0000
0000
0000
3010
0000
0000
0000
1000
0100
0000
0010
0000
0000
0002
0000
,
1000
0000
1003
0000
0001
0000
0100
0000
0110
0000
0000
1010
0000
0000
1001
0000
,
0000
0000
1000
0000
0100
0000
0010
0000
1001
0000
0000
0110
0000
0000
2002
0000
,
0000
0000
0000
0000
,
0000
0000
0000
0000
0000
0000
0000
3003
;
