#VERSION:0.83;
#TITLE:Yabis Starlight;
#SUBTITLE:;
#ARTIST:DAJI;
#TITLETRANSLIT:;
#SUBTITLETRANSLIT:;
#ARTISTTRANSLIT:;
#GENRE:Digital Rock;
#ORIGIN:;
#CREDIT:;
#BANNER:Yabis Starlight.png;
#BACKGROUND:Yabis Starlight-bg.png;
#PREVIEWVID:;
#JACKET:Yabis Starlight-jacket.png;
#CDIMAGE:;
#DISCIMAGE:;
#LYRICSPATH:;
#CDTITLE:cdtitle.png;
#MUSIC:Yabis Starlight.ogg;
#OFFSET:-0.071166;
#SAMPLESTART:61.499596;
#SAMPLELENGTH:11.428577;
#SELECTABLE:YES;
#BPMS:0.000=168.000;
#STOPS:170.000=0.357,
313.000=0.357;
#DELAYS:;
#WARPS:;
#TIMESIGNATURES:0.000=4=4;
#TICKCOUNTS:0.000=4;
#COMBOS:0.000=1;
#SPEEDS:0.000=1.000=0.000=0;
#SCROLLS:0.000=1.000;
#FAKES:;
#LABELS:0.000=Song Start;
#BGCHANGES:;
#KEYSOUNDS:;
#ATTACKS:
;

//---------------dance-single - ----------------
#NOTEDATA:;
#CHARTNAME:;
#STEPSTYPE:dance-single;
#DESCRIPTION:;
#CHARTSTYLE:;
#DIFFICULTY:Challenge;
#METER:14;
#RADARVALUES:0.758741,0.795946,0.393111,0.259286,0.234194,635.000000,588.000000,47.000000,31.000000,0.000000,0.000000,0.000000,0.000000,0.000000,0.758741,0.795946,0.393111,0.259286,0.234194,635.000000,588.000000,47.000000,31.000000,0.000000,0.000000,0.000000,0.000000,0.000000;
#CREDIT:;
#NOTES:
// measure 0
0000
0000
0000
0000
,  // measure 1
0000
0000
0000
0000
,  // measure 2
0000
0000
0000
0000
,  // measure 3
0000
0000
0000
0000
,  // measure 4
1000
0100
1000
0000
1000
0000
0001
0100
0001
0000
0001
0000
1000
0010
1000
0000
,  // measure 5
1000
0000
0001
0010
0001
0000
0001
0000
0100
0010
1000
0000
0001
0000
0010
0000
,  // measure 6
0001
0100
0001
0000
0001
0000
1000
0100
1000
0000
1000
0000
0001
0010
0001
0000
,  // measure 7
0001
0000
1000
0010
1000
0000
1000
0000
0100
0010
0001
0000
0100
0000
0020
0000
,  // measure 8
0000
0000
0000
0000
0030
0000
0000
0000
0010
0000
0000
0010
1000
0000
0100
0000
,  // measure 9
0210
0000
0000
1000
0000
1000
0000
1000
,  // measure 10
0300
1100
1001
1010
,  // measure 11
0201
0000
0000
0010
0000
0010
0000
0010
,  // measure 12
0300
0101
1001
0011
,  // measure 13
2100
0000
0000
0001
0000
0001
0000
3001
,  // measure 14
1000
1010
0110
0101
,  // measure 15
1002
0010
2003
0100
,  // measure 16
3001
0100
0010
1000
0001
0010
0100
1000
,  // measure 17
0001
0100
0010
0100
0001
0100
0110
0000
,  // measure 18
1000
0010
0100
0010
1000
0010
0110
0000
,  // measure 19
0001
0010
0001
0100
0010
1000
1100
0000
,  // measure 20
0001
0000
0010
0000
0100
0000
1000
0000
0001
0000
0000
0001
0100
0000
0010
0000
,  // measure 21
1000
0100
1000
0100
0001
0100
0001
0100
,  // measure 22
1000
0010
1000
0010
0001
0010
0001
0010
,  // measure 23
1000
0010
0001
1000
0100
0001
1000
0100
,  // measure 24
0220
0000
0000
0000
0000
0000
0330
0000
0000
0000
0100
0010
0001
0000
0000
0000
,  // measure 25
1001
0000
0001
0100
0001
0100
0010
0100
,  // measure 26
1000
0100
0010
1000
0100
0010
1000
0010
,  // measure 27
0001
0010
0001
0100
0010
0100
0010
1000
,  // measure 28
0100
0001
0100
0010
0001
0100
0010
1000
,  // measure 29
1001
0000
1000
0010
1000
0010
0100
0010
,  // measure 30
0001
0010
0100
0001
0010
0100
0001
0100
,  // measure 31
1000
0001
1000
0001
1000
0010
0100
0010
,  // measure 32
1000
0100
0001
0100
1000
0010
0101
0000
,  // measure 33
0001
0010
0100
0010
0100
0010
0001
0010
,  // measure 34
1000
0010
0100
1000
0010
0100
1000
0100
,  // measure 35
0001
0000
1000
0000
0001
0000
1000
0000
0100
0000
0010
0000
0100
0000
0010
0001
,  // measure 36
1000
0001
0100
0010
1000
0100
0010
0001
,  // measure 37
1001
0000
1000
0100
0010
0001
0100
0010
,  // measure 38
1000
0010
1000
0010
1000
0001
1000
0001
0010
0001
0010
0001
1000
0000
0000
0000
,  // measure 39
0001
0200
0000
0310
0110
0010
0000
0101
,  // measure 40
0000
0000
1010
0000
1000
0000
0001
0000
1001
0000
1001
0000
0000
0000
0001
1000
,  // measure 41
0200
0000
0310
0100
0110
0100
0000
1100
,  // measure 42
0000
0000
0011
0000
0001
0000
1000
0001
1000
0000
0000
0000
1000
0000
0010
0000
,  // measure 43
0001
0010
1000
0100
0010
0002
0000
0103
,  // measure 44
0001
0010
0001
0100
1000
0100
0001
1000
,  // measure 45
0100
0001
1000
0010
0001
0100
0000
0010
,  // measure 46
1000
0000
0200
0000
0000
0000
0310
0100
0010
0000
0001
0000
0100
0000
1000
0000
,  // measure 47
0100
0020
0000
0130
0001
0100
0010
1000
,  // measure 48
0100
0010
0001
0010
1000
0010
0001
0100
,  // measure 49
1000
0001
0010
1000
0100
0010
0000
0002
,  // measure 50
0000
0000
2003
0000
3020
0000
0130
0001
0100
0001
0100
0010
1000
0000
0010
0000
,  // measure 51
0100
1000
0100
0001
0010
2000
0000
3010
,  // measure 52
0100
0010
0001
0100
0010
0100
1000
0100
,  // measure 53
0010
1000
0010
0001
0010
1000
0000
2000
,  // measure 54
3020
0000
0230
0000
0301
1000
0001
1000
0100
0010
0100
0010
0001
0000
0010
0000
,  // measure 55
1000
0001
0100
1000
0001
0100
1000
0001
,  // measure 56
0010
0000
1000
0000
0001
0000
0010
0000
0100
0000
1000
0010
0200
0000
0000
0000
,  // measure 57
0000
0300
1200
0000
0000
0000
0000
0300
0201
0000
0000
0000
0301
0000
0100
0000
,  // measure 58
0010
0000
1000
0000
0001
0010
0001
0010
0100
0000
1000
0000
0001
0000
0100
0000
,  // measure 59
0010
1000
0100
1000
0010
0100
0001
0010
,  // measure 60
0001
0100
1000
0100
0001
0010
0000
0010
,  // measure 61
0001
0000
0100
0000
0001
0000
0010
0000
0100
0000
1000
0001
0100
0000
0100
0001
,  // measure 62
1000
0000
0100
0000
1000
0001
0000
1000
0001
0000
0100
0000
0020
0000
0000
0000
,  // measure 63
0100
0130
1010
0102
,  // measure 64
0013
0000
0100
1000
0100
0000
0010
0000
0001
0000
0100
0000
0120
0000
0000
0000
,  // measure 65
1030
0000
0000
0000
0010
0000
0100
0000
0001
0000
1000
0100
1000
0000
0001
0000
,  // measure 66
1000
0000
0010
1000
0001
0000
1000
0000
0110
0000
0000
0000
0001
0000
1000
0000
,  // measure 67
0100
0000
0010
0000
0001
0000
0100
0010
1000
0000
0001
0000
1000
0000
0100
0000
,  // measure 68
0010
0000
0001
1000
0001
0000
0100
0000
0010
0000
2000
0000
0000
0000
3010
0000
,  // measure 69
0100
0001
0100
1000
0100
0010
1000
0100
,  // measure 70
0010
0001
1000
0001
0100
0010
1010
0000
,  // measure 71
1010
0000
0010
1000
0010
1000
0010
0001
,  // measure 72
0010
0000
1000
0000
0100
0000
0000
0010
0001
0000
0100
0000
0010
0000
0000
0000
,  // measure 73
1010
1000
0100
0000
0011
0001
1000
0001
,  // measure 74
1000
0000
0000
0001
1000
0000
0100
0000
1000
0000
0010
0000
0100
0000
0002
0000
,  // measure 75
0000
1003
1001
1000
0000
1100
0000
0011
,  // measure 76
0010
0000
0001
0000
1001
0000
0000
0000
0000
0000
0001
0100
0020
0000
0000
0000
,  // measure 77
1030
0000
0010
0000
1010
0000
0010
0000
0000
0000
0101
0000
0000
0000
0001
1000
,  // measure 78
0001
0000
1000
0000
1001
0000
0000
0000
1000
0010
1000
0000
1000
0000
0001
0100
,  // measure 79
0001
0000
0001
0000
1000
0100
1000
0000
1000
0000
0001
0010
0001
0000
0001
0000
,  // measure 80
0100
0010
0100
0000
0100
0000
0001
0000
1000
0100
1000
0000
1000
0000
0001
0010
,  // measure 81
0001
0000
0001
0000
1000
0010
1000
0000
1000
0000
0001
0100
0001
0000
0001
0000
,  // measure 82
1000
0100
0010
0000
0001
0000
2002
0000
0000
0000
0000
0000
3003
0000
0000
0000
;

//---------------dance-single - ----------------
#NOTEDATA:;
#CHARTNAME:;
#STEPSTYPE:dance-single;
#DESCRIPTION:;
#CHARTSTYLE:;
#DIFFICULTY:Hard;
#METER:12;
#RADARVALUES:0.604603,0.588308,0.292742,0.301107,0.020910,506.000000,471.000000,35.000000,36.000000,0.000000,0.000000,0.000000,0.000000,0.000000,0.604603,0.588308,0.292742,0.301107,0.020910,506.000000,471.000000,35.000000,36.000000,0.000000,0.000000,0.000000,0.000000,0.000000;
#CREDIT:;
#NOTES:
0000
0000
0000
0000
,
0000
0000
0000
0000
,
0000
0000
0000
0000
,
0000
0000
0000
0000
,
1000
0100
1000
0001
0100
0001
1000
0010
,
1000
0001
0010
0001
0100
0010
1000
0100
,
0010
0001
0010
0100
1000
0100
1000
0010
,
1000
0001
0100
0001
1000
0100
0010
0002
,
0000
0000
0000
0000
0003
0000
0000
0000
0001
0000
0000
0001
0100
0000
0010
0000
,
2000
0000
0000
0001
0000
0001
0000
0001
,
3000
1001
1100
0110
,
0012
0000
0000
1000
0000
1000
0000
1000
,
0003
0101
0110
1010
,
2001
0000
0000
0100
0000
0100
0000
3100
,
1000
1010
0110
0101
,
1002
0010
2003
0100
,
3001
0100
0010
1000
0001
0010
0100
1000
,
0002
0100
0203
0010
,
0320
1000
2030
3200
,
0320
0001
0032
1000
,
2003
0000
0010
0000
3010
1000
0100
0010
,
0001
0100
0001
0100
0010
0100
0010
0100
,
0010
1000
0010
1000
0001
1000
0001
1000
,
0001
0010
0100
1000
0001
0100
0010
1000
,
0200
0000
0300
0110
,
1001
1000
0001
1000
,
0100
0000
0010
0001
0100
0000
1010
0000
,
0001
0100
0000
0100
0000
0100
0000
0001
,
1000
0000
0100
0010
0000
0010
0100
1000
,
0001
0100
0010
0100
,
0001
0000
1000
0100
0010
0000
0011
0000
,
0001
1000
0000
1000
0000
1000
0010
0100
,
0001
1010
0101
0011
,
1100
0000
0001
0000
1000
0001
0000
1000
,
0100
0000
0010
0001
0000
0001
0100
0010
,
1000
0000
0001
0000
0001
0000
1000
0100
,
0010
0000
0001
0100
0000
0010
1000
0100
,
0010
0100
1000
0010
,
1000
0010
0100
0010
0001
0010
0100
0010
,
2000
0000
3001
0000
1001
0000
0000
1100
,
0000
0011
0000
0000
1000
0001
0000
0001
,
0200
0000
0310
0000
0110
0000
0000
1010
,
0000
1000
0010
0100
0001
0000
1000
0100
,
0010
0001
0100
0010
1000
0002
0000
1003
,
0010
1000
0001
0010
0001
0100
0010
1000
,
0100
0010
0001
0100
0010
1000
0000
0001
,
0010
0002
0000
1003
0001
1000
0100
0010
,
0100
2000
0000
3001
0100
0001
1000
0010
,
1000
0001
0010
0100
0010
0001
1000
0010
,
0100
0001
0010
0100
0010
0001
0000
2000
,
0000
3010
0100
0001
1000
0100
0010
0001
,
0100
0010
1000
0100
1000
0020
0000
1030
,
0010
1000
0100
0010
0100
1000
0001
0100
,
0010
0100
0001
0010
0001
1000
0000
0100
,
0010
0001
0100
0010
1000
0001
1000
0100
,
0010
0001
0100
0010
1000
0100
0010
0001
,
0100
0010
1000
0100
1000
0001
0020
0000
,
0000
0032
0000
0000
0203
0000
0301
0100
,
0010
1000
0001
0010
0100
1000
0001
0100
,
0001
0100
0010
1000
0010
1000
0001
0010
,
0001
0010
0001
0100
0010
1000
0000
0010
,
1000
0100
1000
0100
0010
0001
0010
0001
,
0100
0010
1000
0001
1000
0100
0020
0000
,
0100
0130
1100
0012
,
0103
0000
0000
0010
1000
0000
0010
0000
0100
0000
0001
0000
2000
0000
0000
0000
,
3100
0000
1000
0000
0010
0100
0001
1000
,
0010
0000
0000
1000
0010
0000
0100
0000
0001
0000
0000
0000
1000
0000
0100
0000
,
0010
0001
0100
0010
0100
1000
0100
0010
,
0100
0002
0000
0013
0100
2000
0000
3010
,
0100
0001
0100
0010
1000
0001
0020
0000
,
0130
0000
0010
0001
1000
0000
1001
0000
,
1001
0000
0001
1000
0001
1000
0001
1000
,
0100
0000
0010
0000
0001
0000
0000
0100
0000
0000
0010
0000
2000
0000
0000
0000
,
3010
0000
0200
0000
0301
0000
1000
0001
,
1000
0000
0000
0001
1000
0000
0100
0000
1000
0000
0010
0000
0200
0000
0000
0000
,
0301
0000
1001
0000
0000
1100
0000
0011
,
0000
0000
1001
0000
0000
0001
0200
0000
,
0310
0000
1010
0000
0000
0101
0000
0001
,
0010
0100
1000
0000
1000
0100
1000
0001
,
0010
0001
0100
0001
0100
0010
1000
0010
,
0100
0001
1000
0100
0010
0001
0010
0001
,
0100
0001
1000
0010
1000
0100
1000
0100
,
0010
0001
0100
0020
0000
0000
0030
0000
;

//---------------dance-single - ----------------
#NOTEDATA:;
#CHARTNAME:;
#STEPSTYPE:dance-single;
#DESCRIPTION:;
#CHARTSTYLE:;
#DIFFICULTY:Medium;
#METER:9;
#RADARVALUES:0.456439,0.519095,0.292742,0.426568,0.000000,382.000000,347.000000,35.000000,51.000000,0.000000,0.000000,0.000000,0.000000,0.000000,0.456439,0.519095,0.292742,0.426568,0.000000,382.000000,347.000000,35.000000,51.000000,0.000000,0.000000,0.000000,0.000000,0.000000;
#CREDIT:;
#NOTES:
0000
0000
0000
0000
,
0000
0000
0000
0000
,
0000
0000
0000
0000
,
0000
0000
0000
0000
,
1000
0000
0001
0100
0000
0001
1000
0000
,
0001
0010
0000
0001
1000
0000
0001
1000
,
0001
0000
1000
0010
0000
1000
0001
0000
,
1000
0100
0000
0010
0001
0000
0100
0020
,
0000
0030
0010
0110
,
2002
0000
0000
0000
,
3003
1000
0100
0010
,
2002
0000
0000
0000
,
3003
0001
0100
0010
,
2020
0000
0000
0000
,
3030
0010
0100
0001
,
0022
0033
2200
3300
,
2002
0000
3003
0000
0001
1000
0001
1000
,
0200
0310
0020
0130
,
2000
3001
0002
2003
,
3020
0130
0002
1003
,
0200
0000
0310
0000
0010
0000
0100
1000
,
0001
0001
0100
1010
,
1000
1000
0100
0011
,
0001
0101
1000
1100
,
2002
0000
3003
0110
,
1001
1000
0001
1000
,
0100
0000
0010
0001
0010
0000
0100
0000
,
1000
0001
0000
0001
0000
0001
0000
1000
,
0010
0000
0100
0010
0000
0100
0001
0100
,
0001
1000
0001
1000
,
0010
0000
0100
0001
0100
0000
0010
0000
,
1000
0001
0000
0001
0000
1000
0100
1000
,
0100
0011
1100
0011
,
1001
0000
1000
0000
0001
1000
0000
0001
,
0100
0000
0010
1000
0000
0001
0100
0001
,
0100
0000
0001
0000
1000
0000
0100
0010
,
0100
0000
1000
0100
0000
0010
0001
0010
,
0001
0100
0010
1000
,
0001
0010
0001
0000
1000
0010
1000
0000
,
0220
0000
0330
0000
1001
0000
0000
1100
,
0000
0011
0000
0000
1000
0001
0000
1000
,
0002
0000
0003
0000
0101
0000
0000
1010
,
0000
0101
0000
0000
1001
0000
0001
0000
,
0010
0000
0100
0000
1000
0002
0000
0103
,
0010
1000
0001
1000
,
0100
0010
0000
0100
0010
0001
0000
1000
,
0010
2000
0000
0000
3001
0000
0100
0000
,
0010
2000
0000
3001
0010
0000
0001
1000
,
0000
0010
0100
0000
0001
0000
1000
0000
,
0001
0010
0000
0001
1000
0010
0000
0200
,
0000
0301
1000
0000
0100
0010
0001
0000
,
0010
0100
0000
1000
0001
2000
0000
3010
,
0100
0010
1000
0001
,
1000
0100
0000
0010
0001
1000
0000
0002
,
0000
0103
0010
0000
1000
0000
0001
0000
,
0010
0100
0000
1000
0010
0000
0100
0001
,
0000
1000
0100
0000
0010
0000
0002
0000
,
0000
2003
0000
0000
3020
0000
0130
0000
,
0100
0000
0010
1000
0001
0000
1000
0000
,
0100
0001
0100
1000
,
0100
0000
0010
0001
1000
0001
0100
0000
,
0001
0100
1000
0100
,
0001
0000
1000
0010
0100
0001
2000
0000
,
0100
3100
0020
0032
,
1003
0020
0130
0002
,
1000
0000
1003
0000
0001
1000
0200
0000
,
0310
0000
0100
0010
0001
0000
1000
0000
,
0010
0000
0100
0001
0100
0010
1000
0000
,
0100
0020
0000
0031
1000
0002
0000
0103
,
0010
0000
1000
0100
1000
0100
0020
0000
,
0100
0000
0130
0000
0010
0001
2000
0000
,
0001
0001
0001
3001
,
1000
0001
1000
0000
0010
0000
0102
0000
,
0013
2100
3010
1002
,
0103
0000
0001
0000
0010
0001
1000
0020
,
0000
0000
0130
0000
0000
0110
0000
0101
,
0000
0000
1001
0000
0000
1000
0200
0000
,
0000
0000
0310
0000
0000
1100
0000
0011
,
0000
0000
1001
0000
1000
0000
0010
0100
,
0000
0010
1000
0000
0001
0100
0000
0001
,
1000
0000
0100
0000
0010
0000
0001
0100
,
0000
0010
1000
0000
0001
1000
0000
0100
,
0010
0000
0001
0200
0000
0000
0300
0000
;

//---------------dance-single - ----------------
#NOTEDATA:;
#CHARTNAME:;
#STEPSTYPE:dance-single;
#DESCRIPTION:;
#CHARTSTYLE:;
#DIFFICULTY:Easy;
#METER:6;
#RADARVALUES:0.348901,0.415276,0.225830,0.451660,0.000000,292.000000,265.000000,27.000000,54.000000,0.000000,0.000000,0.000000,0.000000,0.000000,0.348901,0.415276,0.225830,0.451660,0.000000,292.000000,265.000000,27.000000,54.000000,0.000000,0.000000,0.000000,0.000000,0.000000;
#CREDIT:;
#NOTES:
0000
0000
0000
0000
,
0000
0000
0000
0000
,
0000
0000
0000
0000
,
0000
0000
0000
0000
,
1000
0000
0000
0100
0000
0000
0010
0000
,
0000
0001
0000
0000
0100
0000
0010
0000
,
1000
0000
0000
0001
0000
0000
0010
0000
,
0000
0100
0000
0000
1000
0000
0000
2002
,
0000
3003
0000
0110
,
2002
0000
0000
0000
,
3003
1000
0100
0010
,
2002
0000
0000
0000
,
3003
0001
0100
0010
,
2020
0000
0000
0000
,
3030
0010
0100
0001
,
0022
0033
0220
0330
,
2200
3300
1000
0001
,
0200
0300
0020
0130
,
0002
0003
2000
3200
,
0320
0030
0002
1003
,
0020
0030
0100
0010
,
1000
1000
0100
0100
,
0010
0010
0001
0001
,
0010
0001
0100
0010
,
2002
0000
3003
0110
,
1001
1000
0001
0001
,
0100
0010
1000
0001
,
0010
0010
0100
0100
,
0010
0001
0100
0010
,
1000
1000
0001
0001
,
0100
0010
1000
0001
,
0010
0010
0001
0001
,
0100
1001
0110
1001
,
1000
0100
0100
1000
,
0001
0100
0010
0100
,
0001
0001
1000
1000
,
0100
0010
0100
1000
,
0001
0001
0100
0001
,
0010
1000
0100
0001
,
2002
0000
3003
0000
1001
0000
0000
1000
,
0000
0001
0000
0000
0101
0000
0000
0000
,
2020
0000
3030
0000
1001
0000
0000
0001
,
0000
1000
0000
0000
1001
0000
0001
0000
,
0010
0000
0100
0000
2000
0000
0000
3000
,
0010
1000
0100
1000
,
0001
0000
1000
0000
0100
0000
0000
0010
,
0000
0002
0000
0000
1003
0000
0001
0000
,
0000
0200
0000
0000
0301
0000
1000
0000
,
0001
0010
0001
0100
,
0010
0000
1000
0000
0001
0000
0000
2000
,
0000
3001
0010
0001
,
1000
0000
0001
0000
0000
0200
0000
0000
,
0310
1000
0010
0100
,
0001
0000
1000
0000
0100
0000
0000
0020
,
0000
0031
0010
0100
,
1000
0010
1000
0100
,
1000
0010
0100
0002
,
0000
2003
0000
0000
3200
0000
0310
0000
,
0010
0001
1000
0010
,
0100
0010
0100
0010
,
0100
0001
0010
0001
,
1000
0001
1000
0001
,
1000
0010
0100
0002
,
1000
1003
0200
0320
,
0031
0200
0310
2000
,
0001
3001
1000
0200
,
0310
0100
1000
0001
,
0100
1000
0100
0001
,
0010
0100
0010
0001
,
0010
0100
1000
0002
,
0100
0103
0010
2000
,
0001
0001
0001
3001
,
1000
0100
0010
0002
,
0013
2000
3100
0002
,
0103
0010
1000
2002
,
3003
0000
0101
0000
0000
0001
0000
1000
,
0000
1100
0000
0220
,
0330
0000
1001
0000
0000
1000
0000
0001
,
0000
0000
1001
0000
1000
0000
0000
0010
,
0000
0000
0100
0000
0000
0001
0000
0000
,
1000
0000
0100
0000
0010
0000
0000
0001
,
0000
0000
0100
0000
0000
0010
0000
0000
,
1000
0000
0000
2002
0000
0000
3003
0000
;

//---------------dance-single - ----------------
#NOTEDATA:;
#CHARTNAME:;
#STEPSTYPE:dance-single;
#DESCRIPTION:;
#CHARTSTYLE:;
#DIFFICULTY:Beginner;
#METER:3;
#RADARVALUES:0.195958,0.242244,0.083641,0.276014,0.000000,164.000000,154.000000,10.000000,33.000000,0.000000,0.000000,0.000000,0.000000,0.000000,0.195958,0.242244,0.083641,0.276014,0.000000,164.000000,154.000000,10.000000,33.000000,0.000000,0.000000,0.000000,0.000000,0.000000;
#CREDIT:;
#NOTES:
0000
0000
0000
0000
,
0000
0000
0000
0000
,
0000
0000
0000
0000
,
0000
0000
0000
0000
,
1000
0000
0000
0100
,
0000
0000
0010
0000
,
0001
0000
0000
0100
,
0000
0000
0010
0000
,
1000
0000
0000
0000
,
2002
0000
0000
0000
,
3003
0001
0001
0001
,
0002
0000
0000
0000
,
0003
1000
1000
1000
,
2000
0000
0000
0000
,
3000
0100
0100
0100
,
0200
0300
2000
3000
,
0002
0000
0003
0100
,
0200
0300
0020
0030
,
0200
0300
0001
0001
,
0002
0003
0020
0030
,
0200
0000
0300
1000
,
1000
0000
0100
0000
,
0010
0000
0001
0000
,
0100
0100
0100
0100
,
0100
0000
0000
0000
,
1001
0000
1000
0000
,
0010
0000
0100
0000
,
0001
0000
0001
0000
,
1000
0000
0100
0000
,
1000
0000
1000
0000
,
0010
0000
0100
0000
,
0001
0000
0001
0000
,
0010
0010
0010
0010
,
0010
0000
0001
0000
,
1000
0000
0001
0000
,
0100
0000
0100
0000
,
0010
0000
1000
0000
,
0100
0000
1000
0000
,
0001
0001
0001
0000
,
2002
0000
3003
0000
,
1000
0000
0001
0000
,
0220
0000
0330
0000
,
0100
0000
1001
1000
,
0000
0001
0000
0010
,
0000
0001
0000
1000
,
0000
0010
0000
0100
,
0000
0000
0000
0001
,
0000
1000
0000
0100
,
0000
0010
0010
0010
,
0000
0001
0000
1000
,
0000
0000
0001
0001
,
0000
0010
0000
0001
,
0000
1000
0000
0010
,
0000
1000
0000
0100
,
0000
0000
0000
1000
,
0000
0100
0000
0010
,
0000
0001
0000
2002
,
0000
3003
0000
1000
,
0000
0001
0000
1000
,
0000
1000
0000
1000
,
0000
0010
0010
0010
,
0000
0100
0000
0100
,
0000
0001
0001
0002
,
0000
0003
1000
2000
,
3000
0200
0300
0020
,
0000
0000
0030
0002
,
0000
0003
1001
0000
,
0001
0001
0000
0100
,
0000
0010
0000
1000
,
0000
0001
0000
2000
,
0000
3000
0000
0100
,
0100
0100
0100
0100
,
0000
0010
0000
0002
,
0003
2000
3000
0002
,
0003
1000
0000
2002
,
0000
3003
0000
1000
,
0000
0001
0000
0220
,
0000
0330
0000
0100
,
0000
1001
1000
0000
,
0000
0100
0000
0000
,
0010
0000
0001
0000
,
0000
0100
0000
0000
,
0020
0000
0000
0030
;
