#TITLE:YELLOW FROG from Steel Chronicle;
#SUBTITLE:;
#ARTIST:Gekidan Records;
#TITLETRANSLIT:;
#SUBTITLETRANSLIT:;
#ARTISTTRANSLIT:;
#GENRE:Desert Alternative Edge;
#CREDIT:;
#BANNER:YELLOW FROG from Steel Chronicle.png;
#BACKGROUND:YELLOW FROG from Steel Chronicle-bg.png;
#LYRICSPATH:;
#CDTITLE:cdtitle.png;
#MUSIC:YELLOW FROG from Steel Chronicle.ogg;
#OFFSET:-0.185744;
#SAMPLESTART:43.821743;
#SAMPLELENGTH:17.454544;
#SELECTABLE:YES;
#BPMS:0.000000=110.000000
;
#STOPS:28.000000=1.636000
;
#BGCHANGES:;
#KEYSOUNDS:;
#ATTACKS:;

//---------------dance-single - ----------------
#NOTES:
     dance-single:
     :
     Challenge:
     14:
     0.722532,0.797977,0.965078,0.321693,1.072309,566.000000,458.000000,108.000000,36.000000,12.000000,1.000000,0.722532,0.797977,0.965078,0.321693,1.072309,566.000000,458.000000,108.000000,36.000000,12.000000,1.000000:
// measure 0
0000
0000
0000
0000
,  // measure 1
0000
0000
0000
0000
,  // measure 2
0001
0010
0001
0010
0100
0000
1000
0010
1000
0010
0100
0000
0001
0010
1000
0010
,  // measure 3
0001
0100
0001
0100
0010
0000
1001
2002
0000
0000
0000
0000
0010
0000
3003
0000
,  // measure 4
1000
0100
0000
0010
0000
0100
0000
1000
0000
0100
0001
0100
0010
0001
0000
0100
,  // measure 5
0001
0100
0000
0010
0000
0100
0000
0001
0000
0100
1000
0100
0010
1000
0000
0010
,  // measure 6
1000
0001
0000
0010
0000
0001
0000
0100
0000
0010
1000
0100
0010
0001
0000
0000
,  // measure 7
1001
0000
0000
0000
1001
1001
0000
0011
0000
0101
0000
1010
0000
1000
0100
0010
,  // measure 8
0011
1001
0000
0100
0101
0101
0000
1001
0000
1100
0000
0011
0000
0010
0001
0100
,  // measure 9
0101
0110
0000
1000
1010
1010
0000
1100
0000
0011
0000
0101
0000
0001
0100
0010
,  // measure 10
1010
1001
0000
0010
0110
0110
0000
0101
0000
0011
0000
1100
0000
1000
0100
0010
,  // measure 11
0011
1001
0000
0000
1001
0000
1001
0000
0000
0000
0001
0000
0100
0010
0000
1000
,  // measure 12
0000
0001
0000
0010
0011
0000
0110
0000
0000
0000
0000
0000
0010
0001
0000
0100
,  // measure 13
0000
0010
0000
1000
1010
0000
0110
0000
0000
0000
1000
0000
0100
0010
0000
0001
,  // measure 14
0000
1000
0000
0001
1002
0000
0010
0000
1000
0000
0000
0000
1003
0000
0010
0000
,  // measure 15
1000
0010
0100
0001
1001
0000
1001
0000
0000
0000
1000
0000
0100
0010
0000
0010
,  // measure 16
0000
0001
0000
0100
0110
0000
1010
0000
0000
0000
0000
0000
1000
0001
0000
0001
,  // measure 17
0000
1000
0000
0100
0110
0000
0011
0000
0000
0000
0001
0000
0100
0010
0000
1000
,  // measure 18
0000
0001
0000
1000
2001
0000
0010
0000
3001
1000
0010
1000
0001
1000
0100
0001
,  // measure 19
1000
0010
0001
0100
0010
1000
0000
0101
0000
1010
0000
1001
0000
0011
0000
1100
,  // measure 20
0000
0011
0000
001M
1000
01M0
0000
1100
0000
0011
0000
1001
0000
0101
0000
1010
,  // measure 21
0000
1002
0000
0003
1000
0100
0000
0010
000M
0100
1000
0010
0000
0001
0010
1000
,  // measure 22
010M
0020
0000
0000
0130
1000
0000
0010
000M
1000
0100
0001
0000
0100
1000
0000
,  // measure 23
100M
0100
0010
0001
1000
0010
0000
0101
0000
1010
0000
1001
0000
1100
0000
0011
,  // measure 24
0000
1100
0000
M100
0001
0M10
0000
0011
0000
1001
0000
1010
0000
0101
0000
0011
,  // measure 25
0000
2001
0000
3000
0001
0100
0000
0010
M000
0100
0001
0010
0000
1000
0010
0001
,  // measure 26
M100
0020
0000
0000
0130
0001
0000
0010
M000
0001
0100
1000
0000
0100
0010
0000
,  // measure 27
M100
0001
1000
0100
0020
0000
0031
0200
0000
0310
2000
0000
3200
0000
0301
0200
,  // measure 28
0000
0310
0200
0000
2300
0000
3010
0200
0000
0310
0002
0000
0023
0000
1030
0002
,  // measure 29
0000
1003
0200
0000
0320
0000
0031
0010
0001
0100
0010
1000
0000
0010
1000
0010
,  // measure 30
1000
0100
0000
0010
0001
0000
1000
0010
1000
0100
0010
0000
0100
0010
0100
0010
,  // measure 31
0001
0100
0010
1000
0002
0000
0013
0200
0000
1300
0002
0000
0203
0000
0310
0200
,  // measure 32
0000
1300
0200
0000
0302
0000
0013
0200
0000
0310
2000
0000
3020
0000
0031
2000
,  // measure 33
0000
3001
0200
0000
0320
0000
1030
0010
1000
0001
0010
0100
0000
0010
0100
0010
,  // measure 34
0001
0100
1000
0100
0010
0000
0010
1000
0001
0000
1000
0000
0001
0010
0100
0000
,  // measure 35
1000
0000
0010
1000
0100
0000
1001
0000
1001
0000
0000
0000
1010
1000
0010
1010
,  // measure 36
0000
0000
0101
0101
0000
0001
1001
0000
0000
1000
1001
0000
1010
0100
0000
0010
,  // measure 37
0101
0000
1000
0100
0010
0000
0011
0000
0011
0000
0000
0000
1100
0100
1000
1100
,  // measure 38
0000
0000
0101
0101
0000
0001
1001
0000
0000
0000
0001
1000
1100
0010
0000
0100
,  // measure 39
0011
0000
0100
1000
0010
0000
0101
0000
0101
0000
0000
0000
1010
1000
0010
1010
,  // measure 40
0000
0000
0101
0101
0000
0001
1001
0000
0000
1000
1001
0000
0011
0100
0000
0010
,  // measure 41
1100
0000
0010
0001
0100
0000
0110
0000
0110
0000
0000
0000
1000
0001
1001
0000
,  // measure 42
0000
0000
0001
1000
1001
0000
0000
0000
0110
0000
0000
0000
1001
1001
0000
0000
,  // measure 43
0110
0000
0000
0000
0001
0100
0001
0100
0010
0000
1000
0100
1000
0100
0010
0000
,  // measure 44
0001
0100
1000
0100
0001
0010
0001
0010
0100
0000
1000
0010
1000
0010
0100
0000
,  // measure 45
0001
0100
1000
0100
0001
0010
0001
0010
1000
0000
0001
0100
0001
0100
1000
0000
,  // measure 46
0010
0001
0010
1000
0100
0010
0001
0100
0010
0000
1001
2002
0000
0000
0000
0000
,  // measure 47
3003
0000
0000
0000
;

//---------------dance-single - ----------------
#NOTES:
     dance-single:
     :
     Hard:
     11:
     0.485092,0.461987,0.723809,0.545091,0.509347,380.000000,299.000000,81.000000,61.000000,0.000000,0.000000,0.485092,0.461987,0.723809,0.545091,0.509347,380.000000,299.000000,81.000000,61.000000,0.000000,0.000000:
0000
0000
0000
0000
,
0000
0000
0000
0000
,
1020
1000
0130
0201
0001
0310
0220
0330
,
2001
0000
0001
0000
3100
0000
2000
0002
0000
0000
0000
0000
3003
0000
0000
0000
,
1100
0000
1000
0000
0000
1000
0000
0000
1000
0000
0000
0000
1001
0000
0000
0000
,
0101
0000
0001
0000
0000
0001
0000
0000
0001
0100
0000
0000
1001
0000
0000
0000
,
1010
0000
1000
0000
0000
1000
0000
0000
1000
0000
0000
0000
0110
0000
0000
0000
,
1001
0000
0000
0000
1000
0100
0000
0010
0000
0001
0000
0200
0000
0300
0010
1000
,
0001
0020
0000
0030
0001
0100
0000
0010
0000
1000
0000
0200
0000
0300
0010
0001
,
1000
0020
0000
0030
1000
0001
0000
1000
0000
0100
0000
0020
0000
0030
0001
0010
,
0100
2000
0000
3000
0001
1000
0000
0001
0000
1000
0000
0020
0000
0030
1000
0010
,
0100
0001
0000
0000
1001
0000
1001
0000
0000
0000
0001
0000
0100
0010
0000
1000
,
0000
0001
0000
0000
0011
0000
0011
0000
0000
0000
0000
0000
0001
0010
0000
0100
,
0000
1000
0000
0000
1100
0000
1100
0000
0000
0000
1000
0000
0010
0100
0000
0001
,
0000
1000
0000
0000
1002
0000
0000
0000
1000
0000
0000
0000
1003
0000
0000
0000
,
1000
0100
0010
0001
1000
0000
1001
0000
0000
0000
1000
0000
0100
0010
0000
0001
,
0000
1000
0000
0000
1001
0000
1001
0000
0000
0000
0000
0000
0001
0100
0000
0010
,
0000
1000
0000
0000
1010
0000
1010
0000
0000
0000
1000
0000
0100
0010
0000
0001
,
0000
1000
0000
0000
2001
0000
0000
0000
0001
0000
0000
0000
3001
0000
1000
0100
,
0010
0001
1000
0000
0001
0100
0000
0010
0000
0100
0000
1000
0000
0100
0000
0010
,
0000
0100
0000
0001
1000
0001
0000
0010
0000
0100
0000
0010
0000
1000
0000
0010
,
0000
0001
0000
0000
1001
0000
0000
0101
0000
0000
0120
0000
0000
1030
0010
0100
,
0001
2000
0000
0000
3100
1000
0000
0100
0000
0010
0000
0001
0000
1000
0001
0000
,
1001
0000
0000
0000
1000
0100
0000
0010
0000
0100
0000
0001
0000
0100
0000
0010
,
0000
0100
0000
1000
0001
1000
0000
0010
0000
0100
0000
0010
0000
0001
0000
0010
,
0000
1000
0000
0000
1001
0000
0000
0011
0000
0000
1200
0000
0000
1300
0100
0010
,
0001
0200
0000
0000
0310
0100
0000
0001
0000
1000
0000
0100
0000
0100
0010
0000
,
0011
0000
0000
0000
1002
0000
0000
0203
0000
0000
0320
0000
2030
0000
0000
3002
,
0000
0000
2003
0000
3200
0000
0000
2300
0000
0000
3020
0000
0230
0000
0000
0302
,
0000
2003
3002
0000
1003
0000
0001
1000
,
0100
0000
0110
0000
0010
0001
0100
0000
,
0110
0000
0000
0000
2001
0000
0000
3200
0000
0000
0320
0000
0032
0000
0000
0203
,
0000
0000
0302
0000
2003
0000
0000
3200
0000
0000
0302
0000
0203
0000
0000
2300
,
0000
3020
0230
0000
0301
0000
0001
1000
,
0001
1000
0001
0000
1001
0000
0000
0000
0101
0000
0000
0000
0010
1000
0001
0000
,
1001
0000
0000
0000
0001
0000
0101
0000
0101
0000
0000
0000
1010
0000
0000
1000
,
0000
1001
0000
1001
0000
1100
0011
0000
,
0011
0000
0000
0000
1000
0000
1010
0000
1010
0000
0000
0000
0110
0000
0000
0100
,
0000
0101
0000
1001
0000
0011
1100
0000
,
1100
0000
0000
0000
0001
0000
1001
0000
1001
0000
0000
0000
0011
0000
0000
0001
,
0000
0101
0000
1010
0000
0110
1001
0000
,
1001
0000
0000
0000
0100
0000
1001
0000
1001
0000
0000
0000
1100
0000
0000
1000
,
0000
1010
1001
0000
0110
0000
1001
0000
,
0110
0000
2001
0001
3100
1002
1000
0103
,
0220
0330
1020
1000
0130
0201
0001
0310
,
2002
3003
1200
1000
0310
0021
0001
0130
,
0220
0000
0330
0000
1002
0000
1000
0000
0103
0000
0002
2000
0000
0000
0000
0000
,
3003
0000
0000
0000
;

//---------------dance-single - ----------------
#NOTES:
     dance-single:
     :
     Medium:
     8:
     0.368926,0.377989,0.500411,0.357436,0.138507,289.000000,233.000000,56.000000,40.000000,0.000000,0.000000,0.368926,0.377989,0.500411,0.357436,0.138507,289.000000,233.000000,56.000000,40.000000,0.000000,0.000000:
0000
0000
0000
0000
,
0000
0000
0000
0000
,
0101
0000
1000
1100
0000
0001
0110
0000
,
1001
0000
0000
0000
0001
0000
2000
0002
0000
0000
0000
0000
3003
0000
0000
0000
,
1001
0000
0001
0000
0000
1000
0000
0000
0100
0000
0000
0000
0011
0000
0000
0000
,
0101
0000
0100
0000
0000
0001
0000
0000
0100
0000
0000
0000
1010
0000
0000
0000
,
1001
0000
0001
0000
0000
1000
0000
0000
0001
0000
0000
0000
1001
0000
0000
0000
,
0110
0000
1001
0000
1020
0000
0130
0001
,
0021
0000
0130
0000
0021
0000
0130
1000
,
1020
0000
0130
0000
1002
0000
0103
0010
,
1002
0000
0013
0000
2001
0000
3100
0010
,
2001
0000
0000
0000
3001
0000
0001
0000
0000
0000
0001
0000
0100
0000
0000
0010
,
0000
0010
0000
0000
1000
0000
1000
0000
0000
0000
0000
0000
0100
0000
0000
0010
,
0000
0010
0000
0000
0001
0000
0001
0000
0000
0000
1000
0000
0010
0000
0000
0100
,
0000
0001
0000
0000
2002
0000
0000
0000
0000
0000
0000
0000
3003
0000
0000
0000
,
1000
0000
0010
0000
0100
0000
0100
0000
0000
0000
0010
0000
1000
0000
0000
0001
,
0000
0001
0000
0000
0010
0000
0010
0000
0000
0000
0000
0000
0001
0000
0000
0100
,
0000
0100
0000
0000
0010
0000
0010
0000
0000
0000
1000
0000
0100
0000
0000
0010
,
0000
0001
0000
0000
2002
0000
0000
0000
0000
0000
0000
0000
3003
0000
1000
0000
,
0100
0010
1001
0000
0001
0000
0100
1000
,
0100
0001
1001
0000
1000
0000
0100
0001
,
0100
0000
1000
0000
1001
0000
0000
1010
0000
0000
0210
0000
0000
0000
0301
0000
,
2001
0000
3100
0000
0010
0001
0100
0010
,
1010
0000
1001
0000
1000
0000
0010
0001
,
0010
1000
1001
0000
0001
0000
0010
1000
,
0010
0000
0001
0000
1001
0000
0000
0101
0000
0000
0120
0000
0000
0000
1030
0000
,
1002
0000
0103
0000
0001
0100
1000
0100
,
0001
0000
0010
0000
1002
0000
0000
0203
0000
0000
0310
0000
0020
0000
0000
2030
,
0000
0000
3100
0000
0200
0000
0000
0320
0000
0000
0031
0000
0002
0000
0000
0203
,
0000
0310
2000
0000
3001
0000
1000
0000
,
1100
0012
0000
0200
,
0303
0000
0000
0000
2001
0000
0000
3200
0000
0000
0310
0000
0020
0000
0000
0032
,
0000
0000
0103
0000
0200
0000
0000
0320
0000
0000
1030
0000
2000
0000
0000
3002
,
0000
1003
0200
0000
0310
0000
0001
0100
,
0010
1000
1001
0000
0101
0000
1000
0100
,
1001
0000
0000
0000
1000
0000
0100
0000
0100
0000
0000
0000
0001
0000
0000
0100
,
0000
1000
0000
1000
0000
0010
0100
0000
,
0100
0000
0000
0000
0001
0000
0100
0000
0100
0000
0000
0000
1000
0000
0000
0100
,
0000
0001
0000
0001
0000
0010
0100
0000
,
0100
0000
0000
0000
1000
0000
0010
0000
0010
0000
0000
0000
0001
0000
0000
0010
,
0000
1000
0000
1000
0000
0100
0010
0000
,
0010
0000
0000
0000
0001
0000
0100
0000
0100
0000
0000
0000
0010
0000
0000
1000
,
0000
0001
1001
0000
1001
0000
1001
0000
,
1001
0000
1100
0000
0001
0101
0000
1000
,
1010
0000
0101
0000
1000
1100
0000
0001
,
0011
0000
1100
0000
0010
0101
0000
1000
,
0110
0000
0000
0000
1001
0000
0000
0000
1000
0000
0002
2000
0000
0000
0000
0000
,
3003
0000
0000
0000
;

//---------------dance-single - ----------------
#NOTES:
     dance-single:
     :
     Easy:
     5:
     0.268077,0.293992,0.482539,0.241270,0.008936,210.000000,156.000000,54.000000,27.000000,0.000000,0.000000,0.268077,0.293992,0.482539,0.241270,0.008936,210.000000,156.000000,54.000000,27.000000,0.000000,0.000000:
0000
0000
0000
0000
,
0000
0000
0000
0000
,
1001
0000
0000
0001
0000
0000
0101
0000
,
1001
0000
0000
2002
0000
0000
3003
0000
,
1001
0000
0000
1100
,
0011
0000
0000
0101
,
1010
0000
0000
0110
,
1001
1000
0101
1000
,
0101
0001
1100
0001
,
1100
0001
1010
0001
,
1010
1000
0011
1000
,
0011
0000
1001
0000
0000
1000
1000
0000
,
0010
0000
1001
0000
0000
0000
1000
1000
,
0100
0000
1001
0000
0000
0001
0001
0000
,
0010
2002
0000
3003
,
0010
0000
1001
0000
0000
0001
0001
0000
,
0010
0000
1001
0000
0000
0000
0001
0001
,
0100
0000
1001
0000
0000
1000
1000
0000
,
0010
2002
3003
1000
,
1000
0001
0100
0001
,
0100
0010
1000
0010
,
1000
0000
0000
0000
0001
0000
0000
0001
0000
0000
0002
0000
0000
0000
0000
0000
,
0000
0013
0001
0100
,
0010
1000
0100
1000
,
0100
0010
0001
0010
,
0001
0000
0000
0000
1000
0000
0000
1000
0000
0000
2000
0000
0000
0000
0000
0000
,
0000
3010
1000
0100
,
0010
0000
1002
0000
0000
0100
0203
0000
,
0000
0010
0320
0000
0000
1000
2030
0000
,
0000
0001
3002
0000
0000
0000
2003
0000
,
3200
0320
0000
0002
,
0033
0000
2001
0000
0000
0010
3020
0000
,
0000
0100
0230
0000
0000
0001
0302
0000
,
0000
1000
2003
0000
0000
0000
3002
0000
,
0023
0200
0000
0330
,
0110
0000
0000
0001
0001
0000
0101
0000
,
0000
0101
0000
0101
0000
1000
1000
0000
,
1001
0000
0000
1000
1000
0000
1100
0000
,
0000
1100
0000
1100
0000
0001
0001
0000
,
1001
0000
0000
0001
0001
0000
0011
0000
,
0000
0011
0000
0011
0000
1000
1000
0000
,
1001
0000
0000
1000
1000
0000
1010
0000
,
0000
0001
0001
0000
1001
0000
1001
0000
,
1001
0000
1001
0000
0000
1000
0000
0000
,
1100
0000
1001
0000
0000
0001
0000
0000
,
0101
0000
1001
0000
0000
0001
0000
0000
,
0110
0000
1001
0000
0000
2002
0000
0000
,
3003
0000
0000
0000
;

//---------------dance-single - ----------------
#NOTES:
     dance-single:
     :
     Beginner:
     1:
     0.111061,0.144650,0.134039,0.116167,0.000000,87.000000,72.000000,15.000000,13.000000,0.000000,0.000000,0.111061,0.144650,0.134039,0.116167,0.000000,87.000000,72.000000,15.000000,13.000000,0.000000,0.000000:
0000
0000
0000
0000
,
0000
0000
0000
0000
,
1001
0000
0000
0000
,
1001
0000
0000
0000
,
1000
0000
0000
0001
,
0001
0000
0000
1000
,
1000
0000
0000
0001
,
0001
1000
0000
1000
,
0000
0100
0000
0100
,
0000
0010
0000
0010
,
0000
0001
0000
0001
,
0000
1001
0000
0000
,
0000
0110
0000
0000
,
0000
0110
0000
0000
,
0000
2002
0000
3003
,
0000
0110
0000
0000
,
0000
1001
0000
0000
,
0000
1001
0000
0000
,
0000
0220
0000
0330
,
0000
0001
0000
0001
,
0000
1000
0000
1000
,
0000
0200
0000
0000
,
0300
1000
0000
0000
,
0000
1000
0000
1000
,
0000
0001
0000
0001
,
0000
0200
0000
0000
,
0300
0001
0000
0000
,
0000
1000
0000
0010
,
0000
0100
0000
0001
,
0000
2000
0000
3000
,
0000
0200
0300
0020
,
0030
0001
0000
0010
,
0000
0100
0000
1000
,
0000
0002
0000
0003
,
0000
0200
0000
0300
,
0000
0000
0001
0001
,
0000
0001
0000
0001
,
0001
0000
1000
1000
,
0000
1000
0000
1000
,
1000
0000
0100
0100
,
0000
0100
0000
0100
,
0100
0000
0010
0010
,
0000
2002
0000
0000
,
3003
1001
0000
0000
,
0000
1001
0000
0000
,
0000
1001
0000
0000
,
0000
1001
0000
0000
;
