#TITLE:Willpower;
#SUBTITLE:;
#ARTIST:Chuck E. Meyers;
#TITLETRANSLIT:;
#SUBTITLETRANSLIT:;
#ARTISTTRANSLIT:;
#GENRE:Hard Rock;
#CREDIT:;
#BANNER:Willpower.png;
#BACKGROUND:Willpower-bg.png;
#LYRICSPATH:;
#CDTITLE:cdtitle.png;
#MUSIC:Willpower.ogg;
#OFFSET:-0.636154;
#SAMPLESTART:51.579514;
#SAMPLELENGTH:18.396229;
#SELECTABLE:YES;
#BPMS:0.000000=53.000000
,1.000000=212.000000
,158.500000=106.000000
,164.500000=212.000000
,225.000000=159.000000
,226.500000=106.000000
,230.000000=212.000000
,348.000000=159.000000
,349.500000=106.000000
,353.000000=212.000000
;
#STOPS:109.000000=0.566000
;
#BGCHANGES:;
#KEYSOUNDS:;
#ATTACKS:;

//---------------dance-single - ----------------
#NOTES:
     dance-single:
     :
     Challenge:
     15:
     0.829876,0.832722,0.932330,0.478118,0.055780,729.000000,612.000000,117.000000,60.000000,0.000000,0.000000,0.829876,0.832722,0.932330,0.478118,0.055780,729.000000,612.000000,117.000000,60.000000,0.000000,0.000000:
// measure 0
0000
0000
0001
0100
0010
0000
1000
0100
,  // measure 1
0010
0000
0001
0100
0010
0000
1000
1001
,  // measure 2
0000
1001
0001
0010
0100
0000
1000
0010
,  // measure 3
0100
0000
0010
1000
0100
0000
0010
0001
,  // measure 4
0010
0001
1000
0000
1010
0000
0100
0001
,  // measure 5
0010
0000
0100
1000
0010
0000
1000
1001
,  // measure 6
0000
1001
0001
0010
0100
0000
0010
0001
,  // measure 7
0100
0000
0010
1010
0000
1000
1002
0000
,  // measure 8
0013
0100
2100
0000
0001
0000
3010
1000
,  // measure 9
0001
1002
0000
0100
0100
0000
1003
0100
,  // measure 10
0010
0001
2001
0000
3010
0100
0001
0010
,  // measure 11
0100
2100
0000
0001
3001
0000
0010
0001
,  // measure 12
0100
0010
2010
0000
3001
0010
0100
0010
,  // measure 13
0001
1002
0000
0010
0010
0000
0103
0010
,  // measure 14
1000
0001
2001
0000
3010
1000
0100
1000
,  // measure 15
0100
0021
0000
0000
0031
0100
0000
0010
,  // measure 16
1000
0000
0001
0000
0000
1000
0001
0000
,  // measure 17
0000
1000
0001
1000
0000
0010
0000
0100
,  // measure 18
0000
0001
1000
0000
0000
0001
1000
0000
,  // measure 19
0000
0001
0010
0001
0000
0100
0000
0110
,  // measure 20
0000
1001
0001
0100
0000
0100
0010
1000
,  // measure 21
0000
1000
0100
0010
0000
0010
0001
1000
,  // measure 22
0000
0010
0100
0001
0000
0001
1000
0100
,  // measure 23
0000
0100
0010
0001
0000
0100
0010
0110
,  // measure 24
0000
0110
0100
0001
0000
1000
0100
0010
,  // measure 25
0000
0100
0010
0001
0100
0010
1000
0001
,  // measure 26
0000
1000
0010
1000
0100
0010
0001
0100
,  // measure 27
0000
0001
1000
0000
0110
0000
2001
0000
,  // measure 28
3001
0100
1000
0000
1000
0100
0001
0100
,  // measure 29
0000
0010
0000
0010
0000
1000
0002
0000
,  // measure 30
0013
0100
2000
0000
3010
0000
1002
0000
,  // measure 31
0013
0011
0000
1100
0000
0001
1001
0000
,  // measure 32
1000
0020
0100
0000
0130
0000
0010
1000
,  // measure 33
0010
0001
1000
0100
0010
0000
0100
0001
,  // measure 34
0010
0100
1000
1020
0000
1030
0100
0010
,  // measure 35
0011
0000
0000
0000
0001
1000
0001
1000
0001
0000
0000
0000
1100
0000
0000
0000
,  // measure 36
0021
0000
0031
0020
1000
0030
0020
0000
,  // measure 37
0031
0010
0110
0000
0110
0000
1000
0100
,  // measure 38
0010
0001
0100
1000
0001
0010
0100
0110
,  // measure 39
0000
0010
1010
0000
1000
2002
0000
0000
,  // measure 40
0000
0000
0000
0000
0000
0000
0000
3003
,  // measure 41
0000
0001
0012
0000
1000
1000
0000
0103
,  // measure 42
0101
2001
0100
0100
,  // measure 43
3001
1002
0000
0100
0100
0000
0013
0100
,  // measure 44
0010
0000
1002
0000
0100
0000
0013
0001
,  // measure 45
0100
0101
0000
1100
0000
1010
0000
0012
,  // measure 46
0000
0000
1003
0001
2000
0000
0000
0000
0010
0000
0000
0000
0010
0000
0000
0000
,  // measure 47
3001
1002
0000
0100
0100
0000
0103
0001
,  // measure 48
0010
0000
0000
0000
0011
0000
0000
0000
1100
0000
0000
0000
0010
0000
0001
1000
,  // measure 49
0001
0000
1000
0000
0100
0000
0010
0000
0100
0000
0010
0000
0100
0000
1000
0001
,  // measure 50
1000
0001
2001
0000
0100
0000
0100
0000
,  // measure 51
3001
1002
0000
0100
0100
0000
1003
0001
,  // measure 52
1000
0000
1002
0000
0100
0000
0013
0001
,  // measure 53
1000
1010
0000
1100
0000
0101
0000
0012
,  // measure 54
0000
0000
1003
0001
2000
0000
0000
0000
0010
0000
0000
0000
0010
0000
0000
0000
,  // measure 55
3001
0012
0000
1000
1000
0000
1003
0100
,  // measure 56
0010
0000
2002
0000
0000
0000
0000
3000
,  // measure 57
0000
0000
0000
1003
0100
0010
0001
1000
1010
0000
0000
0000
0001
0000
0011
0000
,  // measure 58
0000
1000
1010
0000
0001
0021
0000
0130
,  // measure 59
1000
0010
0100
0001
0011
0000
1000
1100
,  // measure 60
0000
0001
0101
0000
1000
0020
0000
0000
,  // measure 61
0130
0000
0001
1000
1100
0000
0001
0101
,  // measure 62
0000
1000
1100
0000
0001
0201
0000
0310
,  // measure 63
1000
0100
0010
0001
0101
0000
1000
1100
,  // measure 64
0000
0001
2001
0000
3100
0120
0000
0031
,  // measure 65
1000
0001
1000
0000
0001
0000
0100
0000
0001
0000
0100
0000
1000
0000
0100
0000
,  // measure 66
1000
0100
0001
0010
0001
0010
0100
1100
,  // measure 67
0000
0011
0010
0001
0010
0001
0100
0001
,  // measure 68
0100
0001
0100
1000
0100
0001
0001
0010
,  // measure 69
0010
0100
1000
0010
1000
0010
0001
0010
,  // measure 70
0001
0010
1000
0100
1000
0100
0010
0011
,  // measure 71
0000
1100
0100
1000
0100
1000
0010
1000
,  // measure 72
0010
1000
0010
0001
1000
0100
0001
0010
,  // measure 73
0100
1000
0001
0100
0001
0010
0000
0011
,  // measure 74
0000
0110
0000
2100
0000
3010
1000
0010
,  // measure 75
1000
0001
0010
0100
1000
0010
0000
1010
,  // measure 76
0000
0101
0000
0001
1000
0000
0001
1000
,  // measure 77
0100
0100
0010
0001
1000
0010
0000
1010
,  // measure 78
0000
0110
0000
0102
0000
1003
0001
1000
,  // measure 79
0001
1000
0100
0010
0100
0020
0000
0030
,  // measure 80
0001
1000
0001
2000
0000
0000
0000
3010
,  // measure 81
1010
1000
0001
1000
0100
0010
0000
0011
,  // measure 82
0000
1001
0000
1020
0000
0130
0001
1000
,  // measure 83
0001
1000
0100
0001
0100
1000
0000
0011
,  // measure 84
0000
1100
1000
0001
0100
0020
0000
0100
,  // measure 85
0130
0000
0010
1000
0001
0010
0000
1100
,  // measure 86
0000
1001
0000
0201
0000
0310
0110
0000
,  // measure 87
2002
0000
0000
0000
0000
0000
0000
0000
0000
0000
3000
0000
0000
0000
1003
0001
,  // measure 88
1000
0001
1000
0001
2001
0000
0000
0000
0010
0000
0000
0000
0010
0000
0000
0000
,  // measure 89
3001
1002
0000
0010
0010
0000
0103
0010
,  // measure 90
0100
0001
1002
0000
0100
0000
1003
0001
,  // measure 91
0100
0010
1000
0100
0001
0100
1000
0100
,  // measure 92
0001
0100
2100
0000
0001
0000
0001
0000
,  // measure 93
3010
1020
0000
0100
0100
0000
0130
0001
,  // measure 94
0010
0001
1001
0000
1001
0000
0001
0100
,  // measure 95
0010
0110
0000
0110
0000
1001
1001
0000
,  // measure 96
0001
1000
2001
0000
0100
0000
0100
0000
,  // measure 97
3001
1002
0000
0100
0100
0000
0013
0001
,  // measure 98
0100
0000
0010
0000
1010
0000
0000
0000
0101
0000
0000
0000
0010
0000
1000
0001
,  // measure 99
1000
1010
0000
0101
0000
0001
0010
0100
,  // measure 100
1000
0001
2001
0000
0010
0000
0010
0000
,  // measure 101
3001
0012
0000
1000
1000
0000
1003
0100
,  // measure 102
0010
0001
0100
0010
1010
0000
1000
0100
,  // measure 103
0010
0011
0000
1100
0000
0010
0001
0100
,  // measure 104
0110
2002
0000
0000
3003
0000
0000
0000
;

//---------------dance-single - ----------------
#NOTES:
     dance-single:
     :
     Hard:
     13:
     0.684164,0.666178,0.549836,0.486087,0.000000,601.000000,532.000000,69.000000,61.000000,0.000000,0.000000,0.684164,0.666178,0.549836,0.486087,0.000000,601.000000,532.000000,69.000000,61.000000,0.000000,0.000000:
0000
0000
0001
0100
0001
0000
1000
0100
,
1000
0000
0001
0010
0001
0000
0100
0010
,
0000
1001
0000
0001
1000
0000
0001
0010
,
0001
0000
1000
0010
1000
0000
0100
0010
,
0100
0010
0001
0000
1001
0000
0001
0100
,
0010
0000
0100
0010
1000
0000
0100
0010
,
0000
1001
0000
1000
0001
0000
1000
0001
,
1000
0000
0000
0110
0000
0000
2002
0000
,
3003
0000
1002
0000
1000
0000
1003
0001
,
0010
0200
0000
0000
0010
0000
0310
0001
,
0100
0010
2000
0000
3001
1000
0001
1000
,
0100
0020
0000
0000
0031
0000
0010
0001
,
1000
0000
1002
0000
1003
0001
1000
0001
,
0100
0020
0000
0000
0130
0000
0010
1000
,
0001
0010
0200
0000
1300
0001
1000
0001
,
0100
2000
0000
0000
3100
0010
0000
0010
,
1000
0001
0100
0000
,
0100
0000
0100
0000
,
0100
0001
1000
0000
0100
0000
0000
0000
,
0100
0000
0000
0000
0100
0000
0000
1001
,
0000
0001
1000
0010
0000
1000
0010
1000
,
0000
0100
0010
0100
0000
1000
0010
0100
,
0000
0001
1000
0001
0000
0010
0001
0010
,
0000
0001
0100
0010
0000
1010
0000
1100
,
0000
0010
0001
0100
0000
0010
1000
0001
,
0000
1000
0100
0010
0100
0010
0100
1000
,
0000
0001
0100
0010
0100
0010
0100
0001
,
0000
1000
0001
0000
0110
0000
1002
0000
,
0000
1003
0020
0000
0000
1030
0001
1000
,
0000
0010
0000
0010
0000
1000
0002
0000
,
0000
0023
0000
0000
0230
0000
1300
0000
,
0001
0100
0000
1010
0000
0100
0001
0000
,
1000
0200
0000
0000
0310
0000
0001
0010
,
0100
1000
0010
0100
0001
0000
0100
0010
,
1000
0001
0010
0100
0000
1001
0000
1000
,
0100
0000
0010
0100
0010
0100
1000
0000
,
0020
0000
1030
0002
0000
0103
0020
0000
,
1030
0001
0010
0000
0011
0000
0010
0001
,
0010
0100
1000
0010
0100
0001
0010
0100
,
0000
0100
1000
0000
2000
0002
0000
0000
,
0000
0000
0000
0000
0000
0000
0000
3003
,
0000
0100
0020
0000
0100
0100
0000
0100
,
0130
2001
0001
3001
,
1000
0002
0000
1000
1003
0000
0001
0100
,
0010
0000
2001
0000
0001
0000
3001
0010
,
0100
1000
0000
1010
0000
0110
0000
0201
,
0000
0301
2000
0000
0001
0000
3001
0000
,
1000
0020
0000
1000
1000
0000
1030
0010
,
0100
0000
0001
0000
0010
0000
0001
0100
,
0010
1000
0001
0100
0001
0100
0001
1000
,
0100
0010
0002
0000
1000
0000
1003
0000
,
0001
2000
0000
0001
0001
0000
3001
1000
,
0001
0000
2001
0000
0001
0000
3001
1000
,
0001
0100
0000
0101
0000
0110
0000
1020
,
0000
1030
0002
0000
1000
0000
1003
0000
,
0001
0020
0000
0100
0100
0000
0130
1000
,
0001
0000
2002
0000
0000
0000
0000
3000
,
0000
0000
0103
0100
0101
0000
0000
1010
,
0000
0000
1100
0000
0000
0021
0000
0031
,
0010
0100
1000
0000
1010
0000
0000
0101
,
0000
0000
0011
0000
0000
2100
0000
0000
,
3001
0000
0100
0000
1010
0000
0000
1100
,
0000
0000
0011
0000
0000
0201
0000
0310
,
1000
0001
0010
0000
1100
0000
0000
0101
,
0000
0000
0011
0000
0000
2010
0000
3100
,
0010
0000
0001
0100
0001
0000
0100
0010
,
0100
0000
0010
1000
0010
0000
1000
0100
,
0000
0100
1000
0001
1000
0000
0001
0100
,
0001
0000
0100
0010
0100
0001
1000
0100
,
0010
0001
1000
0100
1000
0000
0100
0010
,
0100
0000
0010
0001
0010
0000
0001
0100
,
0000
0100
0001
1000
0001
0000
0010
0001
,
0010
0000
0100
1000
0100
1000
0001
1000
,
0100
0000
1000
0001
1000
0010
0000
0110
,
0000
0101
0000
2001
0000
0000
3001
0000
,
0010
0001
0010
0001
0100
0010
0000
1010
,
0000
0101
0000
0001
1000
0000
0001
0000
,
1000
0001
0010
0100
0010
0100
0000
1100
,
0000
1001
0000
0102
0000
0000
0103
0010
,
0100
0010
1000
0001
1000
0002
0000
0003
,
0010
0100
0010
0200
0000
0000
0000
0310
,
0001
0000
1000
0010
1000
0010
0000
0101
,
0000
0011
0000
1200
0000
0000
0310
0001
,
0010
0001
0100
0010
1000
0001
0000
0011
,
0000
1100
0000
0001
1000
0020
0000
0000
,
0130
0000
0010
1000
0010
1000
0000
0101
,
0000
0011
0000
2100
0000
0000
3010
0000
,
2002
0000
0000
0000
0000
0003
0000
0000
,
3100
0100
1002
0000
1000
0000
1003
0000
,
0001
2000
0000
0001
3001
0000
1000
0010
,
0100
0001
2000
0000
0001
0000
3001
0010
,
0100
1000
0001
0100
0001
0100
0001
0100
,
0001
0100
0002
0000
1000
0000
1003
0000
,
0001
0020
0000
0001
0001
0000
0031
0010
,
0100
0000
1100
0000
0101
0000
0001
1000
,
0000
1100
0000
0101
0000
0001
1000
0000
,
1000
0001
0020
0000
0001
0000
0031
0000
,
1000
0002
0000
1000
1000
0000
1003
0001
,
1000
0000
1001
0000
0101
0000
0001
0010
,
0100
1000
0000
1010
0000
0110
0000
0102
,
0000
1003
0002
0000
1000
0000
1003
0000
,
0001
0020
0000
0100
0100
0000
0130
1000
,
0001
1000
0001
0100
0010
0000
0010
0010
,
0000
0010
0000
0010
0000
0010
0010
0000
,
0010
0220
0000
0000
0330
0000
0000
0000
;

//---------------dance-single - ----------------
#NOTES:
     dance-single:
     :
     Medium:
     10:
     0.503162,0.666178,0.653428,0.382495,0.000000,442.000000,360.000000,82.000000,48.000000,0.000000,0.000000,0.503162,0.666178,0.653428,0.382495,0.000000,442.000000,360.000000,82.000000,48.000000,0.000000,0.000000:
0000
0001
0001
0100
,
0100
0000
0010
0000
0010
0000
1000
0001
,
0000
0001
1000
0000
1000
0000
0100
0000
,
0100
0010
0010
0001
,
0100
1010
1000
0001
,
0001
0000
0010
0000
0010
0000
0001
1000
,
0000
1000
0001
0000
0001
0000
0100
0000
,
0100
0000
0000
0110
0000
0000
1001
0000
,
1000
0002
0000
0013
,
0100
2000
0000
0000
0000
0000
3010
0000
,
0100
0001
1000
0001
,
1000
0200
0000
0000
0000
0000
0310
0000
,
0001
1000
0010
1000
,
0010
0200
0000
0000
0301
0000
0010
0000
,
0001
0100
0010
1000
,
0100
0020
0000
0000
0000
0001
0000
0000
,
0031
0000
1000
0000
,
0001
0000
1000
0000
,
0001
1000
0000
0000
0001
0000
0000
0000
,
1000
0000
0000
0000
0001
0000
0000
1001
,
0000
1000
0000
0010
,
0000
1000
0000
0100
,
0000
0010
0000
0001
,
0000
0000
0100
0000
0000
0001
0000
1001
,
0000
1000
0001
0000
0000
0000
0010
0000
,
0000
0001
0100
0010
,
0000
1000
0001
0010
,
0000
0001
1000
0000
0110
0000
2001
0000
,
0000
0010
0000
0001
,
0000
0010
0000
3010
0000
0000
1020
0000
,
0000
0230
0000
0000
0301
0000
1001
0000
,
0000
1100
0000
0101
0000
0001
1000
0000
,
0000
0002
0000
0000
0103
0000
0010
0000
,
1000
0100
0010
0001
,
0100
0000
0010
1000
0000
1001
0000
0001
,
0020
0000
0130
1000
,
0011
0000
0000
1010
0000
0000
0011
0000
,
0000
1000
0001
0000
1001
0000
1000
0000
,
0010
1000
0100
0001
,
0100
0000
1000
0000
0000
2002
0000
0000
,
0000
0000
0000
0000
0000
0000
0000
3003
,
0000
0100
0020
0000
0000
0100
0000
0000
,
0130
2001
0001
3001
,
0000
2001
0000
0000
3001
0000
0020
0000
,
0031
2001
0000
3001
,
0100
0010
0000
0110
0000
1010
0000
1001
,
0000
2001
0001
3001
,
0000
0201
0000
0000
0001
0000
0301
0000
,
0000
0011
1100
1001
,
0001
0200
0000
0000
0010
0000
0310
0000
,
0100
1002
1000
1003
,
0000
0102
0000
0000
1000
0000
1003
0000
,
0001
1002
0000
1003
,
0100
0010
0000
0011
0000
1001
0000
0101
,
0000
1002
1000
1003
,
0000
0021
0000
0000
0100
0000
0130
0000
,
0010
0000
2002
0000
0000
0000
0000
3003
,
0000
0000
0000
0000
1100
0000
0000
0011
,
0000
0000
1100
0000
0000
0021
0000
0000
,
0031
0000
0100
0000
0101
0000
0000
1010
,
0000
0000
0101
0000
0000
2001
0000
0000
,
3001
0000
0010
0000
0011
0000
0000
1100
,
0000
0000
0011
0000
0000
1200
0000
0000
,
1300
0000
0010
0000
1010
0000
0000
0101
,
0000
0000
0011
0000
0000
1002
0000
0000
,
0103
0001
0001
0010
,
0010
0000
0100
0000
0100
0000
1000
0001
,
0000
0001
1000
0000
1000
0000
0010
0000
,
0010
0000
0100
0000
0100
0000
0001
1000
,
0001
0010
0010
0100
,
0100
0000
1000
0000
1000
0000
0010
0100
,
0000
0100
0010
0000
0010
0000
1000
0000
,
1000
0001
0010
0100
,
1000
0000
0001
0000
1000
0001
0000
0010
,
0000
0100
0000
2000
0000
0000
0001
0000
,
3001
0000
1000
0000
0010
0100
0000
1001
,
0000
1001
0000
0000
0001
0000
1000
0000
,
0001
0000
0010
0000
0001
1000
0000
0100
,
0000
0010
0000
0002
0000
0000
1003
0000
,
0001
0000
1000
0000
0000
1100
0000
0000
,
0001
0000
0000
0012
0000
0000
0000
0000
,
1003
0000
0001
0000
0010
0001
0000
0100
,
0000
0010
0000
2000
0000
0000
3100
0000
,
1000
0000
0001
0000
0100
0010
0000
1001
,
0000
0001
1000
0000
0000
0001
0000
0000
,
1000
0000
0010
0000
1000
0001
0000
0010
,
0000
0100
0000
2000
0000
0000
3010
0000
,
2002
0000
0000
0000
0000
3003
0000
0000
,
0000
1002
1000
1003
,
0000
1002
0000
0000
1003
0000
0100
0000
,
0010
1002
0000
1003
,
0001
0101
1100
0101
,
1100
1002
1000
1003
,
0000
1020
0000
0000
0100
0000
0130
0000
,
0000
0000
1001
0000
1001
0000
1000
0001
,
0000
1001
0000
1001
0000
1000
0001
0000
,
1000
2001
0001
3001
,
0000
0201
0000
0000
0010
0000
0310
0000
,
1000
1010
0101
1001
,
0001
1000
0000
1100
0000
0110
0000
0011
,
0000
2001
0001
3001
,
0000
0012
0000
0000
0100
0000
0103
0000
,
0010
0000
1000
0001
1000
0000
0001
1000
,
0000
0001
0000
1000
0000
0001
1000
0000
,
0001
2000
0000
0000
3000
0000
0000
0000
;

//---------------dance-single - ----------------
#NOTES:
     dance-single:
     :
     Easy:
     8:
     0.369972,0.416361,0.231090,0.446244,0.000000,325.000000,296.000000,29.000000,56.000000,0.000000,0.000000,0.369972,0.416361,0.231090,0.446244,0.000000,325.000000,296.000000,29.000000,56.000000,0.000000,0.000000:
0000
0001
0001
1000
,
1000
0000
0001
0000
0001
0000
0000
0010
,
0000
0010
0000
0000
0001
0000
1000
0000
,
1000
0001
0001
0100
,
0010
1000
1000
0001
,
0001
0000
1000
0000
1000
0000
0000
0100
,
0000
0100
0000
0000
0010
0000
0001
0000
,
0001
0000
0000
1000
0000
0000
1002
0000
,
0000
2003
0000
3010
,
0000
0200
0000
0000
0000
0000
0310
0000
,
1000
0001
1000
0100
,
0000
0200
0000
0000
0000
0000
0310
0000
,
0010
0001
1000
0001
,
0000
0200
0000
0000
0000
0000
0310
0000
,
1000
0001
1000
0100
,
0000
0020
0000
0000
0000
0000
0000
0000
,
0031
1000
0000
1000
,
0000
0100
0000
0010
,
0000
0001
0000
0001
,
0000
0100
0000
0010
,
0000
1000
0000
0001
,
0000
1000
0000
0100
,
0000
1000
0000
0010
,
0000
0100
0000
0001
,
0000
1000
0000
0001
,
0000
0010
0100
0010
,
0000
0001
1000
0001
,
0000
0100
0000
1001
,
0000
1000
0000
0001
,
0000
0001
0000
0001
0000
0000
0020
0000
,
0000
0230
0000
0000
2300
0000
3002
0000
,
0000
0100
0000
0103
0000
0000
0001
0000
,
0000
2000
0000
0000
0000
0000
3010
0000
,
1000
0100
0000
0010
,
0001
0000
1000
0000
0000
0001
0000
0000
,
2000
0000
3010
0100
,
0020
0000
0000
0230
0000
0000
0320
0000
,
0000
0230
0000
0000
0000
0000
0301
0000
,
0010
0100
0000
1000
,
0000
0000
0001
0000
0000
0200
0000
0000
,
0000
0000
0000
0000
0000
0000
0000
0300
,
0000
2002
0000
0000
0000
0000
0000
0000
,
3003
2001
0000
3001
,
0000
2001
0000
0000
3001
0000
0200
0000
,
0300
2001
0000
3001
,
0000
1000
0000
0100
0000
0010
0000
0001
,
0000
2001
0000
3001
,
0000
0201
0000
0000
0001
0000
0301
0000
,
0000
0010
0010
0001
,
0000
2000
0000
0000
0010
0000
3010
0000
,
1000
1002
0000
1003
,
0000
0102
0000
0000
1000
0000
1003
0000
,
0000
1002
0000
1003
,
0000
0100
0000
0010
0000
0001
0000
1000
,
0000
1002
0000
1003
,
0000
0012
0000
0000
1000
0000
1003
0000
,
0000
0000
2002
0000
0000
0000
0000
3003
,
0000
0000
0000
0000
1000
0000
0000
0001
,
0000
0000
1000
0000
0000
0002
0000
0000
,
0103
0000
0100
0000
0100
0000
0000
0010
,
0000
0000
0100
0000
0000
0002
0000
0000
,
1003
0000
1000
0000
1000
0000
0000
0100
,
0000
0000
0010
0000
0000
0002
0000
0000
,
1003
0000
1000
0000
0001
0000
0000
0100
,
0000
0000
0010
0000
0000
2000
0000
0000
,
3100
1000
1000
0001
,
0001
0000
1000
0000
1000
0000
0000
0010
,
0000
0010
0000
0000
1000
0000
0001
0000
,
0001
1000
1000
0100
,
0010
0001
0001
1000
,
1000
0000
0001
0000
0001
0000
0000
0100
,
0000
0100
0000
0000
0001
0000
1000
0000
,
1000
0100
0010
0001
,
0100
0000
0010
0000
0000
1000
0000
0010
,
0000
0100
0000
0002
0000
0000
0100
0000
,
0103
0000
0001
0000
0000
1000
0000
1001
,
0000
1001
0000
0000
0001
0000
1000
0000
,
0001
0000
0010
0000
0000
0001
0000
0100
,
0000
0010
0000
2000
0000
0000
3001
0000
,
1000
0000
0001
0000
0000
0100
0000
0000
,
0010
0000
0000
2000
0000
0000
0000
0000
,
3001
0000
1000
0000
0000
0010
0000
1000
,
0000
0001
0000
0020
0000
0000
0130
0000
,
0100
0000
1000
0000
0000
0001
0000
1001
,
0000
0101
0000
0000
0000
0002
0000
0000
,
1003
0000
0010
0000
0000
1000
0000
0100
,
0000
0010
0000
0002
0000
0000
1003
0000
,
2002
0000
0000
0000
0000
3003
0000
0000
,
0000
1002
0000
1003
,
0000
1002
0000
0000
0000
0000
1003
0000
,
0010
1002
0000
1003
,
0001
0010
0100
0010
,
0100
1002
0000
1003
,
0000
1020
0000
0000
0100
0000
0130
0000
,
0000
0001
0001
1000
,
0000
0001
0000
1000
0000
0000
0001
0000
,
1000
2001
0000
3001
,
0000
2010
0000
0000
0001
0000
3001
0000
,
0000
1000
0100
0010
,
0000
0001
0000
0100
0000
0010
0000
1000
,
0000
2001
0000
3001
,
0000
2100
0000
0000
0001
0000
3001
0000
,
0000
1000
1000
0001
,
0000
1000
0000
1000
0000
0000
0001
0000
,
0000
2002
0000
0000
3003
0000
0000
0000
;

//---------------dance-single - ----------------
#NOTES:
     dance-single:
     :
     Beginner:
     3:
     0.171895,0.249817,0.167341,0.294840,0.000000,151.000000,130.000000,21.000000,37.000000,0.000000,0.000000,0.171895,0.249817,0.167341,0.294840,0.000000,151.000000,130.000000,21.000000,37.000000,0.000000,0.000000:
0000
0001
0000
0000
,
0000
1000
0000
0000
,
0000
0100
0000
0000
,
0000
1000
0000
0000
,
0000
0010
0000
0000
,
0000
0100
0000
0000
,
0000
0001
0000
0000
,
0000
1000
0000
0000
,
0000
0001
0000
0001
,
0000
0010
0000
0000
,
0000
0100
0000
0100
,
0000
1000
0000
0000
,
0000
1000
0000
1000
,
0000
0010
0000
0000
,
0000
0100
0000
0100
,
0000
0001
0000
0000
,
0000
1000
0000
0000
,
0000
1000
0000
0000
,
0000
0001
0000
0000
,
0000
0001
0000
0000
,
0000
1000
0000
0000
,
0000
0100
0000
0000
,
0000
0010
0000
0000
,
0000
0001
0000
0000
,
0000
0100
0000
0000
,
0000
0010
0000
0000
,
0000
1000
0000
0000
,
0000
0001
0000
0020
,
0000
0000
0000
0030
,
0000
0000
0000
0001
,
0000
0100
0000
0020
,
0000
0000
0000
0030
,
0000
1000
0000
0010
,
0000
1000
0000
0001
,
0000
0010
0000
0001
,
0000
0000
0000
0100
,
0000
0100
0000
0100
,
0000
0000
0000
0001
,
0000
1000
0000
0001
,
0000
0000
0000
0000
0000
2002
0000
0000
,
0000
3003
0000
0000
,
0000
0020
0000
0000
0000
0000
0000
0000
,
0030
2002
0000
3003
,
0000
1000
0000
0010
,
0000
0100
0000
0001
,
0000
1000
0000
0001
,
0000
2002
0000
3003
,
0000
2002
0000
3003
,
0000
0010
0000
0100
,
0000
0010
0000
0000
,
0000
2002
0000
3003
,
0000
0100
0000
0000
,
0000
1000
0000
0100
,
0000
0010
0000
0001
,
0000
2002
0000
3003
,
0000
0220
0000
0330
,
0000
2002
0000
0000
,
0000
3003
1001
0000
,
0000
0100
0000
0000
,
0000
0000
1001
0000
,
0000
0010
0000
0000
,
0000
0000
1001
0000
,
0000
0100
0000
0000
,
0000
0000
1001
0000
,
0000
0001
0000
0000
,
0000
1000
0000
0000
,
0000
0100
0000
0000
,
0000
0010
0000
0000
,
0000
0001
0000
0000
,
0000
0100
0000
0000
,
0000
0010
0000
0000
,
0000
1000
0000
0000
,
0000
0001
0000
0000
,
0000
0010
0000
0010
,
0000
0001
0000
0000
,
0000
1000
0000
1000
,
0000
0010
0000
0000
,
0000
1000
0000
1000
,
0000
0001
0000
0000
,
0000
1000
0000
0000
,
1000
0000
0000
0000
,
0000
0010
0000
0010
,
0000
1000
0000
0000
,
0000
0001
0000
0001
,
0000
0010
0000
0000
,
0000
0001
0000
0001
,
0000
1000
0000
0000
,
2002
0000
0000
3003
,
0000
2002
0000
3003
,
0000
0001
0000
0000
,
0000
0010
0000
0100
,
0000
1000
0000
0001
,
0000
2002
0000
3003
,
0000
2002
0000
3003
,
0000
0001
0000
0100
,
0000
0100
0000
0100
,
0000
2002
0000
3003
,
0000
1000
0000
0000
,
0000
0001
0000
0010
,
0000
0100
0000
1000
,
0000
2002
0000
3003
,
0000
0220
0000
0330
,
0000
2002
0000
0000
,
0000
0000
0000
0000
0000
3003
0000
0000
,
0000
2002
0000
0000
3003
0000
0000
0000
;
