#TITLE:Werewolf Boyfriend;
#SUBTITLE:;
#ARTIST:Fright Ranger;
#TITLETRANSLIT:;
#SUBTITLETRANSLIT:;
#ARTISTTRANSLIT:;
#GENRE:Speed Dance;
#CREDIT:;
#BANNER:Werewolf Boyfriend.png;
#BACKGROUND:Werewolf Boyfriend-bg.png;
#LYRICSPATH:;
#CDTITLE:cdtitle.png;
#MUSIC:Werewolf Boyfriend.ogg;
#OFFSET:-0.101588;
#SAMPLESTART:51.525730;
#SAMPLELENGTH:11.117542;
#LASTBEATHINT:358.433960;
#SELECTABLE:YES;
#BPMS:0.000000=172.679993
;
#STOPS:130.750000=0.347000
;
#BGCHANGES:;
#KEYSOUNDS:;
#ATTACKS:;

//---------------dance-single - ----------------
#NOTES:
     dance-single:
     :
     Challenge:
     15:
     0.829223,0.813718,0.487711,0.199882,0.399763,726.000000,665.000000,61.000000,25.000000,48.000000,0.000000,0.829223,0.813718,0.487711,0.199882,0.399763,726.000000,665.000000,61.000000,25.000000,48.000000,0.000000:
// measure 0
0000
0000
0000
0000
,  // measure 1
0000
0000
0000
0000
,  // measure 2
0000
0000
0000
0000
,  // measure 3
0000
0000
0000
0000
,  // measure 4
0100
1001
1000
1001
,  // measure 5
0100
1001
0001
1001
,  // measure 6
0010
1100
0010
0101
,  // measure 7
1100
0000
0000
0000
0110
0000
0000
0000
0011
0000
0010
0001
1000
0000
0001
0000
,  // measure 8
0100
0000
0010
0000
0010
0100
0010
0000
1000
0000
0100
0000
0010
0000
0001
0000
,  // measure 9
0100
0000
0010
0000
0010
0100
0010
0000
0001
0000
0010
0000
1000
0000
1000
0000
,  // measure 10
0100
0000
0010
0000
0010
0100
0010
0000
0001
0000
0100
0000
0010
0000
1000
0000
,  // measure 11
0100
0000
0001
0000
1000
0000
0010
0000
0001
0000
1000
0010
1000
0000
0001
1000
,  // measure 12
0100
0000
0010
0000
0010
0100
0010
0000
0001
0000
0100
0000
0010
0000
1000
0000
,  // measure 13
0100
0000
0010
0000
0010
0100
0010
0000
1000
0000
0010
0000
0001
0000
0001
0000
,  // measure 14
0100
0000
0010
0000
0010
0100
0010
0000
1000
0000
0100
0000
0010
0000
0001
0000
,  // measure 15
0100
0000
0010
1000
0010
0000
0100
0001
0100
0000
0001
0000
1001
0000
0000
0000
,  // measure 16
1000
0100
1000
0000
0001
0000
0100
0000
0001
0000
1000
0100
0000
0100
0010
0000
,  // measure 17
0001
0100
0001
0000
0010
0000
1000
0000
0010
0000
0001
0200
0000
0000
0301
0000
,  // measure 18
1000
0010
1000
0000
0001
0000
0010
0000
0100
0000
1000
0010
0000
0010
0100
0000
,  // measure 19
0001
1000
0001
0000
1000
0100
1000
0000
0001
0100
0001
0000
2001
0000
0000
0000
,  // measure 20
3001
0100
0001
0000
1000
0000
0100
0000
1000
0000
0001
0100
0000
0100
0010
0000
,  // measure 21
1000
0100
1000
0000
0010
0000
0001
0000
0010
0000
1000
0200
0000
0000
0310
0000
,  // measure 22
0001
0100
0001
0000
1000
0000
0010
0000
0100
0000
0001
0010
0000
0010
0100
0000
,  // measure 23
1000
0001
1000
0000
0001
0010
0001
0000
1000
0010
1000
0000
1002
0000
0000
0000
,  // measure 24
0013
0011
0000
1001
0000
0201
0002
0300
,  // measure 25
1003
0100
0010
0001
0100
0010
1000
0100
,  // measure 26
0010
0001
0100
1000
0100
0001
0010
0100
,  // measure 27
1000
0100
1000
0000
0010
0000
0100
0000
0001
0000
0010
0100
0000
0100
1000
0000
,  // measure 28
0001
0100
0001
0000
0010
0000
1000
0000
0010
0000
0001
0100
0010
0000
1000
0000
,  // measure 29
0001
0100
0010
1000
0100
0010
0001
1000
,  // measure 30
0010
1000
0100
0001
0100
1000
0100
0010
,  // measure 31
0001
0100
0001
0000
0010
0000
0100
0000
1000
0000
0010
0100
0000
0100
0001
0000
,  // measure 32
1000
0100
1000
0000
0010
0000
0001
0000
0010
0000
1000
0100
0100
0000
0001
0000
,  // measure 33
0010
1000
0010
0001
0100
0010
1000
0100
,  // measure 34
0001
0100
1000
0010
0100
0001
1000
0010
,  // measure 35
0001
0010
1000
0100
0010
0001
0100
1000
,  // measure 36
0100
0000
0001
0000
0010
0100
0010
0000
0200
0000
0000
0000
1300
0000
0010
0000
,  // measure 37
0101
MMMM
0001
0010
1100
MMMM
1000
0100
,  // measure 38
0010
0001
0100
0001
1001
0000
0001
0100
,  // measure 39
0110
0010
1000
0100
0110
0010
0001
1000
,  // measure 40
1001
0000
0001
0000
0100
0000
0010
0100
0010
0000
0100
0000
0001
0000
0010
0000
,  // measure 41
1100
MMMM
1000
0010
0101
MMMM
0001
0100
,  // measure 42
0001
0010
0100
1000
1001
0000
1000
0100
,  // measure 43
1100
0000
1000
0000
0001
0000
0100
0000
0101
0000
0001
0000
1000
0000
0100
0010
,  // measure 44
0100
0000
1000
0001
1000
0000
0010
0000
0100
0000
0100
0000
0001
0000
0100
0000
,  // measure 45
1010
MMMM
1000
0100
0011
MMMM
0010
0001
,  // measure 46
0100
1000
0100
0010
0110
0000
0100
0001
,  // measure 47
1001
1000
0100
1000
1001
0001
0100
0001
,  // measure 48
0011
0000
0010
0000
0100
0000
1000
0001
1000
0000
0010
0000
1000
0000
0100
0000
,  // measure 49
0011
MMMM
0001
0100
1010
MMMM
0010
1000
,  // measure 50
0100
0001
0100
0010
0110
0000
0001
0100
,  // measure 51
0101
0000
0001
0000
1000
0000
0010
0000
1010
0000
1000
0000
0001
0000
0010
0100
,  // measure 52
0010
0000
0001
1000
0001
0000
0100
0000
0110
0000
0010
0000
2002
0000
0000
0000
,  // measure 53
0000
0000
3003
0000
0000
1000
0002
0000
,  // measure 54
1000
0000
0000
0000
0010
0000
0000
0000
1003
0000
0000
0000
0001
0100
0001
0000
,  // measure 55
1000
0000
0100
0000
0010
0000
0001
0100
0000
0100
0010
0000
1000
0100
1000
0000
,  // measure 56
0010
0000
0001
0000
0010
0000
1000
0200
0000
0000
0310
0000
0001
1000
0001
0000
,  // measure 57
0100
0000
0010
0000
1000
0000
0100
0010
0000
0010
0001
0000
1000
0001
1000
0000
,  // measure 58
0001
0100
0001
0000
1000
0100
1000
0000
1002
0000
0000
0000
1003
0100
1000
0000
,  // measure 59
0001
0000
0100
0000
0010
0000
1000
0100
0000
0100
0010
0000
0001
0100
0001
0000
,  // measure 60
0010
0000
1000
0000
0010
0000
0001
0200
0000
0000
0310
0000
1000
0001
1000
0000
,  // measure 61
0100
0000
0010
0000
0001
0000
0100
0010
0000
0010
1000
0000
0001
1000
0001
0000
,  // measure 62
1000
0100
1000
0000
0001
0100
0001
0000
2001
0000
0000
0000
3010
0000
1010
0000
,  // measure 63
0000
1001
0000
1200
2000
0000
3300
1000
,  // measure 64
0000
1000
0000
0010
0000
0010
0000
0001
,  // measure 65
0000
0001
0000
0100
0000
0100
0000
1000
,  // measure 66
0000
1000
0000
0001
0000
0001
0000
0100
,  // measure 67
0000
0000
0100
0000
0000
0000
0010
0000
0010
0000
0000
0000
1000
0000
0001
0010
,  // measure 68
0001
0000
1000
0100
1000
0100
1000
0000
0002
0000
0000
0000
1003
0000
0100
0000
,  // measure 69
0011
MMMM
0001
0100
1010
MMMM
1000
0010
,  // measure 70
0100
0001
0010
0001
1001
0000
0001
0010
,  // measure 71
0110
0100
1000
0010
0110
0100
0001
1000
,  // measure 72
1001
0000
0001
0000
0010
0000
0100
0010
0100
0000
0010
0000
0001
0000
0100
0000
,  // measure 73
1010
MMMM
1000
0100
0011
MMMM
0010
0001
,  // measure 74
0100
1000
0100
0010
0110
0000
1000
0100
,  // measure 75
1100
0000
1000
0000
0001
0000
0010
0000
0011
0000
0001
0000
1000
0000
0010
0100
,  // measure 76
0010
0000
1000
0001
1000
0000
0001
0000
0101
0000
0001
0000
1000
0100
1000
0000
,  // measure 77
0010
0000
1000
0000
0100
0000
0010
0001
0000
0001
1000
0000
0001
0100
0001
0000
,  // measure 78
0010
0000
1000
0000
0010
0000
0001
0200
0000
0000
0310
0000
1000
0001
1000
0000
,  // measure 79
0010
0000
1000
0000
0100
0000
0010
0001
0000
0001
0100
0000
0010
1000
0010
0000
,  // measure 80
1000
0001
1000
0000
0100
1000
0100
0000
0120
0000
0000
0000
0031
0100
0001
0000
,  // measure 81
0010
0000
0001
0000
0100
0000
0010
1000
0000
1000
0001
0000
1000
0100
1000
0000
,  // measure 82
0010
0000
0001
0000
0010
0000
1000
0200
0000
0000
0310
0000
0001
1000
0001
0000
,  // measure 83
0010
0000
0001
0000
0100
0000
0010
1000
0000
1000
0100
0000
0010
0001
0010
0000
,  // measure 84
0001
1000
0001
0000
0100
0001
0100
0000
0120
0000
0000
0000
1030
0000
1010
0000
,  // measure 85
0000
0101
0000
0001
0010
0100
2200
0000
,  // measure 86
0000
0000
3300
0000
0000
0001
2000
0000
,  // measure 87
0001
0010
0002
0000
,  // measure 88
0000
0000
3003
0000
;

//---------------dance-single - ----------------
#NOTES:
     dance-single:
     :
     Hard:
     13:
     0.676171,0.636823,0.455730,0.543678,0.135920,592.000000,535.000000,57.000000,68.000000,0.000000,0.000000,0.676171,0.636823,0.455730,0.543678,0.135920,592.000000,535.000000,57.000000,68.000000,0.000000,0.000000:
0000
0000
0000
0000
,
0000
0000
0000
0000
,
0000
0000
0000
0000
,
0000
0000
0000
0000
,
1000
1100
0100
0110
,
0010
0011
0001
0101
,
0100
0110
0010
1010
,
1100
0110
0011
1001
,
1000
0010
0100
0010
1000
0001
0011
0000
,
0001
0010
0100
0010
0001
1000
1010
0000
,
1000
0100
0001
0100
1000
0001
1001
0000
,
1000
1000
0100
0100
0010
0010
0001
1000
,
0001
0010
0100
0010
0001
1000
1010
0000
,
1000
0010
0100
0010
1000
0001
0011
0000
,
0001
0100
1000
0100
0001
0100
0110
0000
,
2001
0100
3100
1001
,
0001
0000
0100
0000
1000
0000
0100
0000
0001
0000
0100
0010
0000
0100
0010
0000
,
1000
0000
0100
0000
0001
0000
0100
0000
1000
0000
0010
0200
0000
0000
0301
0000
,
1000
0000
0100
0000
0001
0000
0100
0000
1000
0000
0010
0100
0000
0010
0100
0000
,
0001
0010
0100
1000
0010
0100
0002
0000
,
1003
0000
0010
0000
0001
0000
0010
0000
1000
0000
0010
0100
0000
0010
0100
0000
,
0001
0000
0010
0000
1000
0000
0010
0000
0001
0000
0100
0020
0000
0000
1030
0000
,
0001
0000
0010
0000
1000
0000
0010
0000
0001
0000
0100
0010
0000
0100
0010
0000
,
1000
0100
0010
0001
0100
0010
2000
0000
,
3000
0011
0000
1010
0000
0001
2000
0000
,
3010
1000
0100
1000
0020
0000
2030
0000
,
3001
0020
0000
0230
0000
2300
0000
3002
,
1003
0000
0100
0000
0001
0000
0100
0000
1000
0000
0100
0010
0000
0100
0010
0000
,
0001
0100
1000
0100
0001
0010
0100
0010
,
0002
0000
0103
0010
1000
0200
0000
0310
,
0001
0200
0000
0320
0000
2030
0000
3002
,
1003
0000
0010
0000
0001
0000
0010
0000
1000
0000
0010
0100
0000
0010
0100
0000
,
0001
0010
1000
0010
0001
0100
1001
0000
,
0001
0100
0010
1000
0001
0010
1000
0020
,
0000
0032
0000
0103
0020
0000
1030
0100
,
0001
0100
1000
0010
0001
0010
1000
0200
,
0000
0320
0000
0001
0130
0000
1100
0000
,
0011
0000
0101
0000
1010
0000
0010
1000
,
0100
0020
0000
0130
1000
0001
0100
0000
,
0110
0000
1001
0000
1000
0100
0010
0001
,
0100
0020
0000
1000
1030
0000
0011
0000
,
1100
0000
1010
0000
0101
0000
0100
0001
,
0010
0200
0000
0310
0001
1000
0010
0000
,
0110
0000
0010
1000
0200
0000
0320
0000
,
0031
2000
0000
3001
0100
0010
1010
0000
,
0101
0000
0011
0000
0100
1000
0001
0200
,
0000
0320
0000
0130
0001
1000
0200
0000
,
0310
0001
0200
0000
0310
1000
0100
0010
,
0001
2000
0000
0010
3010
0000
0101
0000
,
1010
0000
1100
0000
0011
0000
0001
0010
,
0001
0200
0000
0310
1000
0100
0010
0000
,
0110
0000
0100
1000
0001
0100
0010
2000
,
0000
3002
0000
1003
0100
0010
0022
0000
,
0000
0000
0033
0000
0000
0001
2000
0000
,
0001
0000
0010
0000
3001
0000
1000
0100
,
0001
0000
0100
0000
1000
0000
0100
0010
0000
0100
0010
0000
0001
0000
0100
0000
,
1000
0000
0100
0000
0001
0000
0010
0200
0000
0000
1300
0000
0001
0000
0100
0000
,
1000
0000
0100
0000
0001
0000
0010
0100
0000
0010
0100
0000
1000
0000
0010
0000
,
0100
0001
0010
0100
2000
0000
3001
0010
,
1000
0000
0010
0000
0001
0000
0010
0100
0000
0010
0100
0000
1000
0000
0010
0000
,
0001
0000
0010
0000
1000
0000
0100
0020
0000
0000
0031
0000
1000
0000
0010
0000
,
0001
0000
0010
0000
1000
0000
0100
0010
0000
0100
0010
0000
0001
0000
0100
0000
,
0010
1000
0100
0010
0002
0000
0003
1010
,
0000
0011
0000
1000
0002
0000
2003
0000
,
3020
0000
0130
0001
1000
0001
0020
0000
,
0130
2000
0000
3002
0000
0103
0020
0000
,
1030
0100
0001
0100
1000
0001
0200
0000
,
2300
0000
3100
0002
0000
0003
0000
0001
,
0010
0100
2000
0010
3001
0000
1010
0000
,
0101
0000
0011
0000
1100
0000
0100
1000
,
0010
0200
0000
0310
1000
0001
0010
0000
,
0110
0000
1001
0000
1000
0010
0100
0001
,
0010
0200
0000
1000
1300
0000
1100
0000
,
0011
0000
0101
0000
1010
0000
1000
0010
,
1000
0200
0000
0310
0001
0100
0010
0000
,
0110
0000
0100
0001
1000
0100
0010
0002
,
0000
2003
0000
3001
0100
0010
1000
0100
,
0001
0000
0100
0000
1000
0000
0100
0010
0000
0100
0010
0000
0001
0000
0100
0000
,
1000
0000
0100
0000
0001
0000
0010
0200
0000
0000
0310
0000
0001
0000
0100
0000
,
1000
0000
0100
0000
0001
0000
0010
0100
0000
0010
0100
0000
1000
0000
0010
0000
,
0100
0001
0010
0001
0200
0000
0301
0010
,
1000
0000
0010
0000
0001
0000
0010
0100
0000
0010
0100
0000
1000
0000
0010
0000
,
0001
0000
0010
0000
1000
0000
0100
0020
0000
0000
0130
0000
1000
0000
0010
0000
,
0001
0000
0010
0000
1000
0000
0100
0010
0000
0100
0010
0000
0001
0000
0100
0000
,
0010
1000
0100
1000
0020
0000
0030
1010
,
0000
0101
0000
0001
0010
0100
2200
0000
,
0000
0000
3300
0000
0000
1000
0002
0000
,
1000
0010
2000
0000
,
0000
0000
3003
0000
;

//---------------dance-single - ----------------
#NOTES:
     dance-single:
     :
     Medium:
     10:
     0.485427,0.489710,0.199882,0.359787,0.000000,425.000000,400.000000,25.000000,45.000000,0.000000,0.000000,0.485427,0.489710,0.199882,0.359787,0.000000,425.000000,400.000000,25.000000,45.000000,0.000000,0.000000:
0000
0000
0000
0000
,
0000
0000
0000
0000
,
0000
0000
0000
0000
,
0000
0000
0000
0000
,
1000
0100
0010
0001
,
1000
0010
0100
0001
,
0010
0001
0100
0010
,
1001
1001
1001
1001
,
1000
0100
0010
0000
0001
0000
0001
0000
,
0100
0010
1000
0000
1000
0010
0100
0000
,
0001
0010
0100
0000
1000
0000
1000
0000
,
0010
0100
0010
0100
0010
0100
0010
0000
,
0100
0001
0010
0000
0100
0000
0100
0000
,
0010
0001
0100
0000
0010
1000
0100
0000
,
1000
0010
0100
0000
0010
0000
0010
0000
,
2002
0000
3003
1001
,
1000
0100
0010
0000
0010
0100
1000
0000
,
0001
0100
0010
0000
0010
0100
0001
0000
,
1000
0100
0010
0000
0010
0100
1000
0000
,
0001
0100
0010
1000
,
0001
0010
0100
0000
0100
0010
0001
0000
,
1000
0010
0100
0000
0100
0010
1000
0000
,
0001
0010
0100
0000
0100
0010
0001
0000
,
1000
0010
0100
0001
,
2002
0000
0000
3003
,
1000
0100
0010
0001
,
1000
0200
0000
0320
0000
0032
0000
2003
,
3001
1000
0100
0000
1000
0001
0100
0000
,
0010
1000
0001
0000
0010
0001
1000
0000
,
0001
0100
0010
1000
,
0001
0200
0000
0320
0000
2030
0000
3002
,
1003
0001
0100
0000
0001
1000
0100
0000
,
0010
0001
1000
0000
0001
0100
1001
0000
,
1000
0000
0100
0000
0010
0000
0001
0100
,
0000
0020
0000
0130
0001
0000
1000
0000
,
0100
0000
0001
0000
0100
0000
1000
0001
,
0000
0200
0000
0310
1000
0000
0001
0000
,
0011
0000
0001
0000
0101
0000
1000
0010
,
0000
0200
0000
0310
1000
0000
0001
0000
,
0010
0000
0100
0000
0010
0001
1000
0001
,
1000
0010
0200
0000
0301
0000
1000
0000
,
1010
0000
1000
0000
1100
0000
0001
0010
,
0000
0200
0000
0310
0001
0000
1000
0000
,
0010
0000
0100
0010
0100
0000
0001
0000
,
1000
0200
0000
0310
0001
0000
1000
0000
,
1010
0000
1000
0000
1100
0000
0001
0010
,
0000
0200
0000
1300
0001
0000
0100
0000
,
0010
0000
1000
0000
0100
0010
0001
1000
,
0001
1000
0010
0000
0100
0000
0001
0000
,
0011
0000
0001
0000
0101
0000
1000
0010
,
0000
0200
0000
0301
1000
0000
0100
0000
,
0010
0000
0100
1000
0001
0000
0100
0010
,
0000
0200
0000
0000
0310
0000
2002
0000
,
0000
3000
0000
1000
,
1000
0000
0100
0000
0103
0000
0001
0100
,
0010
0000
0010
1000
0001
0000
1000
0100
,
0010
0000
0010
0001
1000
0000
0001
0100
,
0010
0000
0010
1000
0001
0000
1000
0000
,
0100
0000
0010
0000
0001
0000
1000
0010
,
0100
0000
0100
0001
1000
0000
0001
0010
,
0100
0000
0100
1000
0001
0000
1000
0010
,
0100
0000
0100
0001
1000
0000
0001
0000
,
0010
0100
1000
2002
,
0000
0000
3003
2000
,
3200
0320
0032
0203
,
0310
2000
0000
3002
0000
1003
0200
0000
,
0302
0203
2300
3002
,
0203
0000
0310
0200
0020
0000
0000
0000
,
0000
0330
1001
0001
,
0011
0000
0001
0000
0101
0000
1000
0010
,
0000
0200
0000
0310
1000
0000
0001
0000
,
0010
0000
0100
0000
1000
0010
0100
0001
,
0100
0001
2000
0000
3100
0000
1000
0000
,
1010
0000
1000
0000
1100
0000
0001
0010
,
0000
0200
0000
1300
0001
0000
1000
0000
,
0010
0000
0100
0001
1000
0000
0100
0000
,
0010
0001
0100
0000
0110
0000
0010
1000
,
0100
0000
0100
1000
0001
0000
0010
0001
,
0100
0000
0100
0001
1000
0000
0010
1000
,
0100
0000
0100
1000
0001
0000
0100
0000
,
0010
0000
1000
0000
0001
0000
0100
0001
,
0010
0000
0010
0001
1000
0000
0100
1000
,
0010
0000
0010
1000
0001
0000
0100
0001
,
0010
0000
0010
0001
1000
0000
0010
0000
,
0100
0001
1000
0010
,
0010
0000
0100
0010
0100
0000
2002
0000
,
0000
0003
0000
0001
,
0001
0100
3100
0000
;

//---------------dance-single - ----------------
#NOTES:
     dance-single:
     :
     Easy:
     6:
     0.336943,0.349793,0.135920,0.399763,0.000000,295.000000,278.000000,17.000000,50.000000,0.000000,0.000000,0.336943,0.349793,0.135920,0.399763,0.000000,295.000000,278.000000,17.000000,50.000000,0.000000,0.000000:
0000
0000
0000
0000
,
0000
0000
0000
0000
,
0000
0000
0000
0000
,
0000
0000
0000
0000
,
1000
1000
0100
0100
,
0010
0010
0001
0001
,
0100
0010
1000
0001
,
0020
0000
0000
0030
,
0001
0100
0001
0000
,
0001
0100
0001
0001
,
1000
0100
1000
0000
,
1000
0100
0010
0001
,
1000
0010
1000
0000
,
1000
0010
1000
1000
,
0001
0010
0001
0000
,
2002
0000
3003
0000
,
1000
0010
1000
1000
,
0001
0100
0001
0001
,
1000
0010
1000
1000
,
0001
0010
0100
1000
,
0001
0001
0010
0001
,
1000
1000
0100
1000
,
0001
0001
0010
0001
,
1000
0010
0100
0001
,
2002
0000
0000
3003
,
1000
0000
1000
0000
,
0010
1000
0100
0010
,
0001
0001
0100
0010
,
1000
1000
0100
0010
,
0001
0000
0001
0000
,
0010
0001
0100
0010
,
1000
1000
0100
0010
,
0001
0001
0100
0001
,
0100
0010
1000
0001
,
1000
0100
0000
1000
,
0100
0010
0001
1000
,
0001
0100
0000
2020
,
3030
0202
0303
0001
,
1000
0200
0300
0010
,
0010
0100
1000
0010
,
0100
0002
0003
0022
,
0033
2200
3300
1000
,
0001
0200
0300
0010
,
0010
1000
0001
1000
,
0100
0020
0030
0022
,
0033
0202
0303
0001
,
0100
0020
0030
0100
,
0001
1000
0100
0010
,
0001
2000
3000
2020
,
3030
2200
3300
0100
,
1000
0020
0030
0100
,
0010
1000
0001
0010
,
0100
2000
3000
2002
,
0000
3003
0000
0001
,
0001
1000
1000
0001
,
0001
0100
0001
0010
,
0010
0100
1000
0001
,
0001
0100
0001
0010
,
0001
0100
0010
1000
,
1000
0100
1000
0010
,
0010
0100
0001
1000
,
1000
0100
1000
0010
,
1000
0100
0010
0220
,
0000
0000
0330
0001
,
0001
0100
0100
0010
,
1000
0200
0300
0010
,
0010
0100
0100
1000
,
0001
0200
0000
0020
,
0000
0000
0330
0202
,
0303
2020
3030
1000
,
0001
0020
0030
0100
,
0100
0010
0001
0100
,
0010
2000
3000
2200
,
3300
0022
0033
0010
,
0001
0200
0300
0010
,
0100
0001
1000
0100
,
0010
0002
0003
1000
,
1000
0010
0100
0010
,
0010
1000
0100
0010
,
0010
0001
1000
0001
,
0100
0010
1000
0001
,
0001
0010
0100
0010
,
0010
0001
0100
0010
,
0010
1000
0001
1000
,
0100
0010
0001
0100
,
0010
0100
0010
2002
,
0000
3003
0000
0001
,
0001
1000
1000
0000
;

//---------------dance-single - ----------------
#NOTES:
     dance-single:
     :
     Beginner:
     3:
     0.219299,0.279035,0.127924,0.079953,0.000000,192.000000,176.000000,16.000000,10.000000,0.000000,0.000000,0.219299,0.279035,0.127924,0.079953,0.000000,192.000000,176.000000,16.000000,10.000000,0.000000,0.000000:
0000
0000
0000
0000
,
0000
0000
0000
0000
,
0000
0000
0000
0000
,
0000
0000
0000
0000
,
1000
0000
0000
0000
,
0100
0000
0000
0000
,
0010
0000
0000
0000
,
0001
0000
0000
0000
,
0100
0000
0010
0000
,
0100
0100
0100
0000
,
0010
0000
0100
0000
,
0001
0000
1000
0000
,
0100
0000
0010
0000
,
0100
0100
0100
0000
,
0010
0000
0001
0000
,
2000
0000
3000
0000
,
1000
0000
0010
0000
,
1000
0000
0001
0000
,
1000
0000
0010
0000
,
0100
0100
0100
0000
,
0001
0000
0010
0000
,
0001
0000
1000
0000
,
0001
0000
0010
0000
,
0100
0100
0100
0000
,
2002
0000
3003
0000
,
1000
0000
1000
0000
,
0010
0000
0100
0000
,
0001
0000
0010
0000
,
0001
0000
1000
0000
,
0001
0000
0001
0000
,
0010
0000
0100
0000
,
1000
0000
0010
0000
,
1000
0000
0001
1000
,
0000
0100
0000
0010
,
0000
0001
0000
0100
,
0000
0010
0000
1000
,
0000
0001
0000
1001
,
0000
0110
0000
1000
,
1000
1000
0000
0010
,
0000
0100
0000
0001
,
0001
0001
0000
1001
,
0000
0110
0000
0001
,
0001
0001
0000
0010
,
0000
0100
0000
1000
,
1000
1000
0000
1001
,
0000
0110
0000
0001
,
0001
0001
0000
0100
,
0000
0001
0000
0010
,
0010
0010
0000
1001
,
0000
0110
0000
1000
,
1000
1000
0000
0010
,
0000
1000
0000
0100
,
0100
0100
0000
2002
,
0000
3003
0000
1000
,
1000
1000
0000
0001
,
0000
0010
0000
0001
,
0000
1000
0000
0001
,
0000
0010
0000
0100
,
0100
0100
0000
1000
,
0000
0010
0000
1000
,
0000
0001
0000
1000
,
0000
0010
0000
0100
,
0100
0100
0000
2002
,
0000
3003
0000
0001
,
0000
0000
0000
0010
,
0000
0000
0000
0100
,
0000
0000
0000
1000
,
0000
0000
0000
0002
,
0000
0003
0000
1001
,
0000
0110
0000
1000
,
1000
1000
0000
0010
,
0000
0100
0000
0001
,
0001
0001
0000
1001
,
0000
0110
0000
0001
,
0001
0001
0000
0010
,
0000
0001
0000
0100
,
0100
0100
0000
0001
,
0000
0010
0000
0001
,
0000
0100
0000
0001
,
0000
0010
0000
0100
,
0100
0100
0000
1000
,
0000
0010
0000
1000
,
0000
0100
0000
1000
,
0000
0010
0000
0100
,
0100
0100
0000
0100
,
0100
0100
0000
2002
,
0000
3003
0000
1000
,
0000
0001
0000
0000
;
