#VERSION:0.83;
#TITLE:Werewolf Boyfriend (AKBK 'DJ Command' Remix);
#SUBTITLE:;
#ARTIST:Fright Ranger;
#TITLETRANSLIT:;
#SUBTITLETRANSLIT:;
#ARTISTTRANSLIT:;
#GENRE:Eurobeat;
#ORIGIN:;
#CREDIT:;
#BANNER:Werewolf Boyfriend (AKBK 'DJ Command' Remix).png;
#BACKGROUND:Werewolf Boyfriend (AKBK 'DJ Command' Remix)-bg.png;
#PREVIEWVID:;
#JACKET:Werewolf Boyfriend (AKBK 'DJ Command' Remix)-jacket.png;
#CDIMAGE:;
#DISCIMAGE:;
#LYRICSPATH:;
#CDTITLE:cdtitle.png;
#MUSIC:Werewolf Boyfriend (AKBK 'DJ Command' Remix).ogg;
#OFFSET:-0.165856;
#SAMPLESTART:52.401150;
#SAMPLELENGTH:11.294125;
#SELECTABLE:YES;
#BPMS:0.000=170.000;
#STOPS:;
#DELAYS:;
#WARPS:;
#TIMESIGNATURES:0.000=4=4;
#TICKCOUNTS:0.000=4;
#COMBOS:0.000=1;
#SPEEDS:0.000=1.000=0.000=0;
#SCROLLS:0.000=1.000;
#FAKES:;
#LABELS:0.000=Song Start;
#LASTSECONDHINT:125.000000;
#BGCHANGES:;
#KEYSOUNDS:;
#ATTACKS:
;

//---------------dance-single - ----------------
#NOTEDATA:;
#CHARTNAME:;
#STEPSTYPE:dance-single;
#DESCRIPTION:;
#CHARTSTYLE:;
#DIFFICULTY:Challenge;
#METER:17;
#RADARVALUES:0.941883,1.031161,0.289038,0.164048,0.828054,844.000000,807.000000,37.000000,21.000000,59.000000,0.000000,4.000000,0.000000,0.000000,0.941883,1.031161,0.289038,0.164048,0.828054,844.000000,807.000000,37.000000,21.000000,59.000000,0.000000,4.000000,0.000000,0.000000;
#CREDIT:;
#NOTES:
// measure 0
0000
0000
0000
0000
,  // measure 1
0000
0000
0000
0000
,  // measure 2
0000
0000
0000
0000
,  // measure 3
0000
0000
0000
0000
,  // measure 4
0000
1000
0000
1000
0000
0010
0000
0010
,  // measure 5
0000
0100
0000
0100
0000
0001
0000
0001
,  // measure 6
0000
0010
0000
0010
0000
0100
0000
0100
,  // measure 7
1100
0000
0000
0000
0011
0000
0000
0000
1000
0010
1000
0000
0001
0100
0001
0100
,  // measure 8
0010
0000
0010
0000
1000
0001
1000
0000
0100
0000
0001
0000
0100
0000
1000
0000
,  // measure 9
0010
0000
0010
0000
1000
0001
1000
0000
0100
0000
1000
0000
0010
0000
1000
0001
,  // measure 10
0010
0000
0010
0000
0001
1000
0001
0000
0100
0000
1000
0000
0100
0000
0001
0000
,  // measure 11
0010
0000
0010
0000
0100
0000
0100
0000
1000
0100
0010
0001
1000
0010
1000
0010
,  // measure 12
0100
0000
0100
0000
0001
1000
0001
0000
0010
0000
1000
0000
0010
0000
0001
0000
,  // measure 13
0100
0000
0100
0000
0001
1000
0001
0000
0010
0000
0001
0000
0100
0000
0001
1000
,  // measure 14
0100
0000
0100
0000
1000
0001
1000
0000
0010
0000
0001
0000
0010
0000
1000
0000
,  // measure 15
2200
0000
0000
0000
3300
0000
0000
0000
0010
0000
0001
0000
1000
0010
0100
0001
,  // measure 16
1000
0100
1000
0100
1000
0000
0010
0000
0100
0000
0010
0000
1000
0001
0010
0000
,  // measure 17
0100
0000
0000
0010
0000
0000
0001
0000
0000
0000
0000
0000
0100
0000
0000
0000
0000
0000
0010
0000
0000
0000
0000
0000
2000
0000
0000
0000
0000
0000
3001
0000
0010
0000
0001
0000
0020
0000
0000
0000
0000
0000
0031
0000
0000
0000
0000
0000
,  // measure 18
1000
0100
1000
0000
0001
0100
0001
0000
1001
0000
0000
1100
0000
0000
1010
0000
,  // measure 19
0010
1000
0100
0010
0001
0100
0001
1000
0001
0100
0010
1000
0100
0010
0001
1000
,  // measure 20
0001
0100
0001
0100
0001
0000
0010
0000
0100
0000
0010
0000
0001
0000
0100
0000
,  // measure 21
0100
0000
0000
0010
0000
0000
1000
0000
0000
0000
0000
0000
0100
0000
0000
0000
0000
0000
0010
0000
0000
0000
0000
0000
0002
0000
0000
0000
0000
0000
1003
0000
0010
0000
1000
0000
0020
0000
0000
0000
0000
0000
1030
0000
0000
0000
0000
0000
,  // measure 22
0001
0100
0001
0000
1000
0100
1000
0000
1010
0000
0000
1100
0000
0000
1001
0000
,  // measure 23
0001
0100
0010
1000
0100
1000
0010
0100
0001
0010
0001
0100
0002
0000
1003
0000
,  // measure 24
0400
0040
0000
0300
0031
0000
1000
0000
0010
0100
0010
0000
0100
0001
0010
0100
,  // measure 25
1000
0010
0100
0001
0010
1000
0010
0001
,  // measure 26
0100
0010
1000
0100
0001
0100
1000
0010
,  // measure 27
1000
0100
1000
0000
0010
0000
0100
0000
0001
0000
0010
0100
0000
0010
0100
1000
,  // measure 28
0001
0100
0001
0000
0010
0000
1000
0000
0010
0000
0001
0000
0001
0100
0010
1000
,  // measure 29
0001
0010
0100
1000
0010
0001
0010
1000
,  // measure 30
0100
0010
0001
0100
1000
0100
0001
0010
,  // measure 31
0001
0100
0001
0000
0010
0000
0100
0000
1000
0000
0010
0100
0000
0010
0100
0001
,  // measure 32
1000
0100
1000
0000
0010
0000
0001
0000
0010
0000
1000
0100
M0MM
0100
0001
0100
,  // measure 33
0001
0010
1000
0010
0001
0100
0010
1000
,  // measure 34
0100
0000
0001
0000
0100
0000
1000
0000
0010
0000
0100
0000
0001
1000
0001
1000
,  // measure 35
0001
0100
1000
0100
0001
0010
0100
0010
,  // measure 36
0001
1000
0001
0000
1000
0001
1000
0001
1000
0010
0100
0001
1000
0100
0010
0001
,  // measure 37
1000
0010
0101
MMMM
0001
0010
1100
MMMM
,  // measure 38
1000
0000
0100
0000
0010
0000
0001
0000
0100
0001
1000
0000
0100
0000
0010
0000
,  // measure 39
0001
0100
0001
0000
1000
0100
1000
0000
0001
0000
0010
0001
0100
0000
0010
0000
,  // measure 40
1000
0000
0001
0000
0010
0000
0100
0010
0001
1000
0001
1000
0001
0100
0010
1000
,  // measure 41
0001
0010
1100
MMMM
1000
0010
0101
MMMM
,  // measure 42
0001
0000
0100
0000
0001
0000
0010
0100
1000
0000
0001
0000
0100
0000
0010
0000
,  // measure 43
1000
0100
1000
0000
0001
0100
0001
0000
0010
0000
0100
1000
0010
0000
0100
0000
,  // measure 44
0010
1000
0001
0000
0001
0000
1000
0100
0010
0001
0100
0000
0010
1000
0100
0010
,  // measure 45
0001
0100
1010
MMMM
1000
0100
0011
MMMM
,  // measure 46
0001
0000
0100
0000
1000
0000
0100
0000
0010
0100
0001
0000
1000
0000
0100
0000
,  // measure 47
1000
0010
1000
0000
0001
0010
0001
0000
1000
0000
0010
1000
0100
0000
0010
0000
,  // measure 48
1000
0000
0010
0000
0100
0000
1000
0001
0100
0010
0100
0010
1000
0100
0010
0001
,  // measure 49
1000
0100
0011
MMMM
0001
0100
1010
MMMM
,  // measure 50
0010
0000
1000
0000
0100
0000
0010
0001
0100
0000
0010
0000
2010
0000
0000
0000
,  // measure 51
3001
0010
0001
0000
1000
0010
1000
0000
0100
0000
0010
0001
0100
0000
0010
0000
,  // measure 52
2010
0000
0001
0000
0000
0000
3200
0000
0010
0000
0310
0000
0001
0100
0010
1000
,  // measure 53
0002
1000
0000
1000
0000
1000
0000
1003
,  // measure 54
1010
0000
0000
0000
0101
0000
0000
0000
0001
0010
0001
0000
1000
0010
0100
0010
,  // measure 55
1000
0001
1000
0001
1000
0000
0001
0000
0000
0000
0001
0000
0000
0001
1000
0000
,  // measure 56
0000
0000
0000
1000
0000
0000
0100
0000
0000
0000
0000
0000
0010
0000
0000
0000
0000
0000
0001
0000
0000
0000
0000
0000
0100
0000
0000
0000
0000
0000
0010
0000
1000
0000
0010
0000
1000
0000
0000
0000
0000
0000
0001
0000
0000
0000
0000
0000
,  // measure 57
1000
0001
1000
0000
0001
1000
0001
0000
0010
0000
0000
0100
0000
0000
1000
0000
,  // measure 58
0001
0100
0001
1000
0100
1000
0001
0100
0010
1000
0100
0010
0001
1000
0010
0100
,  // measure 59
0001
1000
0001
1000
0001
0000
0010
0000
1000
0000
0010
0000
0001
0000
0100
0000
,  // measure 60
0010
1000
0001
0000
1000
0000
0100
0000
0001
0000
0001
0000
0100
0000
0100
0000
,  // measure 61
1000
0100
1000
0000
0001
0100
0001
0000
0011
0000
0000
0101
0000
0000
1001
0000
,  // measure 62
1000
0010
0100
0001
0010
0001
0100
0010
1000
0100
0010
0001
1000
0010
1000
0010
,  // measure 63
0100
0010
1000
0001
0010
1000
0010
0100
,  // measure 64
1000
0000
0010
0000
0001
0000
0010
0000
0100
0000
0001
0000
0010
0100
0010
0100
,  // measure 65
0010
0001
0100
1000
0100
0010
1000
0001
,  // measure 66
1000
0000
0100
0000
0010
0000
0001
0000
1000
0010
0100
0001
0100
0010
1000
0001
,  // measure 67
M020
M000
0000
M000
M000
0000
M000
M000
0000
M000
M130
0000
0010
0001
0100
0010
,  // measure 68
1000
0100
0011
MMMM
0001
0100
1010
MMMM
,  // measure 69
1000
0000
0010
0000
0100
0000
0001
0000
0010
0001
1000
0000
0010
0000
0100
0000
,  // measure 70
0001
0010
0001
0000
1000
0010
1000
0000
0001
0000
0100
0001
0010
0000
0100
0000
,  // measure 71
1000
0000
0001
0000
0100
0000
0010
0100
0001
1000
0001
1000
0001
0010
0100
1000
,  // measure 72
0001
0100
1010
MMMM
1000
0100
0011
MMMM
,  // measure 73
0010
0000
0001
0000
0100
0000
0010
1000
0100
0000
0010
0000
0012
0000
0000
0000
,  // measure 74
1003
0010
1000
0000
0001
0010
0001
0000
0100
0000
0010
1000
0100
0000
0010
0000
,  // measure 75
0001
0000
0000
0000
0000
0000
1000
0000
0010
0000
1000
0000
0010
0000
0000
0000
0000
0000
0100
0000
0001
0000
0100
0000
0001
0000
0000
0000
0000
0000
1000
0000
0000
0000
0000
0000
0001
0000
0000
0010
0000
0000
0100
0000
0000
1000
0000
0000
,  // measure 76
0001
0100
0001
0100
0001
0000
0010
0000
0100
0000
0010
0000
0001
1000
0010
0000
,  // measure 77
0100
0000
0000
0010
0000
0000
1000
0000
0000
0000
0000
0000
0100
0000
0000
0000
0000
0000
0010
0000
0000
0000
0000
0000
0002
0000
0000
0000
0000
0000
1003
0000
0010
0000
1000
0000
0020
0000
0000
0000
0000
0000
1030
0000
0000
0000
0000
0000
,  // measure 78
0001
0100
0001
0000
1000
0100
1000
0000
1001
0000
0000
0101
0000
0000
0011
0000
,  // measure 79
0010
0001
0100
0010
1000
0100
1000
0001
1000
0100
0010
0001
0100
0010
1000
0001
,  // measure 80
1000
0100
1000
0100
1000
0000
0010
0000
0100
0000
0010
0000
1000
0000
0100
0000
,  // measure 81
0100
0000
0000
0010
0000
0000
0001
0000
0000
0000
0000
0000
0100
0000
0000
0000
0000
0000
0010
0000
0000
0000
0000
0000
2000
0000
0000
0000
0000
0000
3001
0000
0010
0000
0001
0000
0020
0000
0000
0000
0000
0000
0031
0000
0000
0000
0000
0000
,  // measure 82
1000
0100
1000
0000
0001
0100
0001
0000
0011
0000
0000
0101
0000
0000
1001
0000
,  // measure 83
1000
0100
0010
0001
0100
0001
0010
0100
1000
0010
1000
0100
2000
0000
3001
0000
,  // measure 84
0400
0040
0000
0300
1030
0000
0001
0000
0010
0100
0010
0000
0100
1000
0010
0100
,  // measure 85
0002
1000
0000
1000
0000
1000
0000
1003
,  // measure 86
1001
0000
0000
0000
1001
0000
0000
0000
1000
0010
1000
0000
0001
0010
0100
2000
,  // measure 87
0002
0000
0000
0000
,  // measure 88
3003
0000
0000
0000
;

//---------------dance-single - ----------------
#NOTEDATA:;
#CHARTNAME:;
#STEPSTYPE:dance-single;
#DESCRIPTION:;
#CHARTSTYLE:;
#DIFFICULTY:Hard;
#METER:13;
#RADARVALUES:0.645034,0.687441,0.382780,0.523392,0.175766,578.000000,529.000000,49.000000,67.000000,23.000000,0.000000,4.000000,0.000000,0.000000,0.645034,0.687441,0.382780,0.523392,0.175766,578.000000,529.000000,49.000000,67.000000,23.000000,0.000000,4.000000,0.000000,0.000000;
#CREDIT:;
#NOTES:
0000
0000
0000
0000
,
0000
0000
0000
0000
,
0000
0000
0000
0000
,
0000
0000
0000
0000
,
2000
3200
0302
0003
,
0002
0203
2300
3020
,
0032
0023
2030
3200
,
0310
0010
1001
1001
,
0001
0100
0010
0100
1000
0100
1000
0100
,
0010
1000
0001
1000
0100
1000
0001
1000
,
0010
0100
0001
1000
0100
0001
0100
1000
,
0001
0001
1000
1000
0001
0001
0100
0010
,
1000
0100
0010
0100
0001
0100
0001
0100
,
0010
0001
1000
0001
0100
0001
1000
0001
,
0010
0100
1000
0001
0100
1000
0100
0010
,
0210
0000
0010
0000
0310
0100
1001
0000
,
1000
0100
0010
0011
0000
1100
0000
0011
,
0000
0010
0001
0000
0100
0000
0010
0000
1010
0000
0000
0000
0101
0000
0000
0000
,
0001
0000
0001
0000
1000
0000
1000
0000
0100
0000
0000
0001
0000
0000
0100
0000
,
1000
0000
0010
0100
0000
0010
0100
0000
0001
0000
0010
0000
1000
0000
0010
0000
,
0001
0100
0010
1010
0000
0101
0000
1010
,
0000
0010
1000
0000
0100
0000
0010
0000
0011
0000
0000
0000
1100
0000
0000
0000
,
1000
0000
1000
0000
0001
0000
0001
0000
0100
0000
0000
1000
0000
0000
0100
0000
,
0001
0010
1000
0010
0001
0100
0010
0000
,
4000
0004
0000
0000
3003
0000
0001
0000
2000
0000
0000
0000
3010
0000
0100
0000
,
0001
0010
0100
0010
0002
0000
0203
0000
,
1300
0200
0000
0302
0000
2003
0000
3200
,
1300
0000
0010
0000
0001
0000
0010
0000
1000
0000
0100
0010
0000
0010
0100
0000
,
1000
0000
0001
0000
0100
0000
1000
0000
0100
0000
0001
0000
1000
0001
1000
0001
,
2000
0000
3010
1000
0100
0020
0000
0031
,
0100
2000
0000
3200
0000
0320
0000
2030
,
3001
0000
0010
0000
1000
0000
0010
0000
0001
0000
0100
0010
0000
0010
0100
0000
,
0001
0000
1000
0000
0100
0000
0001
0000
0100
0000
1000
0100
0000
0000
0010
0000
,
0002
0000
0103
0010
0100
1000
0100
0010
,
1000
0200
0000
0302
0000
0103
0020
0000
,
0130
1000
0001
1000
0010
0100
0010
0001
,
0010
2000
0000
3200
0000
0310
0110
0000
,
0001
0000
0000
0101
0000
0M0M
1000
0000
0000
1100
0000
MM00
,
0001
0200
0000
2300
0000
3001
0010
1000
,
0100
0000
0010
0000
0100
0000
0010
0000
0001
0000
0000
1000
0000
0000
0001
0000
,
0100
1000
0100
0001
0010
0100
2000
0000
,
3001
0000
0000
0011
0000
00MM
1000
0000
0000
1010
0000
M0M0
,
0001
0020
0000
2030
0000
3010
0100
1000
,
0001
0000
0100
0000
0001
0000
0100
0000
0010
0000
0000
1000
0000
0000
0001
0000
,
0010
0100
0010
0001
0100
0010
1001
0000
,
1000
0000
0000
0000
0000
0000
1100
0000
0000
0000
MM00
0000
0001
0000
0000
0000
0000
0000
0101
0000
0000
0001
0M00
0000
,
1000
0200
0000
0302
0000
1003
0010
0001
,
0100
0000
0010
0000
0100
0000
0010
0000
1000
0000
0000
0001
0000
0000
1000
0000
,
0100
0001
0100
1000
0010
0100
0002
0000
,
1003
0000
0000
1010
0000
M0M0
0001
0000
0000
0011
0000
00MM
,
1000
0020
0000
0032
0000
0013
0100
0001
,
1000
0000
0100
0000
1000
0000
0100
0000
0010
0000
0000
0001
0000
0000
0100
0000
,
0010
2000
0000
3002
0000
1003
0100
0010
,
0002
0100
0000
0100
0000
0100
0000
0103
,
0101
0000
1100
0000
1000
0100
0001
0100
,
1000
0000
0010
0000
1000
0000
0010
0000
0000
0000
0010
0000
0000
0010
1000
0000
,
0000
1000
0001
0000
0010
0000
0001
0000
0100
0000
0000
0000
1001
0000
0000
0000
,
0001
0000
1000
0000
0001
0000
1000
0000
0100
0000
0000
0010
0000
0000
0100
0000
,
2002
0000
3003
0000
0001
0100
1000
0100
,
0001
0001
0010
0100
0010
0001
0100
0001
,
0100
0100
0010
1000
0001
0001
1000
1000
,
0100
0000
0001
0000
0100
0000
1000
0000
0010
0000
0000
0100
0000
0000
0001
0000
,
1000
0000
0010
0000
0001
0000
0010
0000
1000
0000
0100
0000
1000
0001
1000
0001
,
2000
0000
3020
0000
0130
0010
1000
0010
,
0002
0000
0013
2000
0000
3200
0000
0310
,
0002
0000
0103
0001
0100
1000
0100
0010
,
2000
0000
3200
0000
0310
0001
0100
0010
,
2000
0000
0000
0000
0000
3010
1001
0000
,
0001
0000
0000
0011
0000
00MM
1000
0000
0000
1100
0000
MM00
,
0001
0200
0000
2300
0000
3001
0010
1000
,
0100
0000
0010
0000
0100
0000
0010
0000
0001
0000
0000
0100
0000
0000
0010
0000
,
0100
1000
0100
0001
0010
0100
0010
0001
,
1000
0000
0000
1010
0000
M0M0
0001
0000
0000
0101
0000
0M0M
,
1000
0200
0000
0302
0000
0103
0010
0001
,
1000
0000
0010
0000
1000
0000
0010
0000
0100
0000
0000
0001
0000
0000
1000
0000
,
0100
0220
0330
2002
3003
1000
0100
0010
,
0001
0100
0010
1010
0000
0101
0000
1010
,
0000
0010
1000
0000
0100
0000
0010
0000
0011
0000
0000
0000
1100
0000
0000
0000
,
1000
0000
1000
0000
0001
0000
0001
0000
0100
0000
0000
1000
0000
0000
0100
0000
,
0001
0000
0010
0100
0000
0010
0100
0000
1000
0000
0010
0000
0001
0000
0010
0000
,
1000
0100
0010
0011
0000
1100
0000
0011
,
0000
0010
0001
0000
0100
0000
0010
0000
1010
0000
0000
0000
0101
0000
0000
0000
,
0001
0000
0001
0000
1000
0000
1000
0000
0100
0000
0000
0001
0000
0000
0100
0000
,
1000
0010
0001
0010
1000
0100
0010
0000
,
0004
4000
0000
0000
3003
0000
1000
0000
0100
0000
0010
0000
0001
0000
0100
0000
,
0220
0000
0000
0000
0000
0000
0330
0100
,
1001
0000
1001
0000
1000
0001
0100
0010
,
2002
0000
0000
0000
,
3003
0000
0000
0000
;

//---------------dance-single - ----------------
#NOTEDATA:;
#CHARTNAME:;
#STEPSTYPE:dance-single;
#DESCRIPTION:;
#CHARTSTYLE:;
#DIFFICULTY:Medium;
#METER:10;
#RADARVALUES:0.478754,0.515581,0.320285,0.453086,0.000000,429.000000,388.000000,41.000000,58.000000,0.000000,0.000000,2.000000,0.000000,0.000000,0.478754,0.515581,0.320285,0.453086,0.000000,429.000000,388.000000,41.000000,58.000000,0.000000,0.000000,2.000000,0.000000,0.000000;
#CREDIT:;
#NOTES:
0000
0000
0000
0000
,
0000
0000
0000
0000
,
0000
0000
0000
0000
,
0000
0000
0000
0000
,
0001
0100
0010
0000
,
1000
0100
0010
0001
,
0100
0010
1000
0100
,
0110
0110
1001
1001
,
0001
0100
0010
0000
0100
0000
0100
0000
,
0001
0100
0010
0000
0010
1000
0001
0000
,
1000
0100
0010
0000
0100
0000
0100
0000
,
1000
0001
1000
0001
1000
0001
0100
0000
,
0010
1000
0100
0000
1000
0000
1000
0000
,
0010
1000
0100
0000
0100
0010
0001
0000
,
0010
0001
0100
0000
0001
0000
0001
0000
,
2002
0000
0000
3003
0000
0001
1000
0000
,
0001
0100
0001
0100
0000
0101
0000
1010
,
0000
0001
0100
0001
0010
0000
1100
0000
,
0001
0100
0001
0100
0010
0000
1000
0001
,
0020
0032
0203
0320
,
1030
0100
1000
0100
0000
1100
0000
0011
,
0000
1000
0100
1000
0010
0000
0101
0000
,
1000
0100
1000
0100
0010
0000
0001
0100
,
0020
2030
3002
0023
,
0430
0000
0300
1000
2000
0000
3001
0000
,
1000
0010
0100
0001
,
0010
0200
0000
2300
0000
3002
0000
2003
,
3001
0100
0010
0000
0100
0000
0001
0000
,
1000
0100
0010
0000
0100
0000
1000
0000
,
0001
0100
0010
1000
,
0100
0020
0000
0032
0000
2003
0000
3002
,
1003
0010
0100
0000
0010
0000
1000
0000
,
0001
0010
0100
0000
0010
0000
0001
0000
,
1000
0010
0001
0010
,
1000
0100
0000
0010
0000
0100
1000
0000
,
0001
0100
1000
0100
,
0001
0010
0000
0100
0000
1000
0001
0000
,
1000
1010
1000
1100
,
0001
0200
0000
0320
0000
1000
1030
0000
,
0001
0000
0001
0000
0001
0000
0010
0100
,
1000
0000
0001
0100
0010
0000
1000
0000
,
0001
0011
0001
0101
,
1000
0200
0000
0320
0000
0001
0031
0000
,
1000
0000
1000
0000
1000
0000
0010
0100
,
0010
0100
0001
0000
1000
0100
0010
0000
,
0001
0101
0001
0011
,
1000
0020
0000
0230
0000
0001
0301
0000
,
0010
0000
0010
0000
0010
0000
0100
1000
,
0001
0000
1000
0010
0100
0000
0001
0000
,
1000
1100
1000
1010
,
0001
0020
0000
0230
0000
1000
1300
0000
,
0001
0000
0001
0000
0001
0000
1000
0010
,
0100
0002
0000
2003
0000
0000
3100
0010
,
0002
0000
0000
0000
0000
0000
0003
1000
,
0001
0001
1100
0011
,
0202
0000
0000
0000
,
0000
0303
0001
0010
,
2200
0000
0000
3300
,
2002
3003
0101
1010
,
0001
0010
0001
0100
0000
0101
0000
1010
,
0000
0001
0100
0000
0001
1000
0100
0000
,
0010
0100
0010
0100
1000
0000
0001
0000
,
0200
0320
2030
3002
,
1003
0100
0001
0100
,
1000
0000
0010
0100
0000
0001
0000
0010
,
0100
1000
0001
0100
,
0010
0000
0010
0000
1000
0100
0010
0001
,
2000
0000
0000
0000
3000
0001
0100
0000
,
0010
1001
0100
1001
,
0001
0200
0000
0320
0000
1000
1030
0000
,
0001
0000
0001
0000
0001
0000
0010
0001
,
0100
0000
0010
1000
0100
0000
1000
0000
,
0010
1001
0100
1001
,
1000
0200
0000
0320
0000
0001
0031
0000
,
1000
0000
1000
0000
1000
0000
0010
1000
,
0001
0010
0000
0010
0000
0010
0100
0000
,
1000
0100
1000
0100
0000
1100
0000
0011
,
0000
1000
0100
1000
0010
0000
0101
0000
,
1000
0100
1000
0100
0010
0000
0001
1000
,
0020
2030
3200
0320
,
0031
0100
0001
0100
0000
0101
0000
1010
,
0000
0001
0100
0001
0010
0000
1100
0000
,
0001
0100
0001
0100
0010
0000
1000
0100
,
0020
0032
2003
3020
,
0430
0000
0300
0001
0002
0000
1003
0000
,
2002
0000
0000
3003
,
1001
0000
1001
0000
1000
0100
0010
0002
,
2000
0000
0000
0000
,
3003
0000
0000
0000
;

//---------------dance-single - ----------------
#NOTEDATA:;
#CHARTNAME:;
#STEPSTYPE:dance-single;
#DESCRIPTION:;
#CHARTSTYLE:;
#DIFFICULTY:Easy;
#METER:7;
#RADARVALUES:0.372736,0.446837,0.257790,0.429651,0.000000,334.000000,301.000000,33.000000,55.000000,0.000000,0.000000,0.000000,0.000000,0.000000,0.372736,0.446837,0.257790,0.429651,0.000000,334.000000,301.000000,33.000000,55.000000,0.000000,0.000000,0.000000,0.000000,0.000000;
#CREDIT:;
#NOTES:
0000
0000
0000
0000
,
0000
0000
0000
0000
,
0000
0000
0000
0000
,
0000
0000
0000
0000
,
0001
0100
0010
0000
,
1000
0100
0010
0001
,
0010
0100
1000
0001
,
0101
0101
1010
1010
,
0001
0001
0100
0010
,
1000
1000
0001
0001
,
1000
1000
0100
0010
,
0001
0100
1000
0100
,
0001
0001
0010
0100
,
1000
1000
0001
0001
,
1000
1000
0010
0100
,
0220
0330
0100
1001
,
0001
0010
0001
0010
,
0100
0010
0001
1000
,
0001
0001
0100
0010
,
2000
3200
0320
0032
,
1003
0010
1000
0010
,
0100
0010
1000
0001
,
1000
1000
0100
1000
,
0020
0230
0302
2003
,
0200
3300
1100
0101
,
1000
1000
0001
0001
,
1000
1000
0010
0100
,
0001
0010
0100
1000
,
0001
0100
0010
1000
,
0001
0001
1000
1000
,
0001
0001
0010
0100
,
1000
0010
0100
0001
,
1000
0100
0010
0001
,
1000
1000
0010
0010
,
0100
0010
1000
0001
,
0010
0010
0100
0100
,
0010
0001
0100
0010
,
2010
3001
2100
3001
,
1000
0010
0200
0300
,
0001
0100
1000
0100
,
0001
0010
0001
0000
,
0012
1003
0102
1003
,
0001
0010
0200
0300
,
1000
0100
0001
0100
,
1000
0010
1000
0000
,
0102
1003
0012
1003
,
0010
1000
0200
0300
,
0010
0001
0100
1000
,
0100
0001
0010
0000
,
2100
3001
2010
3001
,
0010
0001
0200
0300
,
0010
1000
0100
0010
,
1001
0000
0001
0100
,
0220
0000
0000
0330
,
0100
0100
1001
0110
,
2002
0000
0000
0000
,
0000
3003
0100
0100
,
2002
0000
0000
3003
,
0220
0330
1000
0001
,
1000
1000
0100
0010
,
0001
0100
0010
0010
,
1000
0001
0010
0100
,
2000
3020
0230
0302
,
1003
0100
0010
0100
,
1000
0100
0001
0100
,
1000
0010
0100
0010
,
0001
0010
1000
0100
,
0020
0000
0000
0130
,
0012
1003
0102
1003
,
0010
1000
0200
0300
,
1000
0100
0001
0100
,
1000
0010
1000
0000
,
0012
1003
0102
1003
,
0010
1000
0200
0300
,
1000
0100
0001
0100
,
1000
0010
0100
0001
,
1000
0010
1000
0010
,
0100
0010
1000
0001
,
1000
1000
0100
0010
,
0002
0203
0320
2030
,
3001
0010
0001
0010
,
0100
0010
0001
1000
,
0001
0001
0100
0001
,
0020
0230
2300
3002
,
0200
0303
0101
1100
,
2002
0000
0000
3003
,
0100
0100
1001
0110
,
2002
0000
0000
0000
,
3003
0000
0000
0000
;

//---------------dance-single - ----------------
#NOTEDATA:;
#CHARTNAME:;
#STEPSTYPE:dance-single;
#DESCRIPTION:;
#CHARTSTYLE:;
#DIFFICULTY:Beginner;
#METER:3;
#RADARVALUES:0.239935,0.274976,0.179672,0.132801,0.000000,215.000000,192.000000,23.000000,17.000000,0.000000,0.000000,0.000000,0.000000,0.000000,0.239935,0.274976,0.179672,0.132801,0.000000,215.000000,192.000000,23.000000,17.000000,0.000000,0.000000,0.000000,0.000000,0.000000;
#CREDIT:;
#NOTES:
0000
0000
0000
0000
,
0000
0000
0000
0000
,
0000
0000
0000
0000
,
0000
0000
0000
0000
,
1000
0000
0000
0000
,
0100
0000
0000
0000
,
0010
0000
0000
0000
,
0001
0000
1000
0000
,
0001
0000
0100
0000
,
0001
0001
0001
0000
,
1000
0000
0100
0000
,
1000
1000
1000
0000
,
0010
0000
0100
0000
,
0001
0001
0001
0000
,
0010
0000
0100
0000
,
2002
0000
3003
0000
,
1000
1000
1000
0000
,
0010
0000
0100
0000
,
0001
0001
0001
0000
,
1000
1000
1000
0000
,
0001
0001
0001
0000
,
0010
0000
0100
0000
,
1000
1000
1000
0000
,
0001
0001
0001
0000
,
0200
0300
0100
0100
,
0100
0000
0100
0000
,
0001
0000
1000
0000
,
0100
0100
0100
0000
,
0010
0010
0010
0000
,
0100
0000
0100
0000
,
1000
0000
0001
0000
,
0100
0100
0100
0000
,
0010
0010
0010
0000
,
1000
0000
1000
0000
,
0001
0000
0001
0000
,
0010
0000
0010
0000
,
0100
0000
0100
0000
,
1001
0000
1001
0000
,
1000
1000
1000
0000
,
0010
0000
1000
0000
,
0100
0100
0100
0000
,
1001
0000
1001
0000
,
0001
0001
0001
0000
,
0010
0000
0001
0000
,
0100
0100
0100
0000
,
1001
0000
0110
0000
,
1000
1000
1000
0000
,
0100
0000
1000
0000
,
0010
0010
0010
0000
,
1001
0000
0110
0000
,
0001
0001
0001
0000
,
0100
0000
0001
0000
,
0010
0010
0010
0000
,
0220
0000
0000
0000
,
0330
0000
1001
1001
,
2002
0000
0000
0000
,
0000
0000
3003
0000
,
0220
0000
0330
0000
,
2002
0000
3003
0000
,
1000
1000
1000
0000
,
0010
0000
0100
0100
,
0100
0000
0001
0000
,
0010
0010
0010
0000
,
0001
0000
0001
0000
,
0100
0000
0100
0000
,
0010
0000
0010
0000
,
1000
0000
1000
0000
,
2002
0000
3003
0000
,
1001
0000
0110
0000
,
1000
1000
1000
0000
,
0010
0000
0100
0000
,
0001
0001
0001
0000
,
1001
0000
0110
0000
,
0001
0001
0001
0000
,
0010
0000
0100
0000
,
1000
1000
1000
0000
,
0001
0001
0001
0000
,
0010
0000
0100
0000
,
1000
1000
1000
0000
,
0001
0001
0001
0000
,
1000
1000
1000
0000
,
0010
0000
0100
0000
,
0001
0001
0001
0000
,
1000
1000
1000
0000
,
0200
0300
0100
0100
,
0200
0000
0300
0000
,
0100
0000
1001
1001
,
2002
0000
0000
0000
,
3003
0000
0000
0000
;
