#TITLE:We Are The Heroes;
#SUBTITLE:;
#ARTIST:Litesound;
#TITLETRANSLIT:;
#SUBTITLETRANSLIT:;
#ARTISTTRANSLIT:;
#GENRE:Soft Rock;
#CREDIT:;
#BANNER:We Are The Heroes.png;
#BACKGROUND:We Are The Heroes-bg.png;
#LYRICSPATH:;
#CDTITLE:cdtitle.png;
#MUSIC:We Are The Heroes.ogg;
#OFFSET:-7.831554;
#SAMPLESTART:39.294968;
#SAMPLELENGTH:15.609760;
#SELECTABLE:YES;
#BPMS:0.000000=123.000000
;
#STOPS:64.000000=1.463414
;
#BGCHANGES:;
#KEYSOUNDS:;
#ATTACKS:;

//---------------dance-single - ----------------
#NOTES:
     dance-single:
     :
     Beginner:
     1:
     0.071889,0.135183,0.009149,0.045747,0.000000,55.000000,54.000000,1.000000,5.000000,0.000000,0.000000,0.071889,0.135183,0.009149,0.045747,0.000000,55.000000,54.000000,1.000000,5.000000,0.000000,0.000000:
// measure 0
1000
0000
0000
0000
,  // measure 1
0001
0000
0000
0000
,  // measure 2
0100
0000
0100
0000
,  // measure 3
0010
0000
0010
0000
,  // measure 4
0100
0000
0000
0000
,  // measure 5
0001
0000
0000
0000
,  // measure 6
1000
0000
1000
0000
,  // measure 7
0001
0000
0001
0000
,  // measure 8
1000
0000
0000
0000
,  // measure 9
0100
0000
0000
0000
,  // measure 10
0010
0000
0000
0000
,  // measure 11
0001
0000
0000
0000
,  // measure 12
1000
0000
0000
0000
,  // measure 13
0001
0000
0000
0000
,  // measure 14
0100
0000
0100
0000
,  // measure 15
0100
0000
0010
0000
,  // measure 16
1001
1000
0000
0000
,  // measure 17
0000
0001
0000
0000
,  // measure 18
0000
0010
0000
0000
,  // measure 19
0000
0010
0000
0000
,  // measure 20
0000
0001
0000
0000
,  // measure 21
0000
1000
0000
0000
,  // measure 22
0000
0010
0000
0000
,  // measure 23
0000
0010
0000
0000
,  // measure 24
0000
1000
0000
0000
,  // measure 25
0000
0001
0000
0000
,  // measure 26
0000
0100
0000
0000
,  // measure 27
0000
0100
0000
0000
,  // measure 28
0000
0002
0000
0003
,  // measure 29
0000
0000
0000
1000
,  // measure 30
0000
2000
0000
0000
,  // measure 31
0000
3000
0000
0000
,  // measure 32
0000
0002
0000
0000
,  // measure 33
0000
0003
0000
0000
,  // measure 34
0000
0001
0000
0000
,  // measure 35
0000
0100
0000
0000
,  // measure 36
0000
0010
0000
0000
,  // measure 37
0000
0010
0000
0000
,  // measure 38
0000
1000
0000
0000
,  // measure 39
0000
0100
0000
0000
,  // measure 40
0000
0010
0000
0000
,  // measure 41
0000
0010
0000
0000
,  // measure 42
0000
0001
0000
0000
,  // measure 43
0000
1000
0000
0000
,  // measure 44
0000
0100
0000
0000
,  // measure 45
0000
0100
0000
0000
,  // measure 46
0000
2000
0000
3000
,  // measure 47
0000
0000
0000
0001
,  // measure 48
0000
0002
0000
0000
,  // measure 49
0000
0003
0000
0000
;

//---------------dance-single - ----------------
#NOTES:
     dance-single:
     :
     Hard:
     9:
     0.411726,0.382047,0.073196,0.512370,0.054897,315.000000,307.000000,8.000000,56.000000,0.000000,0.000000,0.411726,0.382047,0.073196,0.512370,0.054897,315.000000,307.000000,8.000000,56.000000,0.000000,0.000000:
// measure 0
1001
0000
1000
0100
0010
0100
1000
0010
,  // measure 1
0002
0000
0000
0023
0000
0000
2030
0000
0000
0000
3100
0000
0000
0000
0100
0000
,  // measure 2
0010
0000
0002
0000
0000
0203
0000
0000
0320
0000
0000
2030
0000
0000
3001
0000
,  // measure 3
0100
0000
0002
0000
0000
0000
0023
0000
0230
0000
0000
2300
0000
0000
0001
0000
,  // measure 4
3001
0000
0001
0100
0010
0100
0001
0010
,  // measure 5
2000
0000
0000
3020
0000
0000
0032
0000
0000
0000
0103
0000
0000
0000
0100
0000
,  // measure 6
0010
0000
2000
0000
0000
3200
0000
0000
0320
0000
0000
0032
0000
0000
1003
0000
,  // measure 7
0001
0000
2000
0000
0000
3000
0020
0000
0230
0000
0000
0302
0000
0000
0023
0000
,  // measure 8
0130
0000
0000
0000
1001
0000
0000
0000
1010
0000
0000
0010
0100
0000
0001
0000
,  // measure 9
1000
0000
0000
0000
0100
0000
0010
0000
0001
0000
0000
0100
0010
0000
1000
0000
,  // measure 10
0001
0000
0000
0000
0011
0000
0000
0000
1001
0000
0000
1000
0010
0000
0100
0000
,  // measure 11
0001
0000
0010
0001
0010
0100
1000
0000
,  // measure 12
1001
0000
1000
0010
0100
0010
1000
0100
,  // measure 13
0002
0000
0000
0203
0000
0000
2300
0000
0000
0000
3010
0000
0100
0000
0001
0000
,  // measure 14
0000
0002
0000
0013
0200
0000
1300
0002
,  // measure 15
0000
0100
0000
0103
0000
0100
0010
0100
,  // measure 16
0110
0000
1001
0000
1000
0100
0010
0001
,  // measure 17
0100
0001
1000
0000
0010
1000
0100
0010
,  // measure 18
0001
0200
0000
0320
0000
0130
0001
1000
,  // measure 19
0100
0020
0000
0230
0000
1300
0010
1000
,  // measure 20
0100
1000
0001
0000
1000
0001
0010
0001
,  // measure 21
0100
0001
1000
0000
0001
0100
0010
1000
,  // measure 22
0100
0020
0000
0230
0000
0310
0001
1000
,  // measure 23
0010
0200
0000
0320
0000
1030
0010
0001
,  // measure 24
0010
1000
0001
0000
0010
1000
0010
0001
,  // measure 25
0010
0100
1000
0000
0010
0000
0100
0001
,  // measure 26
1000
0200
0000
0320
0000
0031
1000
0010
,  // measure 27
1000
0200
0000
0320
0000
0031
0010
1000
,  // measure 28
0010
0001
2000
0000
0100
0000
3100
0000
,  // measure 29
0010
0001
0100
0000
0100
0000
0001
0100
,  // measure 30
0010
1000
0001
0002
0000
1000
1000
0000
,  // measure 31
0100
0103
0000
0001
1000
0000
1000
0100
,  // measure 32
0010
0001
1000
2000
0000
0001
0001
0000
,  // measure 33
0010
0010
0000
3001
1000
0010
1000
0100
,  // measure 34
1000
0010
0001
0000
0010
1000
0001
0100
,  // measure 35
0001
0010
0100
0000
1000
0100
0010
0001
,  // measure 36
0100
0002
0000
1003
0010
0100
0001
0010
,  // measure 37
0100
2000
0000
3002
0000
0103
0010
1000
,  // measure 38
0001
1000
0100
0000
0001
0100
0010
0001
,  // measure 39
1000
0001
0100
0000
1000
0100
0001
0100
,  // measure 40
0010
2000
0000
3010
0100
0001
0010
0100
,  // measure 41
1000
0002
0000
0203
0000
0301
0100
1000
,  // measure 42
0100
0001
0010
0000
0100
1000
0100
0001
,  // measure 43
0100
1000
0010
0100
0001
0000
1000
0010
,  // measure 44
1000
0200
0000
0320
0000
0130
1000
0001
,  // measure 45
0100
0020
0000
2030
0000
3001
0010
1000
,  // measure 46
0010
0001
2000
0000
0100
0000
3100
0000
,  // measure 47
0010
0001
0100
0000
0100
0000
0001
0010
,  // measure 48
0100
1000
0001
0002
0000
0100
0100
0000
,  // measure 49
1000
1003
0000
0000
0000
0000
0000
0000
;

//---------------dance-single - ----------------
#NOTES:
     dance-single:
     :
     Medium:
     7:
     0.315003,0.292154,0.155541,0.420875,0.000000,241.000000,224.000000,17.000000,46.000000,0.000000,0.000000,0.315003,0.292154,0.155541,0.420875,0.000000,241.000000,224.000000,17.000000,46.000000,0.000000,0.000000:
// measure 0
1001
0001
0100
0010
,  // measure 1
1000
0000
1000
0100
0020
0000
0001
0000
,  // measure 2
0031
1000
0100
0000
0010
0000
0010
0000
,  // measure 3
0100
1000
0001
0000
0100
0000
0100
0000
,  // measure 4
0001
1000
0100
0010
,  // measure 5
0001
0000
0001
0100
0020
0000
1000
0000
,  // measure 6
1030
0001
0100
0000
0010
0000
0010
0000
,  // measure 7
0100
0001
1000
0000
0100
0000
0010
0000
,  // measure 8
0001
0000
0012
0000
0010
0000
1003
0001
,  // measure 9
1000
0000
0001
1000
0020
0000
0100
0000
,  // measure 10
0130
0000
2010
0000
0010
0000
3001
1000
,  // measure 11
0001
0000
1000
0001
1000
0001
0020
0000
,  // measure 12
0031
1000
0100
0010
,  // measure 13
0001
0000
0001
1000
0020
0000
0100
0000
,  // measure 14
0130
0000
0001
0000
0010
0000
0010
0001
,  // measure 15
0100
0010
0010
1000
,  // measure 16
1001
0000
2200
0000
3300
0000
0010
0001
,  // measure 17
0100
0000
0202
0000
0303
0000
0001
0100
,  // measure 18
0010
1000
0000
2000
0000
3000
0001
0010
,  // measure 19
0100
1000
0000
2000
0000
3000
0100
1000
,  // measure 20
0010
0000
2020
0000
3030
0000
0100
0001
,  // measure 21
0010
0000
0022
0000
0033
0000
1000
0100
,  // measure 22
0010
0001
0000
0002
0000
0003
1000
0010
,  // measure 23
0100
0001
0000
0002
0000
0003
0100
0010
,  // measure 24
1000
0000
2002
0000
3003
0000
0001
1000
,  // measure 25
0100
0000
0220
0000
0330
0000
0010
0100
,  // measure 26
1000
0001
0000
0002
0000
0003
0100
0010
,  // measure 27
1000
0001
0000
0002
0000
0003
0010
0001
,  // measure 28
0100
2002
3003
1000
,  // measure 29
0001
0010
0000
0100
,  // measure 30
1000
0000
0001
0100
0000
0001
0100
0000
,  // measure 31
0001
0100
0000
0000
0010
0000
1000
0000
,  // measure 32
0100
0000
0010
0001
0000
0010
0001
0000
,  // measure 33
0010
0001
0000
0000
0001
0000
0100
0001
,  // measure 34
0010
0000
0022
0000
0033
0000
0100
1000
,  // measure 35
0010
0000
2020
0000
3030
0000
1000
0010
,  // measure 36
0100
0001
0000
0002
0000
0003
1000
0100
,  // measure 37
0010
0001
0000
0002
0000
0003
0010
0001
,  // measure 38
0100
0000
0202
0000
0303
0000
0010
1000
,  // measure 39
0100
0000
2200
0000
3300
0000
0001
0010
,  // measure 40
0100
1000
0000
2000
0000
3000
0001
0100
,  // measure 41
0010
1000
0000
2000
0000
3000
0010
1000
,  // measure 42
0100
0000
2002
0000
3003
0000
0010
0001
,  // measure 43
0100
0000
0001
2000
0000
3000
0100
0010
,  // measure 44
0001
1000
0000
2000
0000
3000
0010
0100
,  // measure 45
0001
1000
0000
2000
0000
3000
0010
1000
,  // measure 46
0100
2002
3003
0001
,  // measure 47
1000
0010
0000
1000
,  // measure 48
0001
0000
0010
0100
0000
0010
0100
0000
,  // measure 49
0010
0100
0000
0000
0000
0000
0000
0000
;

//---------------dance-single - ----------------
#NOTES:
     dance-single:
     :
     Easy:
     3:
     0.192139,0.225306,0.137242,0.064046,0.000000,147.000000,132.000000,15.000000,7.000000,0.000000,0.000000,0.192139,0.225306,0.137242,0.064046,0.000000,147.000000,132.000000,15.000000,7.000000,0.000000,0.000000:
// measure 0
1000
0000
0001
0000
,  // measure 1
0010
0001
2000
3000
,  // measure 2
0010
0000
0100
0000
,  // measure 3
0001
0000
0100
0000
,  // measure 4
0001
0000
1000
0000
,  // measure 5
0010
1000
0002
0003
,  // measure 6
0010
0000
0100
0000
,  // measure 7
1000
0000
0001
1000
,  // measure 8
0100
0000
0010
0010
,  // measure 9
0001
0000
0100
0010
,  // measure 10
1000
0000
0010
0010
,  // measure 11
1000
0000
0100
0010
,  // measure 12
0001
0000
1000
0000
,  // measure 13
0010
1000
0002
0003
,  // measure 14
1000
0000
0100
0000
,  // measure 15
0020
0000
0030
0000
,  // measure 16
1001
1001
0000
0010
,  // measure 17
1000
1001
0000
1000
,  // measure 18
0100
0010
0000
0001
,  // measure 19
0100
0010
0000
1000
,  // measure 20
0100
1001
0000
0001
,  // measure 21
0100
1001
0000
0010
,  // measure 22
1000
0100
0000
0010
,  // measure 23
0001
0100
0000
0001
,  // measure 24
0010
0011
0000
1000
,  // measure 25
0010
1010
0000
1000
,  // measure 26
0100
0001
0000
0001
,  // measure 27
0100
1000
0000
0010
,  // measure 28
1000
1001
0000
1000
,  // measure 29
0100
0010
0000
0001
,  // measure 30
1000
0020
0000
0000
,  // measure 31
0030
0000
0000
0100
,  // measure 32
0010
2000
0000
0000
,  // measure 33
0000
3000
1000
0010
,  // measure 34
1000
1001
0000
0010
,  // measure 35
0001
1001
0000
0001
,  // measure 36
1000
0100
0000
1000
,  // measure 37
0001
0010
0000
0001
,  // measure 38
0100
1001
0000
1000
,  // measure 39
0100
1001
0000
1000
,  // measure 40
0001
0100
0000
0001
,  // measure 41
1000
0010
0000
1000
,  // measure 42
0001
0011
0000
1000
,  // measure 43
0001
0101
0000
0001
,  // measure 44
0100
1000
0000
1000
,  // measure 45
0100
0001
0000
0010
,  // measure 46
0001
1001
0000
0001
,  // measure 47
0100
0010
0000
1000
,  // measure 48
0001
0020
0000
0000
,  // measure 49
0000
0030
0000
0000
;

//---------------dance-single - ----------------
#NOTES:
     dance-single:
     :
     Challenge:
     10:
     0.450938,0.471941,0.329381,0.503221,0.054897,345.000000,309.000000,36.000000,55.000000,0.000000,0.000000,0.450938,0.471941,0.329381,0.503221,0.054897,345.000000,309.000000,36.000000,55.000000,0.000000,0.000000:
// measure 0
1001
0000
1000
0100
0010
0100
1000
0010
,  // measure 1
0002
0000
0000
0203
0000
0000
2300
0000
0000
0000
3001
0000
0000
0000
0001
0000
,  // measure 2
0100
0000
0002
0000
0000
0203
0000
0000
2300
0000
0000
3200
0000
0000
0301
0000
,  // measure 3
0100
0000
0002
0000
0000
0000
0023
0000
2030
0000
0000
3020
0000
0000
0001
0000
,  // measure 4
0031
0000
0001
0100
0010
0100
0001
0010
,  // measure 5
2000
0000
0000
3200
0000
0000
0302
0000
0000
0000
0103
0000
0000
0000
0100
0000
,  // measure 6
0010
0000
2000
0000
0000
3200
0000
0000
0302
0000
0000
0203
0000
0000
1300
0000
,  // measure 7
0001
0000
2000
0000
0000
3000
0020
0000
0032
0000
0000
0023
0000
0000
2030
0000
,  // measure 8
3100
0000
0000
0000
2001
0000
0000
0000
3010
0000
0000
0010
1000
0000
0100
0000
,  // measure 9
0010
0000
0000
0000
0001
0000
0100
0000
0010
0000
0000
0100
0010
0000
1000
0000
,  // measure 10
0001
0000
0000
0000
1002
0000
0000
0000
0013
0000
0000
0010
0001
0000
0100
0000
,  // measure 11
0010
0000
1000
0100
0001
0100
1000
0000
,  // measure 12
1001
0000
1000
0010
0100
0010
1000
0100
,  // measure 13
0002
0000
0000
0023
0000
0000
2030
0000
0000
0000
3010
0000
0100
0000
0001
0000
,  // measure 14
0000
0002
0000
0013
0200
0000
1300
0002
,  // measure 15
0000
0103
0010
0100
0010
0100
0001
1000
,  // measure 16
1001
0000
1001
0000
1000
0100
0010
0001
,  // measure 17
0100
0001
1001
0000
0001
1000
0100
0010
,  // measure 18
0001
0200
0000
2300
0000
3100
0001
1000
,  // measure 19
0100
0002
0000
0203
0000
1300
0010
1000
,  // measure 20
0100
1000
1001
0000
1000
0001
0010
0001
,  // measure 21
0100
0001
1001
0000
0001
0100
0010
1000
,  // measure 22
0100
0002
0000
0203
0000
1300
0001
0010
,  // measure 23
0001
0200
0000
2300
0000
3100
0001
0010
,  // measure 24
0001
0100
0110
0000
0010
1000
0100
0010
,  // measure 25
0001
0100
0110
0000
0010
0000
0100
0001
,  // measure 26
1000
0020
0000
0032
0000
0013
1000
0001
,  // measure 27
0010
2000
0000
3020
0000
0031
0100
0010
,  // measure 28
1000
0001
2001
0000
0100
0000
3100
0000
,  // measure 29
0010
0001
0100
0000
0100
0000
0001
0100
,  // measure 30
0010
1000
1001
1001
0000
1100
1100
0000
,  // measure 31
0101
0101
0000
0001
1000
0000
1000
0100
,  // measure 32
0010
0001
1001
1001
0000
1010
1010
0000
,  // measure 33
0011
0011
0000
0001
1000
0010
1000
0100
,  // measure 34
1000
0010
0101
0000
0001
1000
0001
0100
,  // measure 35
0001
0010
0110
0000
0010
0001
0100
0010
,  // measure 36
1000
0200
0000
0301
0100
1000
0001
0100
,  // measure 37
0010
0200
0000
2300
0000
3100
0010
1000
,  // measure 38
0001
1000
1100
0000
1000
0100
0010
0001
,  // measure 39
1000
0001
0101
0000
1000
0010
0100
0001
,  // measure 40
1000
0200
0000
0301
0100
1000
0010
1000
,  // measure 41
0001
0200
0000
2300
0000
3100
0010
1000
,  // measure 42
0100
0010
0011
0000
0001
0010
1000
0010
,  // measure 43
0001
0100
0010
1000
0100
0000
1000
0010
,  // measure 44
1000
0200
0000
0302
0000
0103
1000
0001
,  // measure 45
0100
2000
0000
3200
0000
0301
0010
0100
,  // measure 46
1000
0001
2001
0000
0100
0000
3100
0000
,  // measure 47
0010
0001
0100
0000
0100
0000
0001
0010
,  // measure 48
0100
1000
1010
1010
0000
0101
0101
0000
,  // measure 49
1001
1001
0000
0000
0000
0000
0000
0000
;
