#VERSION:0.83;
#TITLE:Violent Arcade;
#SUBTITLE:;
#ARTIST:Final Sketch feat. rgLed;
#TITLETRANSLIT:;
#SUBTITLETRANSLIT:;
#ARTISTTRANSLIT:;
#GENRE:Chip Breakcore;
#ORIGIN:;
#CREDIT:;
#BANNER:Violent Arcade.png;
#BACKGROUND:Violent Arcade-bg.png;
#PREVIEWVID:;
#JACKET:Violent Arcade-jacket.png;
#CDIMAGE:;
#DISCIMAGE:;
#LYRICSPATH:;
#CDTITLE:cdtitle.png;
#MUSIC:Violent Arcade.ogg;
#OFFSET:-0.030070;
#SAMPLESTART:17.924807;
#SAMPLELENGTH:16.822105;
#SELECTABLE:YES;
#DISPLAYBPM:114.000000:228.000000;
#BPMS:0.000=228.000,
64.000=114.000,
66.000=228.000,
73.000=456.000,
75.500=228.000,
81.000=100.000,
81.333=640.000,
82.000=228.000,
96.000=114.000,
97.000=228.000,
104.000=456.000,
106.500=342.000,
107.625=114.000,
108.000=228.000,
113.000=912.000,
114.000=228.000,
128.000=150.000,
128.500=480.000,
129.000=228.000,
132.500=912.000,
133.500=228.000,
159.521=152.000,
160.021=456.000,
160.521=228.000,
167.000=456.000,
169.000=228.000,
193.000=114.000,
197.000=228.000,
229.000=114.000,
230.000=228.000,
252.000=114.000,
253.000=228.000,
259.000=456.000,
261.000=228.000,
263.000=114.000,
267.000=456.000,
268.500=114.000,
270.500=456.000,
271.000=152.000,
272.000=228.000,
275.000=456.000,
277.000=228.000,
309.000=114.000,
311.000=228.000,
341.000=114.000,
342.000=912.000,
343.000=228.000,
350.000=456.000,
351.500=342.000,
352.625=114.000,
353.000=228.000,
358.000=912.000,
359.000=228.000,
373.000=150.000,
373.500=480.000,
374.000=228.000,
381.000=456.000,
381.667=114.000,
382.000=228.000,
390.000=600.000,
390.750=79.500,
391.000=228.000,
395.000=456.000,
395.500=228.000,
406.000=912.000,
407.000=228.000,
422.000=456.000,
423.000=228.000;
#STOPS:73.000=0.066,
73.500=0.066,
74.000=0.066,
74.500=0.066,
75.000=0.065,
104.000=0.066,
104.500=0.066,
105.000=0.066,
105.500=0.066,
106.000=0.065,
113.000=0.198,
132.500=0.198,
167.000=0.066,
167.500=0.066,
168.000=0.066,
168.500=0.065,
197.000=0.461,
197.250=0.460,
197.500=0.461,
197.750=0.460,
201.750=0.264,
259.000=0.329,
259.500=0.329,
260.000=0.657,
267.000=0.230,
267.250=0.100,
267.500=0.328,
268.000=0.198,
270.500=0.329,
275.000=0.066,
275.500=0.066,
276.000=0.066,
276.500=0.065,
342.000=0.197,
350.000=0.066,
350.500=0.066,
351.000=0.065,
358.000=0.198,
395.000=0.066,
406.000=0.198,
422.000=0.033,
422.250=0.033,
422.500=0.033,
422.750=0.032;
#DELAYS:;
#WARPS:;
#TIMESIGNATURES:0.000=4=4;
#TICKCOUNTS:0.000=4;
#COMBOS:0.000=1;
#SPEEDS:0.000=1.000=0.000=0;
#SCROLLS:0.000=1.000;
#FAKES:;
#LABELS:0.000=Song Start;
#BGCHANGES:;
#KEYSOUNDS:;
#ATTACKS:
;

//---------------dance-single - ----------------
#NOTEDATA:;
#CHARTNAME:;
#STEPSTYPE:dance-single;
#DESCRIPTION:;
#CHARTSTYLE:;
#DIFFICULTY:Challenge;
#METER:19;
#RADARVALUES:1.179798,1.434216,0.578179,0.406288,1.050880,1057.000000,983.000000,74.000000,52.000000,0.000000,0.000000,4.000000,0.000000,0.000000,1.179798,1.434216,0.578179,0.406288,1.050880,1057.000000,983.000000,74.000000,52.000000,0.000000,0.000000,4.000000,0.000000,0.000000;
#CREDIT:;
#DISPLAYBPM:114.000000:228.000000;
#NOTES:
// measure 0
0000
0000
0000
0000
,  // measure 1
0000
0000
0000
0000
,  // measure 2
0000
0000
0000
0000
,  // measure 3
0000
0000
0000
0000
,  // measure 4
0000
0000
0000
0000
,  // measure 5
0000
0000
0000
0000
,  // measure 6
0000
0000
0000
0000
,  // measure 7
0000
0000
0000
0000
,  // measure 8
1001
0000
0000
0000
1000
0000
0001
0100
0001
0100
0001
0000
0000
0000
0001
0000
,  // measure 9
1000
0000
0000
0000
0001
0000
1000
0100
1000
0100
1000
0000
0000
0000
1000
0000
,  // measure 10
0001
0000
0000
0000
1000
0000
0001
0010
0001
0010
0001
0000
0000
0000
0001
0000
,  // measure 11
1000
0000
0000
0000
0001
0000
1000
0010
1000
0010
1000
0000
0000
0000
1000
0000
,  // measure 12
0001
0000
0000
0000
1000
0000
0001
0100
0001
0000
0000
0000
0001
0000
1000
0100
,  // measure 13
1000
0000
0000
0000
1000
0000
0001
0010
0001
0000
0000
0000
0001
0000
1000
0010
,  // measure 14
1000
1000
1000
1000
,  // measure 15
1000
0000
0100
0000
0010
0000
0001
0000
1000
0001
1000
0001
1000
0001
1000
0001
,  // measure 16
1000
0000
0000
0000
0000
0000
0000
0000
1001
0000
0000
0000
0001
0000
0010
0100
,  // measure 17
0010
0100
1000
0000
0001
0000
0001
0000
0100
0010
0100
0010
1000
0000
0001
1000
,  // measure 18
0100
0000
0010
0000
1000
0000
0010
0000
0001
0000
0100
0000
1000
0000
0100
0001
,  // measure 19
0100
0001
1000
0000
0100
0000
0100
0000
0010
0000
0100
0010
0001
0000
1000
0001
,  // measure 20
1000
0000
0001
0000
0102
0000
0000
0000
1003
0001
1000
0000
0010
0000
0100
0000
,  // measure 21
0001
1000
0001
0000
1000
0000
0100
0000
0010
0001
0010
0100
1000
0001
1000
0001
,  // measure 22
0100
0001
0100
0001
1000
0010
0100
0001
1000
0000
0001
1000
0100
0000
0010
0000
,  // measure 23
0100
1000
0001
0000
0100
0000
0100
0000
0010
0000
0001
0000
0010
0000
1000
0000
,  // measure 24
0400
0040
0000
0330
1001
0000
1000
0010
0100
0000
0110
0000
0000
0000
0010
0000
,  // measure 25
0100
0000
0001
0000
1000
0000
0100
0000
0010
0000
0001
0100
0010
0000
1000
0000
,  // measure 26
0100
0000
0001
0000
0100
0000
0010
0000
0001
0000
2002
0000
0000
0000
0000
3003
,  // measure 27
1001
0000
0001
0000
1000
0000
0000
0000
0001
0000
0010
0001
1000
0000
0010
0000
,  // measure 28
0001
0000
0010
0000
0110
0000
0000
0000
1000
0000
0001
0000
1000
0100
0010
0000
,  // measure 29
0001
0000
0100
0010
1000
0000
1000
0000
0001
1000
0001
1000
0100
1000
0100
1000
,  // measure 30
0001
0100
0010
1000
0001
0000
0010
0001
1000
0000
1010
0000
0000
0000
0100
0000
,  // measure 31
0001
0000
1000
0000
0100
0000
0010
0000
0100
0000
0010
0100
1000
0001
0100
0010
,  // measure 32
1000
0000
0000
0000
1001
0000
0001
1000
0001
1000
0001
1000
0010
0000
1000
0001
,  // measure 33
0010
0100
0000
0010
0100
0010
1001
0000
,  // measure 34
1001
0001
0100
0100
0100
1000
0100
0001
,  // measure 35
0100
0000
1000
0000
0100
0000
0010
0100
0002
0000
0013
0000
0010
0100
2000
0000
,  // measure 36
3001
0000
1000
0001
0100
0000
0010
1000
0001
0000
1001
0000
0000
0000
1000
0000
,  // measure 37
0010
0100
0010
0100
0001
0000
1000
0000
0100
0010
0100
0010
0100
0010
0001
1000
,  // measure 38
0010
0000
1000
0000
0001
0000
0100
0010
1000
0000
0001
1000
0001
1000
0100
0000
,  // measure 39
0010
0001
0100
1000
0001
0010
1000
0200
,  // measure 40
0000
0000
0310
0000
1001
0000
0000
0000
0001
0000
1000
0010
1000
0010
0100
0000
,  // measure 41
1000
0000
0100
0000
0001
0100
0001
0100
0010
0000
1000
0100
0010
0000
1000
0000
,  // measure 42
0010
0000
0001
0000
0100
0001
1000
0001
1000
0001
0100
0001
1000
0001
1000
0001
,  // measure 43
0010
0100
0010
0000
2001
0000
0000
0000
3010
0000
1002
0000
0000
0000
0103
0000
,  // measure 44
2001
0000
0000
0000
3001
0100
0001
0000
1000
0000
0100
0000
0010
0000
0100
0000
,  // measure 45
1000
0010
1000
0010
0100
0000
0001
0000
1000
0000
0100
0000
0010
0001
0010
0001
,  // measure 46
1000
0100
0010
0001
1000
0000
0001
0000
0100
0001
0100
0001
1000
0100
0010
0001
,  // measure 47
1000
0001
1000
0001
0100
0000
0010
0000
0100
0000
0010
0000
1000
0010
0100
0001
,  // measure 48
1000
0010
0100
0001
2000
0000
0000
0000
0002
0000
0000
0000
0000
0000
0000
0000
,  // measure 49
0000
0000
0000
0000
0000
0000
0000
0000
3003
0000
0000
0000
0011
0000
0000
1100
0000
0000
1010
0000
0000
0101
0000
0000
1001
0000
0000
0000
0000
0000
1000
0000
0000
0000
0000
0000
0001
0000
0000
0000
0000
0000
1000
0000
0000
0100
0000
0000
,  // measure 50
1000
0000
0001
0000
1000
0000
0001
0100
0001
0000
0100
0000
0100
0000
0010
0000
,  // measure 51
1000
0000
0001
0100
0001
0000
1000
0000
0001
0000
1000
0100
1000
0000
0001
0000
,  // measure 52
0010
0000
0001
0100
0001
0000
0010
0000
0001
0000
1000
0010
1000
0000
0100
0000
,  // measure 53
1000
0000
0001
0000
0010
0001
0010
0001
0010
0100
1000
0001
0100
0001
0100
0001
,  // measure 54
1000
0010
0100
0001
1000
0001
1000
0001
0100
0010
0100
0010
1000
0001
1000
0001
,  // measure 55
1000
0100
0010
0001
1000
0001
1000
0001
0010
0100
0010
0100
1000
0001
1000
0001
,  // measure 56
1000
0010
0100
0001
1000
0000
0100
0000
0010
0000
0100
0000
0010
0000
0100
0000
,  // measure 57
0010
0000
0100
0000
2002
0000
3003
0000
1000
0010
1000
0010
0100
0001
0100
0001
,  // measure 58
1000
0001
0010
0001
1000
0001
0010
0001
1000
0000
0100
0000
0001
0000
0100
0000
,  // measure 59
0010
0001
0010
0001
1000
0100
0010
0001
1000
0001
1000
0001
0010
0001
1000
0010
,  // measure 60
1000
0001
0100
0001
1000
0001
0100
0001
1000
0000
0100
0000
0001
0000
0100
0000
,  // measure 61
1000
0001
1000
0001
0100
0010
1000
0001
0010
0100
0010
0001
1000
0100
0010
0001
,  // measure 62
1000
0010
1000
0010
0100
0010
0100
0010
0100
0001
0100
0001
1000
0010
0100
0001
,  // measure 63
2000
0000
0000
0000
3001
0010
0100
1000
0001
1000
0001
1000
0010
0100
0010
0000
,  // measure 64
0100
0010
0100
0010
0100
0010
1001
0110
,  // measure 65
1001
0000
0000
0000
0000
0000
0000
0000
0022
0000
0000
0000
0000
0000
0000
0000
0000
0000
0000
0000
0000
0000
0000
0000
0033
0000
0000
0000
1000
0001
1000
0001
,  // measure 66
1000
0000
0001
0000
2100
0000
3010
0000
0102
0000
0013
0000
1001
0100
0110
0000
,  // measure 67
1001
0000
0000
0000
1000
0100
0010
0001
0100
0000
0010
0000
2010
0000
0000
0000
3100
0000
0000
0000
0110
0000
0000
0000
2001
0000
0000
0000
0000
0000
0000
0000
,  // measure 68
3010
0000
0001
0000
0010
1000
0010
0000
0001
0000
0010
0000
1000
0000
1000
0000
,  // measure 69
0100
0010
2001
0000
3010
0102
0000
0013
,  // measure 70
2100
0000
3010
1000
0100
0010
1002
0100
,  // measure 71
0000
0000
0103
0000
0001
0000
0010
0000
0100
1000
0100
1000
0001
0000
0100
0000
,  // measure 72
0001
0100
2001
0000
3010
1000
0100
0100
,  // measure 73
0010
0001
1002
0000
0103
2010
0000
3100
,  // measure 74
0012
0000
0000
0000
1003
0010
1000
0010
0100
0000
0001
0000
2000
0000
0000
0000
,  // measure 75
3100
0010
1002
0000
0013
0000
2001
0000
,  // measure 76
3010
0000
0000
0000
1000
0000
0001
0000
1000
0000
0001
0000
1000
0100
0010
0001
,  // measure 77
1000
0001
0010
0100
1000
0000
0000
0000
0000
0000
0000
0000
1001
0000
1000
0000
,  // measure 78
0100
0110
0000
0010
0001
0100
1000
0100
,  // measure 79
0001
0000
0010
0100
1000
0001
1000
0001
1000
0010
0100
0001
1000
0100
1000
0100
,  // measure 80
0010
0120
0000
1030
0010
0001
0100
0010
,  // measure 81
0100
0000
1000
0000
0100
0000
0001
0000
0010
0100
0010
0000
0001
1000
0001
0000
,  // measure 82
0100
0000
0120
0000
0000
0000
1030
0000
0010
0000
0100
0000
0001
0010
0001
0010
,  // measure 83
0100
1000
0100
1000
0001
0100
0001
0100
0010
1000
0001
0000
1002
0000
0000
0000
,  // measure 84
0013
2001
0000
3010
0100
0010
0001
0010
,  // measure 85
1000
0000
0100
0000
0040
0400
0000
0330
1001
0000
0000
0000
0011
0000
2001
0000
,  // measure 86
0000
0000
3010
0000
0001
0000
0010
0000
1000
0000
0100
0000
0010
0000
0001
0100
,  // measure 87
0010
1000
0010
1000
0001
1000
0100
1000
0001
0000
0100
0000
0010
0000
2002
0000
,  // measure 88
0000
0000
0000
0000
0000
3003
0000
0000
1001
0000
0000
0000
1000
0000
0000
0000
0100
0000
0000
0000
0000
0000
0000
0000
0010
0000
0000
0000
0001
0000
0100
0000
,  // measure 89
0010
0100
1000
0100
0001
0000
0101
2001
,  // measure 90
0000
0000
3010
0000
0001
0000
0010
0000
1000
0000
1000
0001
0010
0001
0010
0001
,  // measure 91
1000
0100
1000
0100
0010
0001
0010
0001
1000
0000
0001
0100
0010
0000
1010
0000
,  // measure 92
0000
0000
1000
0000
0001
0000
1000
0000
0100
0000
0010
0000
0100
0000
0010
0100
,  // measure 93
1000
0001
0100
0010
1000
0000
0000
0000
1001
0000
0001
0010
0100
0000
0010
0000
,  // measure 94
0001
0100
0010
0000
0001
0000
0010
0000
0100
0000
0000
0000
2010
0000
0001
0000
,  // measure 95
3000
0000
0000
0000
0000
0000
0012
0000
0000
0000
0000
0000
2000
0000
0000
0000
0000
0000
0000
0000
3000
0003
0000
0000
1001
0000
0000
0000
0000
0000
0000
0000
0000
0000
0000
0000
0101
0000
0000
0000
0000
0000
0010
0000
0000
0000
0000
0000
,  // measure 96
1000
0010
0100
0010
1000
0000
0001
0010
0100
1000
0100
0010
0001
1000
0001
1000
,  // measure 97
0001
0100
0001
0100
0001
1000
0001
1000
0200
0000
0000
0300
1001
0000
0021
0000
,  // measure 98
0000
0000
0130
0000
0010
0000
0001
0000
1000
0010
0100
0001
1000
0000
0001
0010
,  // measure 99
0100
1000
0001
0000
1000
0001
0100
0001
1000
0000
0100
0010
0001
0000
0100
0010
,  // measure 100
0100
0010
1000
0000
0010
0000
0001
0000
0010
0000
1000
0000
0100
0000
0010
0000
,  // measure 101
0100
0010
0100
0000
1001
0000
0001
0012
,  // measure 102
1000
1003
0001
0100
0001
0000
0012
1000
,  // measure 103
0003
0000
2010
0000
0001
0000
3001
1000
0010
1000
0001
1000
0001
1000
0010
1000
,  // measure 104
0001
1000
0001
1000
0100
0000
0010
0000
1002
0000
0000
0000
0103
0000
2001
0000
,  // measure 105
0000
0000
3100
0000
1002
0000
0000
0000
0103
0001
1000
0001
0010
0000
0210
0000
,  // measure 106
0000
0000
1300
0000
0010
0100
0010
0100
0001
0000
1000
0100
0010
0001
0010
0000
,  // measure 107
0001
0100
0010
1000
0010
0100
0010
0100
0001
1000
0001
0000
1000
0100
1000
0100
,  // measure 108
0010
0001
1000
0100
0010
0001
1000
0001
0100
0000
0010
0000
0000
0000
1000
0000
,  // measure 109
0100
0010
0002
0000
0000
0000
0000
0000
,  // measure 110
0000
0000
0000
0000
,  // measure 111
0000
0003
0000
0000
;

//---------------dance-single - ----------------
#NOTEDATA:;
#CHARTNAME:;
#STEPSTYPE:dance-single;
#DESCRIPTION:;
#CHARTSTYLE:;
#DIFFICULTY:Hard;
#METER:18;
#RADARVALUES:1.034695,1.390755,0.554740,0.476607,0.605525,927.000000,856.000000,71.000000,61.000000,0.000000,0.000000,4.000000,0.000000,0.000000,1.034695,1.390755,0.554740,0.476607,0.605525,927.000000,856.000000,71.000000,61.000000,0.000000,0.000000,4.000000,0.000000,0.000000;
#CREDIT:;
#DISPLAYBPM:114.000000:228.000000;
#NOTES:
0000
0000
0000
0000
,
0000
0000
0000
0000
,
0000
0000
0000
0000
,
0000
0000
0000
0000
,
0000
0000
0000
0000
,
0000
0000
0000
0000
,
0000
0000
0000
0000
,
0000
0000
0000
0000
,
1001
0000
1000
0100
0010
0001
0000
0001
,
0100
0000
0001
0100
0010
1000
0000
1000
,
0100
0000
1000
0010
0100
0001
0000
0001
,
1000
0000
0001
0010
0100
1000
0000
1000
,
0001
0000
0010
0001
0100
0000
0010
1000
,
0100
0000
0010
0100
1000
0000
0010
0100
,
0001
0001
1000
1000
,
0001
0000
0010
0000
0100
0000
1000
0000
0001
1000
0001
1000
0001
1000
0001
1000
,
0001
0000
0000
0000
1001
0000
1000
0010
,
0001
0000
0010
0000
1000
0000
0100
0000
0010
0000
0100
0000
1000
0000
0010
0100
,
0001
1000
0100
0010
0100
0010
0001
2001
,
0000
0000
3001
0000
0100
0000
1000
0000
0100
0000
0001
0100
0001
0000
1000
0100
,
1000
0000
0010
0000
0020
0000
0000
0000
1030
0001
1000
0000
0100
0000
0001
0000
,
0100
0000
1000
0000
0001
0000
0100
0000
0010
0000
1000
0000
0010
1000
0010
1000
,
0001
1000
0001
1000
0001
0010
0001
0010
0001
0000
1000
0010
1000
0000
1002
0000
,
0000
1003
0100
0001
0100
1000
0010
0100
,
0004
4000
0000
0003
3100
0000
0010
0100
0010
0000
1001
0000
0000
0000
1000
0000
,
0100
0000
0010
0000
0100
0000
0001
0000
0100
0000
0010
0001
1000
0000
0001
0000
,
0100
0000
1000
0000
0100
0000
0010
0000
1000
0000
2002
0000
0000
0000
0000
3003
,
1000
0000
0100
0000
0001
0000
0000
0000
0001
0000
0100
0010
0100
0000
1000
0000
,
0001
0100
0110
0000
1000
1001
0001
1000
,
0100
0000
0010
0000
0001
0000
1000
0000
0001
0010
0001
0010
0001
1000
0001
1000
,
0010
1000
0010
1000
0001
0000
1000
0100
1000
0000
1001
0000
0000
0000
0001
0000
,
0100
0000
1000
0000
0100
0000
0010
0000
0100
0000
0010
0000
1000
0010
0100
0001
,
1000
0000
0000
0000
0001
0000
0010
0100
0010
0000
0001
0000
1001
0000
0000
0000
,
1001
0100
0000
0010
0100
0010
1001
0000
,
1001
0000
1000
1000
1000
0100
0001
0100
,
1000
0000
0100
0000
0010
0001
0010
0001
1000
0000
0001
0000
0001
0000
1000
0000
,
0001
0000
1000
0010
1000
0000
0010
0100
0010
0000
1001
0000
0000
0000
0001
0000
,
0100
0010
0100
0010
0100
0000
0001
0000
1000
0010
1000
0010
1000
0010
0100
0001
,
0100
0000
0001
0000
1000
0000
0001
0010
0001
0000
1001
0000
0000
0000
1000
0000
,
0100
0001
0100
0010
0001
1000
0010
0200
,
0000
0310
1001
0000
0001
0010
1000
0010
,
0001
0000
0100
0000
0010
0000
1000
0001
1000
0000
0001
0000
0010
0000
1000
0000
,
0010
0000
0001
0000
1000
0100
1000
0100
1000
0000
0001
0100
0001
0100
0001
0000
,
1000
0001
0012
0000
1003
2010
0000
3001
,
0012
0000
0000
0000
0103
0010
0100
0000
0001
0000
1001
0000
0000
0000
1000
0000
,
0100
0010
0100
0010
0100
0000
1000
0000
0001
0000
0100
0000
0010
1000
0010
1000
,
0001
0100
0001
0100
0010
0000
1000
0000
0100
0000
0001
0000
1000
0000
0010
0000
,
0001
0000
1000
0000
0010
0000
0100
0000
0010
0000
0100
0000
0001
1000
0001
1000
,
0100
0010
0100
0010
0002
0000
0000
0000
2000
0000
0000
0000
0000
0000
0000
0000
,
0000
0000
0000
3003
1010
1100
0101
0011
1001
0000
1000
0000
0001
0000
1000
0010
,
1000
0000
0001
0000
1000
0000
0001
0010
0001
0000
1000
0000
1000
0000
0010
0000
,
1000
0000
0001
0100
0001
0000
1000
0000
0001
0000
1000
0100
1000
0000
0001
0000
,
1000
0000
0010
0100
0010
0000
0100
0000
0001
0000
0010
0100
0010
0000
0100
0000
,
1000
0000
0010
0000
0100
0001
0100
0001
1000
0000
0100
0000
0010
0001
0010
0001
,
1000
0000
0010
0000
0200
0000
0000
0000
0301
0100
0001
0000
1000
0010
1000
0000
,
0100
0000
0010
0000
0001
0010
0001
0000
1000
0100
1000
0000
0001
0010
0001
0000
,
1000
0010
0100
0010
0100
0010
0100
0010
,
0100
0010
2002
3003
1000
0010
0100
0001
,
0010
0100
0010
0100
0010
0000
0100
0000
1000
0000
0010
0000
0100
0000
0001
0000
,
0010
0100
0010
0100
1000
0000
0001
0000
0100
0010
0100
0010
1000
0000
0100
0000
,
1000
0001
1000
0001
1000
0000
0001
0000
0100
0000
1000
0000
0100
0000
0001
0000
,
1000
0100
1000
0100
0010
0001
0010
0001
2000
0000
0000
0000
3010
0000
0100
0000
,
0001
0100
0001
0000
1000
0010
1000
0000
0001
0100
0001
0000
0010
0000
0100
0000
,
2002
0000
3003
0000
0001
0100
0001
0000
1000
0000
0100
0010
0100
0000
0010
0000
,
0100
0010
0100
0010
0100
0010
1001
1001
,
1001
0000
0000
0000
0000
0000
0000
0000
0220
0000
0000
0000
0000
0000
0000
0000
0000
0000
0000
0000
0000
0000
0000
0000
0330
0000
0000
0000
1000
0001
1000
0001
,
1000
0000
0001
0000
2001
0000
3100
0000
1002
0000
0103
0000
1001
1000
1001
0000
,
1001
0000
0000
0000
0001
0100
0001
0100
0001
0000
1000
0000
2100
0000
0000
0000
3001
0000
0000
0000
0110
0000
0000
0000
2001
0000
0000
0000
0000
0000
0000
0000
,
3100
0000
0010
0000
0100
0010
0100
0000
0010
0000
0100
0000
0010
0000
0001
0000
,
0100
0010
2020
0030
3001
0022
0030
1003
,
2020
0030
3001
0010
0100
1000
1002
0100
,
0000
0000
0103
0000
0001
0000
1000
0000
0100
0010
0100
0010
0100
0000
1000
0000
,
0001
1000
2001
0000
3010
0000
1000
0010
,
0100
0001
0202
0300
1003
2200
0300
3001
,
0202
0300
1003
0100
0010
0001
1002
0000
,
0103
0001
2001
0000
3010
0000
1002
0000
,
0013
0000
0000
0000
0001
0000
1000
0000
0001
0000
1000
0000
0001
0100
0001
0100
,
0010
1000
0010
1000
0001
0000
0000
0000
0000
0000
0000
0000
1001
0000
1000
0000
,
0010
0110
0000
0100
0001
0010
1000
0010
,
0001
0000
0100
0010
1000
0000
0100
0000
1000
0001
1000
0000
0001
0000
0000
0000
,
0100
0120
0000
0130
1000
0100
0001
0010
,
0100
0000
1000
0000
0002
0000
0000
0000
1003
0010
1000
0000
0001
0010
0001
0000
,
1000
0000
1200
0000
0000
0000
0301
0000
0100
0000
0010
0000
0001
0100
0001
0100
,
0010
0100
0010
0100
0010
1000
0010
1000
0010
0100
0010
0100
0001
0000
0000
0000
,
1000
1002
0000
0013
1000
0010
0001
0100
,
0010
0000
1000
0000
0400
0040
0000
0300
0031
0000
0000
0000
0001
0000
1002
0000
,
0000
0000
0103
0000
0010
0000
1000
0000
0100
0000
0001
0000
0100
0000
1000
0001
,
1000
0000
0010
0000
0100
0001
0100
0001
0100
0000
0010
0000
1000
0000
2002
0000
,
0000
0000
0000
0000
0000
3003
0000
0000
0001
0000
0000
0000
0100
0000
0000
0000
1000
0000
0000
0000
0000
0000
0000
0000
1000
0000
0000
0000
0100
0000
0010
0000
,
0100
0001
1000
0100
0110
0000
1000
2001
,
0000
0000
3010
0000
0001
0000
0010
0000
1000
0000
0100
0000
1000
0100
1000
0100
,
1000
0001
1000
0001
0100
0001
0100
0001
1000
0000
0001
0100
0001
0000
1001
0000
,
0000
0001
0100
1000
0100
0010
0100
0010
,
1000
0010
0100
0001
1000
0000
0000
0000
0001
0000
0010
0100
0010
0000
0001
0000
,
0100
0010
0100
0000
1000
0000
0100
0000
0001
0000
0000
0000
2000
0000
0100
0000
,
0000
0000
3002
0000
0200
0000
0300
0003
1001
0000
0000
0000
1000
0000
0100
0000
,
0011
0000
0000
0000
0011
0000
0010
0000
0100
0000
1000
0000
0001
1000
0001
1000
,
0010
0100
0010
0100
0001
0000
1000
0000
2002
0000
0000
3003
1000
0000
1020
0000
,
0000
0000
1030
0000
0100
0000
0010
0000
0001
0010
0001
0010
0100
0000
1000
0100
,
1000
0100
0010
0000
0001
0100
0001
0100
0001
0000
1000
0100
1000
0000
1001
0000
,
0000
1000
0100
0001
0100
1000
0010
0100
,
0010
0100
0010
0000
1001
0000
0001
0100
,
1000
0001
0010
1000
0001
0000
2000
0100
,
0000
0000
3002
0000
1000
0000
1003
0000
0001
0100
0001
0100
0001
0000
1000
0100
,
1000
0100
1000
0000
0001
0000
1000
0000
2010
0000
0000
0000
3001
0000
0012
0000
,
0000
0000
1003
0000
2010
0000
0000
0000
3100
0010
0100
0000
0010
0000
1002
0000
,
0000
0000
1003
0000
0010
0100
0010
0100
0010
0000
1000
0001
1000
0000
0001
0000
,
1000
0001
1000
0000
0100
0010
0100
0010
0100
0000
1000
0000
0100
0000
0001
0000
,
1000
0010
0001
0100
0010
1000
0000
0001
,
1000
0100
0020
0000
0000
0000
0000
0000
,
0000
0000
0000
0000
,
0000
0030
0000
0000
;

//---------------dance-single - ----------------
#NOTEDATA:;
#CHARTNAME:;
#STEPSTYPE:dance-single;
#DESCRIPTION:;
#CHARTSTYLE:;
#DIFFICULTY:Medium;
#METER:15;
#RADARVALUES:0.811460,1.043067,0.632872,0.539113,0.007813,727.000000,646.000000,81.000000,69.000000,0.000000,0.000000,2.000000,0.000000,0.000000,0.811460,1.043067,0.632872,0.539113,0.007813,727.000000,646.000000,81.000000,69.000000,0.000000,0.000000,2.000000,0.000000,0.000000;
#CREDIT:;
#DISPLAYBPM:114.000000:228.000000;
#NOTES:
0000
0000
0000
0000
,
0000
0000
0000
0000
,
0000
0000
0000
0000
,
0000
0000
0000
0000
,
0000
0000
0000
0000
,
0000
0000
0000
0000
,
0000
0000
0000
0000
,
0000
0000
0000
0000
,
1001
0000
1000
0000
0100
0010
0000
0010
,
0001
0000
0001
0000
0100
0010
0000
0010
,
1000
0000
1000
0000
0001
0010
0000
0010
,
0100
0000
0100
0000
1000
0010
0000
0010
,
0100
0000
0001
0100
0001
0000
1000
0100
,
1000
0000
0001
0010
0001
0000
1000
0010
,
1000
1000
0001
0001
,
1000
0001
1000
0001
0100
1000
0100
0001
,
1000
0000
0000
0000
1001
0000
0001
0100
,
0000
0010
1000
0100
0010
0000
0001
0100
,
1000
0100
0001
0010
0001
0010
0001
1002
,
0000
1003
0010
0100
0010
0000
1000
0100
,
0010
0001
2000
0000
3001
0000
1001
0001
,
0000
0010
0001
0100
0010
0000
1000
0100
,
0010
0100
0001
0100
1000
0010
1000
1001
,
0000
0011
0000
1100
0000
1000
0010
0100
,
0004
0000
0000
0003
1001
0000
0000
0000
0001
0000
0101
0000
0000
0000
0001
0000
,
0100
0010
1000
0000
0010
1000
0010
0001
,
0010
1000
0010
1000
0001
1002
0000
0000
,
1003
0100
0010
0000
0100
1000
0010
0100
,
0001
0000
0000
0000
1000
0000
0000
0000
0200
0300
0000
0000
0000
0000
0000
0000
1000
0000
0000
0000
1001
0000
0000
0000
0000
0000
0000
0000
0001
0000
0000
0000
,
0100
0010
1000
0001
0001
0010
0100
0010
,
1000
0010
0001
0100
0001
2001
0000
3001
,
0010
0001
0100
0000
0001
0100
1000
0100
,
0001
0000
1001
0000
1000
0100
0010
0100
,
0010
0001
0000
0001
0100
0010
1010
0000
,
1001
0000
1000
0100
1000
0000
0001
0100
,
0001
0000
1000
0010
0001
1000
0100
0001
,
1000
0100
0010
0100
1000
1001
0000
0001
,
0100
0010
1000
0001
0010
0100
0010
1000
,
0010
0001
1000
0010
1000
1001
0000
1100
,
0000
0110
0000
0011
0000
0001
0100
0020
,
0000
1030
1001
0000
1000
0010
0100
0010
,
1000
0001
0001
0000
1000
0100
0010
0001
,
0100
0010
2000
0000
3100
0002
0000
0103
,
0010
0001
1002
0000
1003
2001
0000
3001
,
1002
0000
0103
0000
0001
1001
0000
1000
,
0100
0010
0001
0000
1000
0010
0100
0010
,
0100
0010
1000
0100
0001
0100
0010
0001
,
0100
0010
1000
0001
1000
0001
0100
1000
,
0100
0001
2000
0000
0002
0000
0000
0000
,
0000
0000
0003
3000
1100
0011
0101
1010
1001
0000
0000
0000
0001
0000
0100
0000
,
0010
0000
1000
0100
0010
0001
0100
0000
,
0010
1000
0100
0000
0010
0100
1000
0000
,
0010
0100
0001
1000
0100
1000
0001
0100
,
0001
1000
0010
1000
0100
0001
1000
0010
,
0001
0100
0020
0000
1030
0010
1000
0010
,
0100
0001
0010
0100
0010
0100
0010
0100
,
1000
0001
0100
0101
0000
0110
0000
1010
,
0000
1000
2002
3003
1000
0010
0100
0001
,
0010
0010
0001
0001
0100
0010
1000
0100
,
0001
0100
1000
0010
0001
0010
1000
0100
,
1000
1000
0001
0001
0100
0010
0100
1000
,
0001
0010
1000
0100
0210
0000
0310
0001
,
0100
1000
0100
0001
0010
1000
0010
0001
,
2002
3003
1000
0100
0010
0001
0100
0010
,
0100
0010
0100
0010
0100
0010
1001
1001
,
1001
0000
0220
0000
0000
0000
0330
0002
,
1003
0001
1002
0013
2001
3010
0110
0110
,
0110
1000
0001
2001
3100
0011
2100
0000
,
3001
1000
0001
0001
1000
0001
0100
0010
,
1000
0001
0022
0033
0000
2200
3300
0000
,
0202
0303
0001
0100
0010
0000
2010
0001
,
0000
3001
1000
0000
0100
1000
0010
0000
,
0010
0000
1002
0000
0013
0000
0001
0010
,
0001
1000
2020
3030
0000
0202
0303
0000
,
2200
3300
0001
0000
1000
0001
1002
0000
,
0103
2010
3001
0012
,
1003
0000
0001
1000
0001
1000
0010
0001
,
0010
1000
0001
0000
0000
0000
1001
0001
,
1000
0100
0000
0010
0001
0100
0010
1000
,
0100
0010
0001
0100
1000
0100
0001
0000
,
0010
0012
0000
1003
0010
0100
0001
0000
,
1000
0100
0020
0000
0031
0000
1000
0000
,
0001
1002
0000
0103
0001
1000
0001
0010
,
1000
0010
0001
0100
1000
0100
0120
0000
,
1030
1001
0000
1010
0000
0101
0000
0001
,
0010
0000
0100
0000
4000
0000
0000
3000
1001
0000
0000
0000
0001
0000
0201
0000
,
0000
0310
1000
0001
0010
0001
0100
0010
,
1000
0100
0001
0100
1000
0010
1000
2001
,
0000
0000
3010
0100
0001
0000
1000
0100
,
0010
0000
0000
0000
0001
0000
0000
0000
0100
0000
0000
0000
0010
0000
0000
0000
2000
3000
0000
0000
0000
0000
0000
0000
0001
0000
0000
0000
1002
0000
0000
0000
,
0000
1003
0100
0010
0001
0100
0010
1000
,
0010
1000
0010
1000
0100
0010
0001
2001
,
0000
3001
0010
0001
0100
0000
0001
0100
,
1000
0100
0001
0000
1000
0100
0010
0001
,
0100
0010
1000
0100
2000
3000
0010
0200
,
0300
0001
2000
3000
1001
0000
0001
0010
,
1000
0010
0001
0000
0001
0100
1000
0100
,
0002
0000
0013
0100
2000
0000
3001
1001
,
0000
1000
0010
0100
0102
0000
1003
2100
,
0000
3010
0100
0001
0010
0001
1000
2001
,
0000
3001
0100
0010
1000
0100
0001
0100
,
1000
0100
0010
0000
1001
0000
0001
0100
,
1000
0100
0010
1000
0200
0300
0010
0002
,
0003
1000
0010
0100
0002
0000
0103
2000
,
0000
3100
0010
1000
2001
0000
3001
1002
,
0000
1003
2001
0000
3100
0000
1000
1002
,
0000
1003
0010
0100
0001
1000
0100
0000
,
1000
0100
0001
0100
1000
0010
0100
0010
,
0001
0010
1000
0100
0010
0001
0000
1000
,
0010
0100
0002
0000
0000
0000
0000
0000
,
0000
0000
0000
0000
,
0000
0003
0000
0000
;

//---------------dance-single - ----------------
#NOTEDATA:;
#CHARTNAME:;
#STEPSTYPE:dance-single;
#DESCRIPTION:;
#CHARTSTYLE:;
#DIFFICULTY:Easy;
#METER:13;
#RADARVALUES:0.641801,0.999605,0.421915,0.664125,0.007813,575.000000,521.000000,54.000000,85.000000,0.000000,0.000000,2.000000,0.000000,0.000000,0.641801,0.999605,0.421915,0.664125,0.007813,575.000000,521.000000,54.000000,85.000000,0.000000,0.000000,2.000000,0.000000,0.000000;
#CREDIT:;
#DISPLAYBPM:114.000000:228.000000;
#NOTES:
0000
0000
0000
0000
,
0000
0000
0000
0000
,
0000
0000
0000
0000
,
0000
0000
0000
0000
,
0000
0000
0000
0000
,
0000
0000
0000
0000
,
0000
0000
0000
0000
,
0000
0000
0000
0000
,
1000
0000
0100
0000
0010
0002
0000
1003
,
0000
0000
0001
0000
0100
0020
0000
1030
,
0000
0000
0001
0000
1000
0200
0000
0310
,
0000
0000
0001
0000
0100
0020
0000
1030
,
0000
0001
0100
0010
,
1000
0001
0100
0010
,
1000
1000
0001
0001
,
1000
0000
0100
0000
0010
0001
0100
0010
,
1000
0000
0000
0000
1001
0000
0001
0100
,
0000
0010
1000
0000
0001
0000
0010
0100
,
1000
0000
0002
0203
0320
0230
0302
2000
,
0000
3003
1000
0100
1000
0000
0001
0000
,
0100
0010
2000
0000
3001
0000
1000
0200
,
0000
0310
0001
0000
0101
0000
0110
0000
,
1010
0000
1001
0000
0001
0000
0010
0200
,
0000
0310
0001
1000
0001
0000
1000
0010
,
4000
3000
1001
0000
0100
0010
0000
0010
,
0100
0000
1001
0000
0001
1000
0100
0000
,
2000
3020
0230
0320
2030
0002
0000
3003
,
0001
0100
0001
0000
1000
0000
0100
0010
,
0001
0000
1000
0000
0001
0100
0000
0100
,
0010
0000
1000
0001
1000
0000
0110
0000
,
1001
0000
1000
0000
0100
0020
0000
0130
,
1000
0001
0100
0000
0001
0100
0010
1000
,
0001
1001
0100
1001
,
0110
0000
0001
1100
,
0011
0000
0001
0100
0001
0000
1000
0010
,
1000
0000
0001
0000
0020
0000
0130
0020
,
0000
0130
1000
0000
0010
0200
0000
0301
,
1000
1100
0110
0011
,
1001
0000
1000
0000
0010
0200
0000
0310
,
1000
0001
1000
0000
0100
0000
0010
0002
,
0000
0103
0020
0000
1030
0000
0010
0000
,
0100
0001
1000
0000
0001
0000
2000
3200
,
0320
0032
2003
0000
3001
2000
0000
3001
,
1000
0010
0200
0000
0310
0200
0000
0310
,
0200
0000
0301
0000
0010
0200
0000
0310
,
0001
1000
0001
0000
1000
0000
0010
0100
,
0010
0100
0001
0000
1000
0000
0010
1000
,
0100
0000
0010
0000
0001
0000
1000
0010
,
0100
0001
2000
0000
0002
0000
0000
0000
,
0000
0000
3003
0000
0100
0100
0100
0100
1001
0000
0000
0000
0001
0000
0010
0000
,
0001
0000
1000
0000
0001
0100
0001
0000
,
1000
0100
1000
0000
0001
0010
0001
0000
,
1000
0010
1000
0000
0001
0000
1000
0000
,
0100
0000
0010
0100
1000
0000
0010
0100
,
0001
0000
2000
0000
3001
0010
0001
0000
,
0100
0010
1000
0000
0010
1000
0010
0000
,
1000
0100
0010
0000
0100
0000
0010
0000
,
0100
0000
2002
3003
1000
0000
0010
0000
,
0001
0010
1000
0000
0100
0010
0001
0000
,
0100
0010
1000
0000
0001
1000
0100
0000
,
0001
0100
1000
0000
0010
0100
0001
0000
,
0010
0001
0100
0010
2000
0000
3010
0100
,
0001
0000
0010
0100
1000
0000
0010
1000
,
0200
0000
0301
0000
0100
1000
0010
0000
,
0100
0000
0010
0000
0100
0000
1001
1001
,
1001
0000
2002
0000
0000
0000
3003
0001
,
1000
1000
2100
3001
0102
1003
1001
1001
,
1001
0001
0100
0120
1030
2010
0002
3000
,
1003
0000
0001
1000
0001
1000
0100
0000
,
0010
0000
1001
0000
0000
0110
0000
0000
,
1001
0001
0100
2010
,
0000
3001
0000
0000
0010
0001
0100
0000
,
0100
0000
1002
0000
1003
0000
0001
1000
,
0001
0000
1001
0000
0000
0110
0000
0000
,
1001
1000
0100
0012
,
0103
2020
3030
0202
,
0303
0000
0001
0000
0100
0000
0010
1000
,
0100
0010
0001
0000
0000
0000
1001
0000
,
1000
0100
0000
0100
0010
0000
0001
0000
,
0100
0000
0001
0100
0010
1000
0001
0000
,
0010
0200
0000
0000
1300
0001
1000
0000
,
0001
0100
0020
0000
1030
0000
0100
0000
,
0010
0002
0000
0103
0010
0000
1010
0000
,
1100
0101
0011
2001
,
3001
2000
0000
3010
0100
0010
1000
0000
,
0001
0010
0004
0003
1001
0000
0001
0200
,
0000
0310
2000
0000
3001
0000
1000
0000
,
0100
0010
0001
0000
2000
3020
0230
0002
,
0000
0303
0001
1000
0001
0000
0010
0001
,
0200
0000
0310
0000
1000
0000
0001
0020
,
0000
0130
1000
0000
0001
0000
0101
0000
,
1100
0000
0101
0000
1000
0000
0100
0020
,
0000
0130
1000
0001
1000
0000
0001
0100
,
0010
1000
0001
0000
1000
0000
0100
0010
,
0000
0100
0010
0000
0001
0000
0100
0010
,
0000
0010
2000
3000
1001
0000
0001
0010
,
0100
0000
0100
0000
1000
0010
0100
0000
,
0002
0000
0013
0001
2000
0000
3100
0020
,
0000
0031
0100
0010
2000
0000
3001
2000
,
0000
3100
0010
0000
0001
0000
0100
0020
,
0000
0130
0001
1000
0001
0000
0010
0100
,
0010
0100
1000
0000
1001
0000
0001
0100
,
0010
0100
0001
0000
1000
0000
0100
0010
,
0000
0010
0001
0000
2000
0000
3001
2000
,
0000
3001
1000
0010
0200
0000
0310
0200
,
0000
0310
0200
0000
0301
0000
1000
0200
,
0000
0310
0100
0010
0001
0000
1000
0000
,
0010
1000
0100
0000
0010
0000
0001
0000
,
0100
0010
1000
0000
0100
0010
0000
0010
,
0001
2000
0000
0000
,
0000
0000
0000
0000
,
0000
3000
0000
0000
;

//---------------dance-single - ----------------
#NOTEDATA:;
#CHARTNAME:;
#STEPSTYPE:dance-single;
#DESCRIPTION:;
#CHARTSTYLE:;
#DIFFICULTY:Beginner;
#METER:10;
#RADARVALUES:0.409637,0.521533,0.226584,0.335969,0.000000,367.000000,338.000000,29.000000,43.000000,0.000000,0.000000,0.000000,0.000000,0.000000,0.409637,0.521533,0.226584,0.335969,0.000000,367.000000,338.000000,29.000000,43.000000,0.000000,0.000000,0.000000,0.000000,0.000000;
#CREDIT:;
#DISPLAYBPM:114.000000:228.000000;
#NOTES:
0000
0000
0000
0000
,
0000
0000
0000
0000
,
0000
0000
0000
0000
,
0000
0000
0000
0000
,
0000
0000
0000
0000
,
0000
0000
0000
0000
,
0000
0000
0000
0000
,
0000
0000
0000
0000
,
1000
0001
0010
0000
,
0001
1000
0010
0000
,
1000
0001
0100
0000
,
0001
1000
0100
0000
,
1000
0000
1000
0000
,
0001
0000
0001
0000
,
1000
0001
1000
0001
,
0100
0100
0100
0100
,
0010
0000
0000
0000
1001
0000
0000
1000
,
0000
0100
0010
0100
,
1000
0000
0001
0000
0100
0000
0000
0200
,
0000
0301
0100
0010
,
1000
0000
0001
0000
1000
0000
0000
0100
,
0000
1000
0001
0100
,
1000
0000
0100
0000
0001
0000
0000
0020
,
0000
0031
0100
0010
,
1000
0000
1001
0000
0000
0110
0000
0000
,
0110
1001
1000
0100
,
0010
0000
0001
0000
0000
0002
0000
0000
,
1003
0001
0100
0010
,
1000
0000
0001
0000
0000
1000
0000
0000
,
0100
1000
0010
0001
,
0010
0000
1000
0000
0000
0200
0000
0000
,
0310
0001
1000
0020
,
0030
1000
0100
0010
,
0001
0000
0010
0001
,
1000
0001
0001
1000
,
1000
0000
0010
0000
0100
0000
0000
0100
,
0000
0000
0001
0000
0000
1000
0000
0000
,
0001
0010
1000
0010
,
0001
0000
0100
0000
0000
0020
0000
0000
,
1030
0100
0010
0001
,
0000
0000
2000
0000
3000
0010
0000
0000
,
0100
0001
1000
0100
,
1000
0000
0002
0000
0003
0200
0000
0300
,
0010
0000
2000
0000
3000
0200
0000
0300
,
0020
0000
0031
0000
0000
1000
0000
0000
,
0001
0100
0010
1000
,
0100
0010
0001
1000
,
0001
0100
0100
0100
,
0100
2002
0000
0000
,
0000
3003
1000
0100
,
0010
0001
0001
0100
,
0010
1000
0010
0100
,
0001
1000
0100
0010
,
0100
1000
0010
0100
,
0001
1000
0100
0010
,
0001
0100
0010
1000
,
0100
0010
0010
0010
,
0010
0000
2002
3003
1000
0000
0010
0000
,
0001
0010
1000
0100
,
0010
0001
1000
0100
,
0001
0100
1000
0010
,
0100
0001
0010
0001
,
0100
0010
1000
0100
,
0020
0031
0100
0010
,
0010
0010
0010
2002
,
3003
2002
0000
3003
,
0000
0110
0110
2002
,
3003
0000
0000
0110
0000
2002
3003
0000
,
1000
0001
1000
0001
,
1000
0000
1001
0000
0000
0110
0000
0000
,
1001
0000
1000
0220
,
0000
0330
0000
0000
0001
0000
0010
0000
,
0100
1000
0010
0100
,
0001
0000
1001
0000
0000
0110
0000
0000
,
1001
0000
0001
0110
,
0000
1001
0000
1001
,
0000
0100
0100
0100
,
0100
0010
0000
1001
,
0000
0001
0000
0000
0010
0000
0001
0000
,
1000
0010
0100
0001
,
0000
2000
0000
0000
3100
0000
0010
0000
,
0100
1000
0001
0100
,
0000
0010
0000
0000
1000
0000
0010
0000
,
0001
0010
1000
0100
,
0000
0100
0000
0000
0100
0000
0010
0000
,
0001
0000
1000
0000
1001
0000
0000
0002
,
0000
0003
2000
0000
3001
0000
0100
0000
,
0010
0000
1000
0000
0100
0000
0000
0020
,
0000
0031
0010
0100
,
1000
0000
0001
0000
0100
0000
0000
0010
,
0000
1000
0000
1001
,
1001
0000
1001
0000
0001
0000
0000
0020
,
0000
0130
1000
0001
,
0200
0000
0300
0000
0001
0000
0000
0001
,
0000
0000
1000
0000
0100
0000
0000
0100
,
0000
0010
0001
0100
,
0010
0010
1000
0010
,
0100
0000
0001
0000
1000
0000
0000
0100
,
0000
0000
0010
0000
0002
0000
0003
2000
,
0000
3000
0001
0000
0100
0000
0000
0020
,
0000
0130
0001
0010
,
0100
0000
1000
0000
0001
0000
0000
0200
,
0000
0000
0310
0000
1000
0000
0000
0001
,
0000
0000
0001
0000
2000
0000
3000
0200
,
0000
0300
0010
0000
0002
0000
0003
0200
,
0000
0300
0020
0000
1030
0000
0000
0001
,
0000
1000
0100
0010
,
0001
0100
0010
1000
,
0001
0010
0001
0000
,
1000
0020
0000
0000
,
0000
0000
0000
0000
,
0000
0030
0000
0000
;
