#TITLE:Veronica Sawyer Smokes;
#SUBTITLE:;
#ARTIST:AFI;
#TITLETRANSLIT:;
#SUBTITLETRANSLIT:;
#ARTISTTRANSLIT:;
#GENRE:Alternative Rock;
#CREDIT:;
#BANNER:Veronica Sawyer Smokes.png;
#BACKGROUND:Veronica Sawyer Smokes-bg.png;
#LYRICSPATH:;
#CDTITLE:cdtitle.png;
#MUSIC:Veronica Sawyer Smokes.ogg;
#OFFSET:-0.312727;
#SAMPLESTART:44.868217;
#SAMPLELENGTH:17.693813;
#SELECTABLE:YES;
#BPMS:0.000000=215.100006
,112.000000=214.884995
,128.000000=217.029999
,160.000000=217.024994
,224.000000=215.059998
,288.000000=217.100006
,315.000000=217.050003
,377.000000=217.500000
;
#STOPS:312.000000=1.381000
;
#BGCHANGES:;
#KEYSOUNDS:;
#ATTACKS:;

//---------------dance-single - ----------------
#NOTES:
     dance-single:
     :
     Challenge:
     13:
     0.637187,0.777969,0.134888,0.152874,0.017985,496.000000,481.000000,15.000000,17.000000,0.000000,0.000000,0.637187,0.777969,0.134888,0.152874,0.017985,496.000000,481.000000,15.000000,17.000000,0.000000,0.000000:
// measure 0
0000
0000
0000
0000
,  // measure 1
0000
0000
0000
0000
,  // measure 2
0000
0000
0000
0000
,  // measure 3
0000
0000
0000
0000
,  // measure 4
0000
0000
0000
0000
,  // measure 5
0000
0000
0000
0000
,  // measure 6
0000
0000
0000
0000
,  // measure 7
0000
0000
0000
0000
,  // measure 8
1000
0000
1000
0000
0010
1000
0001
1000
,  // measure 9
0000
0001
0010
0000
0001
0010
0001
0000
,  // measure 10
1000
0000
1000
0000
0010
1000
0001
0010
,  // measure 11
0000
0010
0100
0000
0010
0001
1000
0001
,  // measure 12
0100
0110
0101
0001
,  // measure 13
0021
0000
0000
0230
0000
0000
1300
0000
,  // measure 14
0010
0000
1000
0000
0010
1000
0001
0100
,  // measure 15
0000
0010
0110
0000
0010
0100
0010
0100
,  // measure 16
0001
0000
0001
0000
1000
0000
0001
0010
,  // measure 17
0000
0010
0100
0000
1000
0000
0010
0000
,  // measure 18
0100
0000
0100
0000
0010
1000
0000
0001
,  // measure 19
0000
1000
0100
0000
0100
0000
0010
0000
,  // measure 20
0001
0000
0001
0000
1000
0000
0001
0100
,  // measure 21
0000
0100
0010
0000
1000
0000
1000
0000
,  // measure 22
0001
0000
0100
0000
1000
0000
0100
0001
,  // measure 23
0000
0001
1000
0000
0100
0000
0010
0000
,  // measure 24
0001
0000
0001
0000
0100
0000
0010
1000
,  // measure 25
0000
1000
0100
0000
0010
0000
0100
0000
,  // measure 26
1000
0000
1000
0000
0010
0000
0100
0001
,  // measure 27
0000
0001
0100
0000
0010
0000
0010
0000
,  // measure 28
1000
0100
0001
0100
,  // measure 29
1000
0010
0000
0100
0001
0000
0010
0000
,  // measure 30
0100
1000
0100
1000
0100
1000
0100
1000
,  // measure 31
0001
0000
1001
0000
1000
0010
0100
0001
,  // measure 32
1000
0000
0010
1000
0000
1000
1001
0000
,  // measure 33
1000
0000
0100
0000
0010
0100
0010
0000
,  // measure 34
0001
0100
0010
2001
,  // measure 35
0000
0000
3100
0000
1000
0010
1000
0000
,  // measure 36
0001
0000
0100
0001
0000
0001
1001
0000
,  // measure 37
1000
0000
0010
0000
1000
0001
0010
0000
,  // measure 38
0100
0100
0010
0010
,  // measure 39
0001
0100
0010
1000
0100
0010
0100
1000
,  // measure 40
0001
0000
0001
0000
1000
0100
1000
0001
,  // measure 41
0000
0001
1000
0000
0001
0100
0001
0000
,  // measure 42
1000
0000
1000
0000
0001
0100
0001
1000
,  // measure 43
0000
1000
0001
0000
1000
0100
1000
0000
,  // measure 44
0001
0010
0100
0000
1000
0100
0010
0000
,  // measure 45
0001
0100
0010
0000
1000
0010
0100
0000
,  // measure 46
0001
0100
0001
0100
0010
1000
0010
1000
,  // measure 47
0001
1000
0001
1000
0100
0010
0001
0100
,  // measure 48
0010
0000
0010
0000
0100
0010
1000
0001
,  // measure 49
0000
0001
0010
0000
0001
1000
0010
0000
,  // measure 50
0100
0000
0100
0000
0010
1000
0001
0010
,  // measure 51
0000
0010
0100
0000
1000
0001
1000
0000
,  // measure 52
0010
0100
0001
0000
0100
0010
1000
0000
,  // measure 53
0100
0010
0001
0000
0010
0100
1000
0000
,  // measure 54
0001
0010
0001
0010
0100
1000
0100
1000
,  // measure 55
0001
0100
0010
1000
0100
1000
0001
0100
,  // measure 56
0010
0000
0010
0000
1000
0010
0100
0002
,  // measure 57
0000
0013
0100
0000
0010
0000
0001
0000
,  // measure 58
1000
0000
1000
0000
0001
0100
0010
2000
,  // measure 59
0000
3100
1000
0000
0100
0000
1000
0000
,  // measure 60
0001
0100
0001
1000
0010
1000
0001
0010
,  // measure 61
0001
1000
0010
0100
0010
0001
0020
0000
,  // measure 62
1030
0100
0001
0100
,  // measure 63
1000
0100
0010
0001
0100
0010
1010
0000
,  // measure 64
0002
0000
0013
0000
0002
0000
1003
0200
,  // measure 65
0000
0310
0100
0020
0000
0031
0100
0000
,  // measure 66
0020
0000
1030
0000
0002
0000
1003
0020
,  // measure 67
0000
0130
0001
0000
0010
0000
0100
0000
,  // measure 68
1000
1000
0100
0100
,  // measure 69
0010
0010
0001
0001
,  // measure 70
1000
0010
1000
0010
0100
0001
0100
0001
,  // measure 71
1000
0100
0010
0001
0100
0010
1000
0100
,  // measure 72
0010
0000
0001
0100
0000
0010
1010
0000
,  // measure 73
1000
0000
0100
0000
0001
0100
0001
0000
,  // measure 74
0100
1000
0010
0110
,  // measure 75
0002
1003
0200
1300
,  // measure 76
0002
0000
1003
0100
0000
0100
0110
0000
,  // measure 77
0010
0001
1000
0000
0001
0100
0010
1000
,  // measure 78
1001
1001
0000
1000
,  // measure 79
1000
0000
0001
0010
0100
1000
0000
1000
,  // measure 80
0010
0000
0100
0001
1000
0000
0001
0000
,  // measure 81
0001
0000
1000
0010
0100
0001
0000
0001
,  // measure 82
0010
0000
0100
1000
0001
0000
0010
0001
,  // measure 83
0100
0000
0001
0100
1000
0000
1000
0100
,  // measure 84
0001
0000
0100
0001
0010
0000
0001
0100
,  // measure 85
0001
0100
0010
0100
0010
0100
1000
0100
,  // measure 86
1000
0100
0010
0100
0001
1000
0100
0000
,  // measure 87
0100
0000
0010
0100
0010
0001
0000
0001
,  // measure 88
0100
0000
0010
1000
0100
0000
0010
0000
,  // measure 89
0010
0000
0001
0010
0100
1000
0000
1000
,  // measure 90
0010
0000
1000
0001
0010
0000
0100
1000
,  // measure 91
0010
0000
1000
0010
0001
0000
0001
0010
,  // measure 92
1000
0000
0010
1000
0100
0000
0010
0001
,  // measure 93
0010
0001
1000
0010
1000
0010
0100
0000
,  // measure 94
1001
0000
0000
0001
1000
0001
1000
0001
1000
0200
0000
0000
,  // measure 95
0000
0000
0000
0000
,  // measure 96
0000
0300
0000
0000
0000
0000
0000
0000
;

//---------------dance-single - ----------------
#NOTES:
     dance-single:
     :
     Beginner:
     2:
     0.134888,0.216103,0.017985,0.170859,0.000000,105.000000,103.000000,2.000000,19.000000,0.000000,0.000000,0.134888,0.216103,0.017985,0.170859,0.000000,105.000000,103.000000,2.000000,19.000000,0.000000,0.000000:
0000
0000
0000
0000
,
0000
0000
0000
0000
,
0000
0000
0000
0000
,
0000
0000
0000
0000
,
0000
0000
0000
0000
,
0000
0000
0000
0000
,
0000
0000
0000
0000
,
0000
0000
0000
0000
,
1000
0000
0000
0000
,
1000
0000
0000
0000
,
0001
0000
0000
0000
,
0001
0000
0000
0000
,
0100
0000
0000
0000
,
0010
0000
0000
0000
,
1000
0000
0000
0000
,
0001
0000
0000
0000
,
2000
0000
3000
0000
,
1000
0000
0000
0000
,
0100
0000
0100
0000
,
0100
0000
0000
0000
,
0010
0000
0000
0000
,
0010
0000
0000
0000
,
0001
0000
0001
0000
,
0001
0000
0000
0000
,
0001
0000
0000
0000
,
0001
0000
0000
0000
,
0100
0000
0100
0000
,
0100
0000
0000
0000
,
0010
0000
0000
0000
,
0010
0000
0000
0000
,
1000
0000
1000
0000
,
1000
0000
1000
0000
,
1000
0000
0000
0000
,
0001
0000
0001
0000
,
1000
0000
2000
0000
,
0000
0000
3000
0000
,
0100
0000
0000
0000
,
1000
0000
1000
0000
,
0020
0000
0030
0000
,
0200
0000
0300
0000
,
0001
0000
0002
0000
,
0000
0000
0003
0000
,
1000
0000
2000
0000
,
0000
0000
3000
0000
,
0010
0000
0000
0000
,
1000
0000
0000
0000
,
0100
0000
0010
0000
,
0100
0000
0000
0000
,
1000
0000
2000
0000
,
0000
0000
3000
0000
,
0010
0000
0020
0000
,
0000
0000
0030
0000
,
1000
0000
0000
0000
,
0001
0000
0000
0000
,
0010
0000
0100
0000
,
0010
0000
0000
0000
,
0001
0000
0000
0000
,
0100
0000
0000
0000
,
0010
0000
0000
0000
,
1000
0000
0000
0000
,
0001
0000
0000
0000
,
0010
0000
0000
0000
,
0001
0000
0000
0000
,
0100
0000
0000
0000
,
0020
0000
0030
0000
,
2000
0000
3000
0000
,
2000
0000
3000
0000
,
0200
0000
0300
0000
,
1000
0000
0000
0000
,
0001
0000
0000
0000
,
0100
0000
0010
0000
,
0100
0000
0000
0000
,
1001
0000
0000
0000
,
1000
0000
1000
0000
,
0001
0000
0001
0000
,
0020
0000
0030
0000
,
0100
0000
0000
0000
,
1000
0000
0001
0000
,
1000
0000
0000
1000
,
0000
2000
0000
0000
,
0000
3000
0000
0001
,
0000
0002
0000
0000
,
0000
0003
0000
0010
,
0000
0000
0000
0001
,
0000
0000
0000
0100
,
0000
0010
0000
0100
,
0000
0000
0000
0001
,
0000
0002
0000
0000
,
0000
0003
0000
0010
,
0000
0020
0000
0000
,
0000
0030
0000
0001
,
0000
0000
0000
1000
,
0000
0000
0000
0010
,
0000
0100
0000
0010
,
0000
0000
0000
2002
,
0000
0000
0000
0000
,
0000
3003
0000
0000
0000
0000
0000
0000
;

//---------------dance-single - ----------------
#NOTES:
     dance-single:
     :
     Hard:
     11:
     0.501014,0.561867,0.125896,0.314740,0.000000,390.000000,376.000000,14.000000,35.000000,0.000000,0.000000,0.501014,0.561867,0.125896,0.314740,0.000000,390.000000,376.000000,14.000000,35.000000,0.000000,0.000000:
0000
0000
0000
0000
,
0000
0000
0000
0000
,
0000
0000
0000
0000
,
0000
0000
0000
0000
,
0000
0000
0000
0000
,
0000
0000
0000
0000
,
0000
0000
0000
0000
,
0000
0000
0000
0000
,
0001
0000
0001
0000
1000
0001
0000
0200
,
0000
0310
1000
0000
0010
1000
0010
0000
,
1000
0000
1000
0000
0001
0010
0000
0200
,
0000
0310
0001
0000
1000
0001
1000
0000
,
0001
2000
3200
0000
,
0302
0000
0000
0203
0000
0000
2300
0000
,
3001
0000
0100
0000
0100
0000
0010
1000
,
0000
1000
0100
0000
1000
0001
1000
0001
,
1000
0000
1000
0000
0001
0000
1000
0010
,
0000
0010
0100
0000
0001
0000
0010
0000
,
0100
0000
0100
0000
0010
0001
0000
1000
,
0000
0001
0100
0000
0100
0000
0010
0000
,
1000
0000
1000
0000
0001
0000
1000
0100
,
0000
0100
0010
0000
0001
0000
0001
0000
,
1000
0000
0100
0000
0010
0000
0100
1000
,
0000
1000
0001
0000
0100
0000
0010
0000
,
1000
0000
1000
0000
0100
0000
0010
0001
,
0000
0001
0100
0000
0010
0000
0100
0000
,
0001
0000
0001
0000
0010
0000
0100
1000
,
0000
1000
0100
0000
0010
0000
0010
0000
,
0001
0100
1000
0100
,
0001
0010
0000
0100
1000
0000
0010
0000
,
0100
1000
0100
0001
,
1000
1000
0001
0001
,
1001
0000
0000
1100
0000
0000
0011
0000
,
0001
0010
0001
0100
,
0020
1000
1030
2001
,
0000
3001
0010
0001
,
1001
0000
0000
0101
0000
0000
1010
0000
,
1000
0001
0100
0001
,
1000
1000
0100
0100
,
0010
0010
0001
0001
,
0100
0000
0010
2000
0000
0000
3010
0000
,
1000
0000
0001
0000
1000
0100
1000
0000
,
0100
0000
0010
0002
0000
0000
0013
0000
,
0001
0000
1000
0000
0001
0100
0001
0000
,
1000
0010
1000
0010
,
0100
0001
0100
0001
,
1000
0100
0010
0001
,
0100
0000
0100
0000
0001
1000
0001
1000
,
0001
0000
0010
0200
0000
0000
0310
0000
,
0001
0000
1000
0000
0010
0100
0010
0000
,
2000
0000
3001
0010
,
0001
0000
0100
0000
0010
1000
0010
0000
,
1000
0100
1000
0100
,
0010
0001
0010
0001
,
0100
0010
1000
0100
,
0010
0000
0001
0000
1000
0010
1000
0010
,
1000
0000
0001
0000
1000
0000
0100
0020
,
0000
0130
0001
0100
,
1000
0000
0001
0000
1000
0000
0010
0200
,
0000
0301
1000
0001
,
1000
0100
0000
1000
0100
0000
0010
0001
,
0000
0010
0001
0000
1000
0000
1000
0000
,
0001
0010
1000
0010
,
0001
0100
0000
0010
0000
0100
0001
0000
,
2000
0000
3100
0000
0200
0000
0310
0002
,
0000
1003
0001
2000
0000
3010
0100
0000
,
0002
0000
1003
0000
2000
0000
3100
0020
,
0000
0130
1000
0000
0100
0000
0010
0000
,
0001
0001
0100
0100
,
0010
0010
1000
1000
,
0010
1000
0100
0001
,
0100
1000
0010
1000
,
1100
0000
0000
0101
0000
0000
0011
0000
,
0020
0031
2000
3001
,
0020
0032
0203
0310
,
2000
3001
0002
1003
,
1100
0000
0000
1010
0000
0000
0011
0000
,
0010
0000
0001
0000
0100
0010
0100
0010
,
0100
0110
0000
0001
,
1000
0200
0000
0000
0310
0000
0001
0000
,
1000
0000
0100
0010
0100
0000
1000
0000
,
0001
0200
0000
0000
0310
0000
1000
0000
,
0001
0000
0100
0010
0100
0000
0001
0000
,
0010
0001
0010
0100
,
1000
0100
1000
0010
,
0001
0010
1000
0100
,
0100
0000
1000
0001
1000
0001
1000
0000
,
0100
0020
0000
0000
0130
0000
1000
0000
,
0001
0000
0100
0010
0100
0000
0002
0000
,
0000
1003
0010
0100
,
0001
0000
0010
0100
0010
0000
0001
0000
,
0100
0001
0100
0010
,
1000
0010
1000
0100
,
0001
0100
1000
0010
,
0100
0000
0001
1000
0001
2000
0002
0000
,
0000
0000
0000
0000
,
0000
3003
0000
0000
0000
0000
0000
0000
;

//---------------dance-single - ----------------
#NOTES:
     dance-single:
     :
     Medium:
     8:
     0.380257,0.432205,0.080933,0.494591,0.000000,296.000000,287.000000,9.000000,55.000000,0.000000,0.000000,0.380257,0.432205,0.080933,0.494591,0.000000,296.000000,287.000000,9.000000,55.000000,0.000000,0.000000:
0000
0000
0000
0000
,
0000
0000
0000
0000
,
0000
0000
0000
0000
,
0000
0000
0000
0000
,
0000
0000
0000
0000
,
0000
0000
0000
0000
,
0000
0000
0000
0000
,
0000
0000
0000
0000
,
1000
0000
0001
0000
1000
0000
0001
0200
,
0000
0310
0010
0000
,
1000
0000
0001
0000
1000
0000
0001
0020
,
0000
0130
0010
0001
,
1000
0001
0100
0000
,
0020
0000
0000
2030
0000
0000
3001
0000
,
0010
0000
0100
0000
0010
0000
0000
0001
,
0000
0100
0100
0010
,
1000
0000
2000
0000
0000
3000
0001
2000
,
0000
3100
0010
0100
,
1000
0000
1000
0000
0001
0100
0000
0020
,
0000
1030
0010
0100
,
0001
0000
0001
0000
1000
0000
0001
0020
,
0000
0031
1000
0001
,
0100
0000
0010
0000
0100
0000
0010
2000
,
0000
3000
1001
0000
,
0001
0000
0010
0000
0001
0000
0100
0020
,
0000
0130
1000
0100
,
0001
0000
0001
0000
1000
0000
0100
0020
,
0000
0030
0001
0001
,
1000
0010
0100
0010
,
1000
0002
0000
0000
1003
0000
0001
0000
,
1000
0010
0001
0010
,
1000
0000
0110
0000
,
0001
0000
0000
1000
0000
0000
1001
0000
,
0001
1000
0100
0010
,
0002
0000
0103
0110
,
0000
0010
1000
0001
,
1000
0000
0000
0001
0000
0000
1001
0000
,
1000
0100
0010
0001
,
0200
0000
0320
0000
,
2030
0000
3002
0000
,
0203
0000
0000
0320
0000
0000
1000
0000
,
0000
1030
0010
1000
,
0200
0000
0000
0320
0000
0000
0001
0000
,
0000
0031
0010
0001
,
0100
0010
2000
0000
,
3010
0100
0002
0000
,
1003
0100
0010
0100
,
1000
0001
1000
0000
,
0020
0000
0000
0230
0000
0000
0001
0000
,
0000
0301
1000
0100
,
0020
0000
0230
1000
,
0000
1300
0010
0100
,
0001
0010
0100
0000
,
1000
0100
0010
0000
,
0001
0100
0010
1000
,
0100
0010
0001
0000
,
1000
0000
0001
0000
1000
0000
0001
0020
,
0000
0031
0001
1000
,
0001
0000
0100
0000
0001
0000
0100
0020
,
0000
1030
0001
0000
,
2000
0000
0000
3200
0000
0000
0302
0000
,
0000
0203
0000
0000
1300
0000
0010
0000
,
1000
0100
0010
0001
,
0100
0000
0010
1000
0000
0002
0000
0000
,
0023
0000
0000
0000
0032
0000
0000
0203
,
0000
0000
0000
0320
0000
0000
0130
0000
,
2000
0000
0000
0000
3200
0000
0000
0302
,
0000
1003
0001
0010
,
0001
0001
0100
0100
,
0010
0010
1000
1000
,
0100
0010
0100
1000
,
0001
0100
0010
1000
,
0001
0000
0000
1000
0000
0000
1001
0000
,
0002
0000
2003
0000
,
3010
1000
0100
0000
,
0020
0000
0032
0000
,
0103
0000
0000
0010
0000
0000
1001
0000
,
0001
1000
0010
1000
,
0100
0110
0000
2000
,
0000
3200
0000
0000
0010
0000
0000
0000
,
0310
0001
1000
0020
,
0000
0230
0000
0000
0010
0000
0000
0000
,
0310
1000
0001
0010
,
0001
0100
0000
1000
,
0100
0001
0000
0010
,
0001
1000
0010
1000
,
0100
0010
0000
0002
,
0000
2003
0000
0000
0001
0000
0000
0000
,
3001
0100
0010
2000
,
0000
3200
0010
0000
,
0310
0100
1000
0010
,
1000
0100
0000
0001
,
0100
1000
0000
0010
,
1000
0100
0010
0001
,
0100
0010
1000
2002
,
0000
0000
0000
0000
,
0000
3003
0000
0000
0000
0000
0000
0000
;

//---------------dance-single - ----------------
#NOTES:
     dance-single:
     :
     Easy:
     6:
     0.304462,0.388985,0.053955,0.449628,0.000000,237.000000,231.000000,6.000000,50.000000,0.000000,0.000000,0.304462,0.388985,0.053955,0.449628,0.000000,237.000000,231.000000,6.000000,50.000000,0.000000,0.000000:
0000
0000
0000
0000
,
0000
0000
0000
0000
,
0000
0000
0000
0000
,
0000
0000
0000
0000
,
0000
0000
0000
0000
,
0000
0000
0000
0000
,
0000
0000
0000
0000
,
0000
0000
0000
0000
,
1000
0001
1000
0000
,
0100
0000
0010
0000
,
0001
1000
0001
0000
,
0100
0000
0010
0100
,
0000
0100
0100
0000
,
0010
0000
1000
0000
,
0001
0001
0001
0000
,
0010
0000
0100
0000
,
1000
2000
0000
3001
,
1000
0000
0010
0000
,
1000
0100
1000
0000
,
0010
0000
0100
0000
,
0001
0001
0001
0000
,
0010
0000
0001
0000
,
0100
0010
0100
0000
,
0010
0000
1000
0000
,
0001
0001
0010
0000
,
0001
0000
0100
0000
,
0010
0010
1000
0000
,
0001
0000
1000
0000
,
0100
0010
0100
0000
,
1000
0000
0001
0000
,
0100
0010
0100
0010
,
0100
0000
0010
0000
,
2002
0000
3003
0000
,
0001
0000
1000
0100
,
0020
0000
0230
0000
,
0010
0310
0100
0000
,
2002
0000
3003
0000
,
1000
0000
0010
0100
,
0002
0000
0023
0000
,
0230
0000
2300
0000
,
3002
0000
0000
0023
0000
0000
0001
0000
,
0000
0031
0000
0001
,
2000
0000
0000
3020
0000
0000
1000
0000
,
0000
1030
0000
1000
,
0001
0010
0002
0000
,
1003
0100
2000
0000
,
3010
0100
0010
0100
,
0001
1000
0001
0000
,
2000
0000
0000
3200
0000
0000
1000
0000
,
0000
1300
0000
1000
,
0002
0000
0203
0001
,
0000
0301
0000
0001
,
1000
0010
2000
0000
,
3001
0100
0002
0000
,
0013
0100
0010
0100
,
1000
0001
1000
0000
,
0001
0001
0001
0000
,
0010
0000
0001
0000
,
1000
1000
1000
0000
,
0100
0000
1000
0000
,
0010
1000
0100
0000
,
0010
0001
0100
0000
,
0001
1000
0001
0000
,
1000
0100
0010
0001
,
2000
0000
3020
0000
,
0230
0000
0310
1000
,
0002
0000
0023
0000
,
0230
0000
0310
0001
,
1000
0010
1000
0000
,
0001
0100
0001
0000
,
1000
0100
0010
0001
,
0010
0100
1000
0000
,
2002
0000
3003
0000
,
0002
0000
2003
0000
,
3010
1000
0100
0000
,
0020
0000
0031
0000
,
2002
0000
3003
0000
,
1000
0000
0010
1000
,
0100
0110
0000
2000
,
0000
3002
0000
0000
0100
0000
0000
0000
,
0103
0000
0100
0002
,
0000
2003
0000
0000
0100
0000
0000
0000
,
3100
0000
0100
1000
,
0010
2000
0000
3001
,
0100
0002
0000
0103
,
0010
0100
0010
1000
,
0001
1000
0000
0002
,
0000
0023
0000
0000
0001
0000
0000
0000
,
0031
0000
0001
2000
,
0000
3020
1000
0000
,
1030
0000
1000
0001
,
0010
0002
0000
1003
,
0100
2000
0000
3010
,
0100
0010
0100
0001
,
1000
0100
0000
0220
,
0000
0000
0000
0000
,
0000
0330
0000
0000
0000
0000
0000
0000
;
