#VERSION:0.83;
#TITLE:The Werewolf;
#SUBTITLE:;
#ARTIST:Foxsky;
#TITLETRANSLIT:;
#SUBTITLETRANSLIT:;
#ARTISTTRANSLIT:;
#GENRE:Dubstep;
#ORIGIN:;
#CREDIT:;
#BANNER:The Werewolf.png;
#BACKGROUND:The Werewolf-bg.png;
#PREVIEWVID:;
#JACKET:The Werewolf-jacket.png;
#CDIMAGE:;
#DISCIMAGE:;
#LYRICSPATH:;
#CDTITLE:cdtitle.png;
#MUSIC:The Werewolf.ogg;
#OFFSET:-0.429913;
#SAMPLESTART:17.572771;
#SAMPLELENGTH:13.714285;
#SELECTABLE:YES;
#BPMS:0.000=140.000,
161.000=141.875,
162.000=143.750,
163.000=145.625,
164.000=147.500,
165.000=149.000,
166.000=150.500,
167.000=152.000,
168.000=154.000,
169.000=156.000,
170.000=158.000,
171.000=160.000,
172.000=162.000,
172.500=163.000,
173.000=164.000,
173.500=165.000,
174.000=166.000,
174.500=167.000,
175.000=168.000,
175.500=169.000,
176.000=170.000,
238.000=76.800,
240.000=140.000;
#STOPS:;
#DELAYS:;
#WARPS:;
#TIMESIGNATURES:0.000=4=4;
#TICKCOUNTS:0.000=4;
#COMBOS:0.000=1;
#SPEEDS:0.000=1.000=0.000=0;
#SCROLLS:0.000=1.000;
#FAKES:;
#LABELS:0.000=Song Start;
#BGCHANGES:;
#KEYSOUNDS:;
#ATTACKS:
;

//---------------dance-single - ----------------
#NOTEDATA:;
#CHARTNAME:;
#STEPSTYPE:dance-single;
#DESCRIPTION:;
#CHARTSTYLE:;
#DIFFICULTY:Challenge;
#METER:15;
#RADARVALUES:0.773229,1.021961,0.292813,0.816327,1.051464,610.000000,577.000000,33.000000,92.000000,48.000000,0.000000,0.000000,0.000000,0.000000,0.773229,1.021961,0.292813,0.816327,1.051464,610.000000,577.000000,33.000000,92.000000,48.000000,0.000000,0.000000,0.000000,0.000000;
#CREDIT:;
#NOTES:
// measure 0
0000
0000
0000
0000
,  // measure 1
0000
0000
0000
0000
,  // measure 2
0000
0000
0000
0000
,  // measure 3
0000
0000
0000
0000
0000
0000
0000
0000
0000
0000
0000
0000
1000
0010
0100
0001
,  // measure 4
1000
0010
1000
0010
1000
0100
1000
0100
0010
0001
0010
0001
0100
0001
0100
0001
,  // measure 5
1000
0010
0100
0001
1000
0010
1000
0001
0010
0100
1000
0001
1000
0100
0010
0001
,  // measure 6
1002
0100
0100
0100
,  // measure 7
0100
0100
0100
0103
,  // measure 8
0101
0011
1100
1010
,  // measure 9
0001
0000
0000
0001
0000
0000
0001
0000
0000
1000
0001
1000
0MM1
0000
0000
0000
0000
0000
M00M
0000
0000
0000
0000
0000
,  // measure 10
2002
0000
3003
MMMM
0000
0000
1010
0000
0010
0001
0000
0001
,  // measure 11
0020
0000
0000
2030
0000
0000
3010
0100
0001
0020
0000
0130
,  // measure 12
2000
3000
0000
2000
3100
0010
2000
3010
0001
2000
3001
0100
,  // measure 13
2000
3000
0000
2000
3100
0001
2000
3001
0010
2000
3010
0100
,  // measure 14
0220
0000
0330
MMMM
0000
0000
1001
0000
0001
0100
0000
0100
,  // measure 15
1000
0000
1000
0100
0000
0100
0010
0100
0001
1000
0100
0010
,  // measure 16
0002
0003
0000
0002
0103
0010
0002
0013
1000
0002
1003
0100
,  // measure 17
0002
0000
0003
0000
0000
0000
0002
0000
0103
0000
0010
0100
0020
0000
0000
0030
0000
0000
0002
0000
0000
0003
0000
0000
,  // measure 18
0202
0000
0000
0000
0303
0000
1010
0000
0000
MMMM
0000
0000
1001
0000
1000
0000
0100
0000
0020
0000
0000
0000
0130
0000
,  // measure 19
0010
0001
0100
0020
0000
0130
1000
0100
0010
0200
0000
0301
,  // measure 20
2000
3000
0001
0020
0030
0010
2000
3000
0010
0002
0003
0001
,  // measure 21
0200
0300
1000
0200
0300
0100
0002
0003
0010
0200
0300
1000
,  // measure 22
2200
0000
0000
0000
3300
0000
0011
0000
0000
MMMM
0000
0000
1001
0000
0001
0000
0100
0000
0020
0000
0000
0000
0130
0000
,  // measure 23
0010
1000
0100
0020
0000
0130
0001
0100
0010
0002
0000
0103
,  // measure 24
0020
0030
0100
2000
3000
0100
0020
0130
0001
0020
0130
0010
,  // measure 25
2000
0000
3010
0000
0001
0000
0200
0000
0310
0000
1000
0002
2000
0000
0000
0000
0000
0000
3003
0000
0000
0000
0000
0000
,  // measure 26
1002
0000
0000
0000
0000
0000
1003
0100
0020
0000
0000
0000
0000
0000
0031
0100
,  // measure 27
0020
0000
0000
1000
0000
0000
0130
0000
0102
0000
0000
0000
1003
0100
0010
0001
,  // measure 28
0200
0000
2300
0000
,  // measure 29
3200
0000
0000
0310
0200
0000
0301
0000
1002
0000
0000
0000
1003
0100
0010
0001
,  // measure 30
2000
0000
0000
0000
0000
0000
3001
0100
0020
0000
0000
0000
0000
0000
1030
0100
,  // measure 31
0020
0000
0000
0001
0000
0000
0130
0000
2100
0000
0000
0000
3010
0000
0100
0000
,  // measure 32
0001
0000
0000
1000
0000
0000
0001
0000
0000
1000
0000
0000
0010
0000
0000
1000
0000
0000
0010
0000
0000
1000
0000
0000
0001
0000
0000
1000
0000
0000
0001
0000
0000
1000
0000
0000
0010
0000
0000
1000
0000
0000
0010
0000
1000
0000
0010
0000
,  // measure 33
1000
0000
0000
0001
0000
0000
0010
0000
0000
0001
0000
0000
1000
0000
0000
0001
0000
0000
0010
0000
0000
0001
0000
0000
0200
0000
0000
0000
0300
0000
0000
0000
0000
0000
0000
0000
0020
0000
0000
1030
0000
0000
0100
0000
0000
0010
0000
0000
,  // measure 34
0001
0000
1000
0010
1000
0000
0100
0010
0001
0000
0010
0001
0010
0000
0100
1000
,  // measure 35
0010
0000
0100
0001
0100
0000
0010
0000
1000
0000
0100
1000
0001
0100
0010
1000
,  // measure 36
0001
0000
0010
0001
0010
0000
0100
0000
1000
0000
0100
1000
0100
0000
1000
0000
,  // measure 37
0010
0000
0001
0010
1000
0000
0010
0000
0100
0000
0001
1000
0001
0010
0100
1000
,  // measure 38
0001
0010
0100
0010
0001
1000
0001
0100
0010
1000
0100
0010
0001
1000
0100
1000
,  // measure 39
0001
0100
0010
1000
0001
0010
0001
1000
0010
0100
0001
1000
0001
0100
0010
1000
,  // measure 40
0100
0000
1000
0100
1000
0000
0001
0000
0100
0000
0001
0100
0001
0000
1000
0000
,  // measure 41
0001
0000
0010
0001
0010
0000
0001
0000
1000
0000
0010
1000
0010
0000
1000
0000
,  // measure 42
0001
0000
0010
0100
0010
0000
0001
0000
1000
0000
0010
0100
0010
0000
1000
0000
,  // measure 43
0001
0000
0000
0001
0000
0000
0001
0000
0000
1000
0001
1000
0M01
0000
0000
00M0
0000
0000
M00M
0000
0000
0000
0000
0000
,  // measure 44
2002
0000
3003
MM1M
0000
0000
1001
0001
0010
0200
0000
0310
,  // measure 45
0100
1000
0010
0200
0000
0310
0100
1000
0100
0020
0000
0130
,  // measure 46
0010
0000
1000
0000
0001
0000
1000
0100
0010
0000
0001
0000
0100
0010
1000
0000
,  // measure 47
0001
0100
0010
0000
1000
0000
0001
0010
0100
0000
1000
0000
0010
0100
0001
0000
,  // measure 48
2002
0000
3003
MMMM
0000
0000
1001
0000
1000
0100
0000
0100
,  // measure 49
0001
0000
0001
0100
0000
0100
1000
0100
0010
0001
0100
0010
,  // measure 50
1000
0000
0001
0000
0010
0000
0100
0010
0001
0000
1000
0000
0001
0100
0010
0000
,  // measure 51
1000
0010
0100
0000
0001
0000
1000
0100
0010
0000
0001
0000
0100
0010
1000
0000
,  // measure 52
2002
0000
0000
0000
3003
0000
M11M
0000
0000
0MM0
0000
0000
1001
0000
1000
0000
0010
0000
0200
0000
0000
0000
0310
0000
,  // measure 53
0100
0001
0010
0200
0000
0310
0100
0001
0100
0020
0000
0031
,  // measure 54
0010
0000
0100
0000
1000
0000
0010
0100
0001
0000
0010
0000
0100
0010
0001
0000
,  // measure 55
1000
0010
0100
0000
0001
0000
0010
0100
1000
0000
0010
0000
0100
0010
1000
0000
,  // measure 56
2002
0000
0000
0000
3003
0000
M11M
0000
0000
0MM0
0000
0000
1001
0000
0001
0000
0100
0000
0020
0000
0000
0000
1030
0000
,  // measure 57
0010
0100
0001
0020
0000
0031
0010
0100
1000
0020
0000
0130
,  // measure 58
0001
0000
0001
0010
0000
0010
1000
0000
1000
0100
0000
0100
,  // measure 59
0001
0000
0000
0000
0000
0000
0000
0000
0001
0000
0000
0000
0010
0000
0000
0000
0000
0000
0000
0000
0001
0000
1000
0000
0002
0000
0000
0000
0000
0000
M003
0000
0000
000M
0000
0000
0M00
0000
0000
00M0
0000
0000
M000
0000
0000
0000
0000
0000
,  // measure 60
2001
0000
0000
0000
0000
0000
3001
0100
0020
0000
0000
0000
0000
0000
1030
0100
,  // measure 61
0020
0000
0000
0000
0000
0000
0130
1000
0002
0000
0000
0000
1003
0010
0100
0001
,  // measure 62
2000
0000
0000
3100
0002
0000
0000
0103
,  // measure 63
0020
0000
0000
0000
0032
0000
0000
0000
0203
0000
0000
0000
0301
0100
0010
1000
,  // measure 64
0001
0010
0001
0010
0001
0100
0001
0100
0010
1000
0010
1000
0100
1000
0100
1000
,  // measure 65
0001
0010
0100
1000
0001
0010
0001
1000
0010
0100
0001
1000
0001
0100
0010
1000
,  // measure 66
1001
0100
1001
0100
,  // measure 67
1001
1000
0001
0001
0MM0
0000
M00M
0000
;

//---------------dance-single - ----------------
#NOTEDATA:;
#CHARTNAME:;
#STEPSTYPE:dance-single;
#DESCRIPTION:;
#CHARTSTYLE:;
#DIFFICULTY:Hard;
#METER:12;
#RADARVALUES:0.599569,0.631211,0.372671,0.514641,0.443656,473.000000,431.000000,42.000000,58.000000,5.000000,0.000000,0.000000,0.000000,0.000000,0.599569,0.631211,0.372671,0.514641,0.443656,473.000000,431.000000,42.000000,58.000000,5.000000,0.000000,0.000000,0.000000,0.000000;
#CREDIT:;
#NOTES:
0000
0000
0000
0000
,
0000
0000
0000
0000
,
0000
0000
0000
0000
,
0000
0000
0000
0000
0000
0000
1000
0100
,
0010
0001
1000
0001
0100
0010
0100
1000
,
0100
0010
1000
0100
0001
0100
0010
0001
,
2001
0001
0001
0001
,
0001
0001
0001
3001
,
0101
1010
1100
0011
,
1000
0100
0001
0100
0220
0330
0MM0
0000
,
2002
0000
0000
3003
0000
0000
1010
0000
0010
1000
0000
1000
,
0200
0000
0000
0320
0000
0000
0130
1000
0001
0200
0000
0301
,
1001
0011
1001
1010
,
1001
0011
1001
1010
,
2002
0000
0000
3003
0000
0000
0011
0000
0010
0001
0000
0001
,
0100
0000
0100
0010
0000
0010
1000
0001
1000
0100
0010
0100
,
0110
1100
0110
0011
,
0101
0000
1010
0000
0002
0003
0020
0030
,
2200
0000
3300
0011
0000
0000
0001
0100
0001
0200
0000
0310
,
1000
0010
1000
0200
0000
0310
0001
0010
0001
0200
0000
0310
,
1000
0000
0001
0010
0000
0010
0001
0000
1000
0010
0000
0010
,
1000
0000
0001
0010
0000
0010
0001
0000
1000
0010
0000
0100
,
0202
0000
0303
1010
0000
0000
0010
1000
0001
2000
0000
3100
,
1000
0100
1000
0020
0000
0130
0001
0100
0001
0020
0000
0031
,
0100
0000
0100
0010
0000
0010
1000
0000
1000
0100
0000
0100
,
0001
0000
0001
0100
0000
0100
2000
0000
0000
3000
0000
0000
,
1002
0000
0000
0000
0000
0000
1003
0010
2000
0000
0000
0000
0000
0000
3001
0010
,
0002
0000
0000
1000
0000
0000
0103
0000
0101
0000
0000
0000
0100
0010
0100
0010
,
2000
0000
3200
0000
,
0320
0000
0000
0100
0000
0000
0130
0000
1001
0000
0000
0000
1000
0100
1000
0100
,
0020
0000
0000
0000
0000
0000
0031
0100
0002
0000
0000
0000
0000
0000
1003
0010
,
2000
0000
0000
0001
0000
0000
3100
0000
1100
0000
0000
0000
0001
0000
0100
0000
,
0010
0010
0010
0010
,
1000
0010
0001
0010
2000
3000
0200
0310
,
0001
0000
0100
0010
0000
0000
1000
0000
0100
0000
0010
0001
0000
0000
0100
0000
,
1000
0000
0100
0001
0000
0000
0010
0000
0100
0000
0000
0100
1000
0000
0001
0000
,
0100
0000
0010
1000
0000
0000
0100
0000
0010
0000
0001
0100
0000
0000
0010
0000
,
1000
0000
0000
1000
0100
0000
0001
0000
0100
0000
1000
0000
0010
0000
0100
0000
,
0001
0010
0100
1000
0010
0001
0010
1000
,
0100
0010
0001
0100
1000
0100
0001
0010
,
0001
0100
0010
0100
0001
0100
1000
0100
,
0001
0100
0010
0100
0001
0100
1000
0100
,
0001
0100
0010
0100
0001
0100
1000
0100
,
0001
0010
1000
0010
0002
0003
000M
0000
,
2001
0000
0000
3100
0000
0000
0010
0000
0010
0002
0000
1003
,
0010
0000
0010
2000
0000
3001
0100
0000
0100
0002
0000
1003
,
0001
0010
1000
0010
0001
0100
0010
0100
,
0001
0010
1000
0010
0001
0100
0010
0100
,
0202
0000
0000
0303
0000
0000
1000
0000
1000
0010
0000
0010
,
0100
0000
0100
0001
0000
0001
0010
0000
0010
0100
0000
0100
,
1000
0010
0001
0010
1000
0100
0010
0100
,
1000
0010
0001
0010
1000
0100
0010
0100
,
1100
0000
0000
0011
0000
0000
1000
0000
0001
0200
0000
0310
,
1000
0000
1000
0200
0000
0310
0001
0000
0001
0200
0000
0310
,
1000
0010
0001
0010
1000
0100
0001
0100
,
1000
0010
0001
0010
1000
0100
0001
0100
,
0110
0000
0000
1001
0000
0000
1000
0000
0001
0200
0000
0310
,
0100
0000
0100
0002
0000
0013
0100
0000
0100
2000
0000
3001
,
0100
0000
0100
0010
0000
0010
1000
0000
1000
0100
0000
0100
,
0001
0000
0000
0000
0001
0000
0100
0000
0000
0000
0100
0000
2000
0000
0000
3000
0000
0000
M000
0000
0000
0000
0000
0000
,
2001
0000
0000
0000
0000
0000
3001
0100
0002
0000
0000
0000
0000
0000
1003
0010
,
2000
0000
0000
0000
0000
0000
3001
0010
0002
0000
0000
0000
0103
0010
0100
0010
,
2000
0000
0000
3001
0020
0000
0000
0130
,
2000
0000
0000
0000
3020
0000
0000
0000
0230
0000
0000
0000
0301
0100
0001
0100
,
0010
1000
0001
1000
0100
0010
0100
0001
,
0100
0010
0001
0100
1000
0100
0010
1000
,
1001
0100
1001
0100
,
1001
0001
1000
1000
0200
0300
0M00
0000
;

//---------------dance-single - ----------------
#NOTEDATA:;
#CHARTNAME:;
#STEPSTYPE:dance-single;
#DESCRIPTION:;
#CHARTSTYLE:;
#DIFFICULTY:Medium;
#METER:8;
#RADARVALUES:0.453796,0.541038,0.443656,0.638864,0.133097,358.000000,308.000000,50.000000,72.000000,0.000000,0.000000,0.000000,0.000000,0.000000,0.453796,0.541038,0.443656,0.638864,0.133097,358.000000,308.000000,50.000000,72.000000,0.000000,0.000000,0.000000,0.000000,0.000000;
#CREDIT:;
#NOTES:
0000
0000
0000
0000
,
0000
0000
0000
0000
,
0000
0000
0000
0000
,
0000
0000
0000
0000
,
1000
0010
1000
0010
0100
0001
0100
0001
,
1000
0100
1000
0100
0010
0001
0010
0001
,
2002
0000
0000
0000
,
0000
0000
0000
3003
,
1000
1000
0001
0001
,
1000
0010
0100
0001
0020
0000
0030
0000
,
2002
0000
0000
3003
0000
0000
0001
0000
0100
0010
0000
0100
,
0020
0000
0000
2030
0000
0000
3001
0000
0001
0010
0000
0000
,
0011
0011
1100
1100
,
1010
1010
0101
0101
,
2002
0000
0000
3003
0000
0000
1000
0000
0100
0010
0000
0100
,
0020
0000
0000
0031
0000
0100
0010
0000
0100
0010
0000
0000
,
1010
1010
0101
0101
,
0011
0000
1100
0000
0002
0003
2000
3000
,
1002
0000
0000
0103
0000
0000
0010
0000
0010
1000
0000
0000
,
0001
0000
0001
0010
0000
0000
0100
0000
0100
1000
0000
0000
,
0001
0000
1000
0010
0000
0010
0000
0000
1000
0010
0000
0000
,
1000
0000
0001
0010
0000
0010
0000
0000
0100
1000
0000
0000
,
2001
0000
0000
3100
0000
0000
0010
0000
0010
0001
0000
0000
,
1000
0000
1000
0010
0000
0000
0100
0000
0100
0001
0000
0000
,
1001
1010
0011
0101
,
1100
1010
2002
3003
,
2001
0000
0000
3100
0002
0000
0000
0103
,
0020
0000
0000
0100
0000
0000
0130
0000
2000
0000
0000
0000
3010
0000
0000
0000
,
1002
0000
0203
0000
,
0320
0000
0000
1000
0000
0000
1030
0000
0002
0000
0000
0000
0013
0000
0001
0000
,
0200
0000
0000
1300
0200
0000
0000
0301
,
0020
0000
0000
0100
0000
0000
0130
0000
2000
0000
0000
0000
3001
0000
0000
0000
,
1001
1001
0110
0110
,
0001
0100
0010
1000
0002
0003
2000
3100
,
0010
0000
0000
0010
0000
0000
0001
0000
1000
0000
0000
1000
0000
0000
0001
0000
,
0100
0000
0000
0100
0000
0000
0010
0000
1000
0000
0000
0000
0001
0000
0100
0000
,
0010
0000
0000
0010
0000
0000
1000
0000
0001
0000
0000
0001
0000
0000
1000
0000
,
0100
0000
0011
0000
1001
0000
1000
0010
,
0100
0000
0000
0010
0000
0000
0100
0000
0001
0000
0000
1000
0000
0000
0001
0000
,
1000
0000
0000
0100
0000
0000
0010
0000
0001
0000
0000
0000
0100
0000
0010
0000
,
1000
0100
0001
0010
,
1000
0100
0001
0010
,
1000
0100
0001
0010
,
1000
0001
1000
0002
2000
0000
3003
0000
,
2002
3003
0002
0203
,
2300
3200
0302
0023
,
0031
0010
0001
0000
1000
0010
1000
0000
,
0001
0100
0001
0000
1000
0100
1000
0000
,
2002
3003
2000
3200
,
0302
0203
0320
0032
,
1003
0010
1000
0000
0001
0100
0001
0000
,
0010
0001
0010
0000
0100
1000
0100
0000
,
1001
0110
2000
3020
,
0032
0023
0230
0302
,
1003
0100
0010
0000
0001
0010
0100
0000
,
1000
0010
0100
0000
0001
0100
0010
0000
,
0110
1001
0002
0023
,
2030
3020
0230
2300
,
3001
0101
1010
0011
,
1100
0000
0101
0000
2002
3003
0000
0000
,
1002
0000
0000
0103
0020
0000
0000
0130
,
2000
0000
0000
3100
0020
0000
1030
0000
,
2001
0000
0000
3100
0020
0000
0000
0130
,
0002
0000
0203
0000
2300
0000
3010
1000
,
0001
0010
0001
0010
0100
1000
0100
1000
,
0001
0100
0001
0100
0010
1000
0010
1000
,
1001
0100
1001
0100
,
1000
0001
1000
0001
0200
0000
0300
0000
;

//---------------dance-single - ----------------
#NOTEDATA:;
#CHARTNAME:;
#STEPSTYPE:dance-single;
#DESCRIPTION:;
#CHARTSTYLE:;
#DIFFICULTY:Easy;
#METER:5;
#RADARVALUES:0.308024,0.360692,0.177462,0.390417,0.000000,243.000000,223.000000,20.000000,44.000000,0.000000,0.000000,0.000000,0.000000,0.000000,0.308024,0.360692,0.177462,0.390417,0.000000,243.000000,223.000000,20.000000,44.000000,0.000000,0.000000,0.000000,0.000000,0.000000;
#CREDIT:;
#NOTES:
0000
0000
0000
0000
,
0000
0000
0000
0000
,
0000
0000
0000
0000
,
0000
0000
0000
0000
,
1000
0010
0100
0001
,
0010
0100
1000
0001
,
2002
0000
0000
0000
,
0000
0000
0000
3003
,
1000
1000
0001
0001
,
1000
0001
0200
0300
,
2002
3003
0001
0100
,
1000
1000
0100
0001
,
1000
0100
0001
0010
,
1000
0100
0001
0010
,
0220
0330
1000
0100
,
0001
0001
0100
1000
,
0001
0100
1000
0010
,
0001
0100
0020
0030
,
1001
0110
1000
1000
,
0100
0100
0010
0010
,
0001
0100
1000
0100
,
0001
0100
1000
0100
,
0110
1001
0001
0001
,
0010
0010
0100
0100
,
1000
0010
0001
0010
,
1000
0100
0110
0000
,
0002
0000
0203
0000
,
0320
1030
0220
0330
,
2000
0000
3200
0000
,
0320
0031
0110
1000
,
0002
0000
0203
0000
,
0320
1030
2001
3100
,
0010
0010
0100
0100
,
0010
0001
0200
0300
,
0001
0001
0100
0100
,
1000
1000
0100
0100
,
0001
0001
0010
0010
,
1000
0010
0001
0100
,
0010
1000
0001
0010
,
0100
1000
0001
0100
,
0010
0100
0010
0100
,
0010
0100
0010
0100
,
0010
0100
0010
0100
,
0010
0010
0220
0330
,
2002
3003
1000
1000
,
0100
0100
0010
0010
,
0001
0100
0010
1000
,
0100
0010
0001
0100
,
2002
3003
0001
0100
,
0010
0010
1000
0001
,
1000
0100
0010
0001
,
0100
0010
1000
0100
,
2002
3003
1000
1000
,
0010
0010
0100
0100
,
0001
1000
0100
0010
,
0001
1000
0010
0100
,
2002
3003
0001
0001
,
0010
0010
0100
0100
,
1000
0010
0001
0100
,
1000
0010
2002
3003
,
0002
0000
0203
0000
,
2300
0000
3200
0000
,
0302
0000
2003
0000
,
3200
0302
0203
2300
,
3001
0100
0010
1000
,
0001
0010
0100
1000
,
1001
0100
1001
0100
,
1001
0001
2000
3000
;

//---------------dance-single - ----------------
#NOTEDATA:;
#CHARTNAME:;
#STEPSTYPE:dance-single;
#DESCRIPTION:;
#CHARTSTYLE:;
#DIFFICULTY:Beginner;
#METER:3;
#RADARVALUES:0.207884,0.268523,0.053239,0.017746,0.000000,164.000000,158.000000,6.000000,2.000000,0.000000,0.000000,0.000000,0.000000,0.000000,0.207884,0.268523,0.053239,0.017746,0.000000,164.000000,158.000000,6.000000,2.000000,0.000000,0.000000,0.000000,0.000000,0.000000;
#CREDIT:;
#NOTES:
0000
0000
0000
0000
,
0000
0000
0000
0000
,
0000
0000
0000
0000
,
0000
0000
0000
0000
,
1000
0000
0100
0000
,
0010
0000
0001
0000
,
2002
0000
0000
0000
,
3003
0000
0000
0000
,
0001
0000
1000
0000
,
0001
1000
0000
0000
,
1001
0000
0001
0000
,
0100
0000
0100
0000
,
0010
0010
0010
0010
,
0010
0010
0010
0010
,
0010
0000
1000
0000
,
0100
0000
0100
0000
,
0010
0010
0010
0010
,
0010
0010
0010
0000
,
1001
0000
0001
0000
,
1000
0000
0100
0000
,
0010
0010
0010
0010
,
0010
0010
0010
0010
,
0010
0000
0001
0000
,
1000
0000
0010
0000
,
0100
0100
0100
0100
,
0100
0100
0100
0000
,
0001
0000
0100
0000
,
0010
0000
1000
0000
,
0001
0000
0010
0000
,
0100
0100
0100
0000
,
1000
0000
0100
0000
,
0010
0000
0001
0000
,
0100
0000
0100
0000
,
0100
0100
0100
0000
,
0010
0000
1000
0000
,
0001
0000
0010
0000
,
0001
0000
0100
0000
,
0010
0010
0010
0000
,
1000
0000
0001
0000
,
0010
0000
0100
0000
,
1000
0000
0001
0000
,
1000
0000
0001
0000
,
1000
0000
0001
0000
,
1000
0001
0000
0000
,
1001
0000
1000
0000
,
0010
0000
0100
0000
,
0001
0001
0001
0001
,
0001
0001
0001
0001
,
0001
0000
0010
0000
,
0100
0000
0100
0000
,
1000
1000
1000
1000
,
1000
1000
1000
1000
,
1000
0000
0010
0000
,
1000
0000
0001
0000
,
0010
0010
0010
0010
,
0010
0010
0010
0010
,
0010
0000
0001
0000
,
1000
0000
0010
0000
,
0100
0100
0100
0100
,
0100
0100
0100
0000
,
0001
0000
0100
0000
,
0010
0000
1000
0000
,
0001
0000
0010
0000
,
0100
0100
0100
0000
,
1000
0000
0010
0000
,
0100
0000
0001
0000
,
1001
0000
1001
0000
,
1000
0001
0000
0000
;
