#VERSION:0.83;
#TITLE:TRICKL4SH 220;
#SUBTITLE:;
#ARTIST:Lite Show Magic;
#TITLETRANSLIT:;
#SUBTITLETRANSLIT:;
#ARTISTTRANSLIT:;
#GENRE:Hardcore;
#ORIGIN:;
#CREDIT:;
#BANNER:TRICKL4SH 220.png;
#BACKGROUND:TRICKL4SH 220-bg.png;
#PREVIEWVID:;
#JACKET:TRICKL4SH 220-jacket.png;
#CDIMAGE:;
#DISCIMAGE:;
#LYRICSPATH:;
#CDTITLE:cdtitle.png;
#MUSIC:TRICKL4SH 220.ogg;
#OFFSET:-0.050870;
#SAMPLESTART:45.869244;
#SAMPLELENGTH:17.434547;
#SELECTABLE:YES;
#DISPLAYBPM:55.000000:220.000000;
#BPMS:0.000=220.000,
32.000=440.000,
32.667=220.000,
33.167=110.000,
33.500=440.000,
34.167=220.000,
34.667=110.000,
35.000=440.000,
35.500=220.000,
35.750=110.000,
36.000=220.000,
40.000=440.000,
40.667=220.000,
41.167=110.000,
41.500=440.000,
42.167=220.000,
42.667=110.000,
43.000=440.000,
43.667=220.000,
44.167=110.000,
44.500=440.000,
45.167=220.000,
45.667=110.000,
46.000=440.000,
46.500=220.000,
46.750=110.000,
47.000=440.000,
47.500=220.000,
47.750=110.000,
48.000=440.000,
48.667=220.000,
49.167=110.000,
49.500=440.000,
50.167=220.000,
50.667=110.000,
51.000=440.000,
51.500=220.000,
51.750=110.000,
52.000=220.000,
56.000=440.000,
56.667=220.000,
57.167=110.000,
57.500=440.000,
58.167=220.000,
58.667=110.000,
59.000=440.000,
59.667=220.000,
60.167=110.000,
60.500=440.000,
61.167=220.000,
61.667=110.000,
62.000=440.000,
62.500=220.000,
62.750=110.000,
63.250=220.000,
63.500=440.000,
64.000=220.000,
100.000=440.000,
102.000=220.000,
108.000=440.000,
109.750=220.000,
110.250=440.000,
111.500=220.000,
128.000=110.000,
144.000=55.000,
146.000=220.000,
170.000=110.000,
170.333=220.000,
170.833=440.000,
173.000=220.000,
173.250=110.000,
173.500=440.000,
174.167=220.000,
174.667=110.000,
176.000=220.000,
200.000=110.000,
200.333=220.000,
200.833=440.000,
203.000=220.000,
203.250=110.000,
203.500=440.000,
204.167=220.000,
204.667=110.000,
206.000=220.000,
220.000=110.000,
221.000=220.000,
233.000=110.000,
235.000=220.000,
263.000=110.000,
265.000=220.000,
269.000=110.000,
271.000=220.000,
275.000=495.000,
281.000=330.000,
281.500=110.000,
282.000=220.000,
306.000=110.000,
306.333=220.000,
306.833=440.000,
309.000=220.000,
309.250=110.000,
309.500=220.000,
321.000=440.000,
327.000=110.000,
328.000=220.000,
336.000=110.000,
336.333=220.000,
336.833=440.000,
339.000=220.000,
339.250=110.000,
339.500=440.000,
340.167=220.000,
340.667=110.000,
342.000=440.000,
342.667=220.000,
343.167=110.000,
343.500=440.000,
344.167=220.000,
344.667=110.000,
345.000=440.000,
345.500=220.000,
345.750=110.000,
346.000=220.000,
350.000=440.000,
350.667=220.000,
351.167=110.000,
351.500=440.000,
352.167=220.000,
352.667=110.000,
353.000=440.000,
353.667=220.000,
354.167=110.000,
354.500=440.000,
355.167=220.000,
355.667=110.000,
356.000=440.000,
356.500=220.000,
356.750=110.000,
357.000=440.000,
357.500=220.000,
357.750=110.000,
358.000=440.000,
358.667=220.000,
359.167=110.000,
359.500=440.000,
360.167=220.000,
360.667=110.000,
361.000=440.000,
361.667=220.000,
362.167=110.000,
362.500=220.000,
366.000=440.000,
366.667=220.000,
367.167=110.000,
367.500=440.000,
370.000=220.000,
370.500=110.000;
#STOPS:100.000=0.102,
100.750=0.103,
101.500=0.068,
108.000=0.068,
108.500=0.102,
109.250=0.068,
110.250=0.034,
110.500=0.069,
111.000=0.068,
171.500=0.204,
172.000=0.205,
201.500=0.204,
202.000=0.205,
307.500=0.205,
308.000=0.204,
321.000=0.102,
321.750=0.103,
322.500=0.068,
323.000=0.102,
323.750=0.102,
324.500=0.069,
325.000=0.068,
325.500=0.068,
326.000=0.068,
326.500=0.068,
337.500=0.205,
338.000=0.204,
367.500=0.205,
368.000=0.204,
368.500=0.069;
#DELAYS:;
#WARPS:;
#TIMESIGNATURES:0.000=4=4;
#TICKCOUNTS:0.000=4;
#COMBOS:0.000=1;
#SPEEDS:0.000=1.000=0.000=0;
#SCROLLS:0.000=1.000;
#FAKES:;
#LABELS:0.000=Song Start;
#BGCHANGES:;
#KEYSOUNDS:;
#ATTACKS:
;

//---------------dance-single - ----------------
#NOTEDATA:;
#CHARTNAME:;
#STEPSTYPE:dance-single;
#DESCRIPTION:;
#CHARTSTYLE:;
#DIFFICULTY:Challenge;
#METER:16;
#RADARVALUES:0.939552,1.143247,0.977285,0.449023,0.427012,747.000000,636.000000,111.000000,51.000000,4.000000,0.000000,0.000000,0.000000,0.000000,0.939552,1.143247,0.977285,0.449023,0.427012,747.000000,636.000000,111.000000,51.000000,4.000000,0.000000,0.000000,0.000000,0.000000;
#CREDIT:;
#OFFSET:-0.050870;
#BPMS:0.000000=220.000000
,32.000000=440.000000
,32.666668=220.000000
,33.166668=110.000000
,33.500000=440.000000
,34.166668=220.000000
,34.666668=110.000000
,35.000000=440.000000
,35.500000=220.000000
,35.750000=110.000000
,36.000000=220.000000
,40.000000=440.000000
,40.666668=220.000000
,41.166668=110.000000
,41.500000=440.000000
,42.166668=220.000000
,42.666668=110.000000
,43.000000=440.000000
,43.666668=220.000000
,44.166668=110.000000
,44.500000=440.000000
,45.166668=220.000000
,45.666668=110.000000
,46.000000=440.000000
,46.500000=220.000000
,46.750000=110.000000
,47.000000=440.000000
,47.500000=220.000000
,47.750000=110.000000
,48.000000=440.000000
,48.666668=220.000000
,49.166668=110.000000
,49.500000=440.000000
,50.166668=220.000000
,50.666668=110.000000
,51.000000=440.000000
,51.500000=220.000000
,51.750000=110.000000
,52.000000=220.000000
,56.000000=440.000000
,56.666668=220.000000
,57.166668=110.000000
,57.500000=440.000000
,58.166668=220.000000
,58.666668=110.000000
,59.000000=440.000000
,59.666668=220.000000
,60.166668=110.000000
,60.500000=440.000000
,61.166668=220.000000
,61.666668=110.000000
,62.000000=440.000000
,62.500000=220.000000
,62.750000=110.000000
,63.250000=220.000000
,63.500000=440.000000
,64.000000=220.000000
,100.000000=440.000000
,102.000000=220.000000
,108.000000=440.000000
,109.750000=220.000000
,110.250000=440.000000
,111.500000=220.000000
,128.000000=110.000000
,144.000000=55.000000
,146.000000=220.000000
,170.000000=110.000000
,170.333328=220.000000
,170.833328=440.000000
,173.000000=220.000000
,173.250000=110.000000
,173.500000=440.000000
,174.166672=220.000000
,174.666672=110.000000
,176.000000=220.000000
,200.000000=110.000000
,200.333328=220.000000
,200.833328=440.000000
,203.000000=220.000000
,203.250000=110.000000
,203.500000=440.000000
,204.166672=220.000000
,204.666672=110.000000
,206.000000=220.000000
,220.000000=110.000000
,221.000000=220.000000
,233.000000=110.000000
,235.000000=220.000000
,263.000000=110.000000
,265.000000=220.000000
,269.000000=110.000000
,271.000000=220.000000
,275.000000=495.000000
,281.000000=330.000000
,281.500000=110.000000
,282.000000=220.000000
,306.000000=110.000000
,306.333344=220.000000
,306.833344=440.000000
,309.000000=220.000000
,309.250000=110.000000
,309.500000=220.000000
,321.000000=440.000000
,327.000000=110.000000
,328.000000=220.000000
,336.000000=110.000000
,336.333344=220.000000
,336.833344=440.000000
,339.000000=220.000000
,339.250000=110.000000
,339.500000=440.000000
,340.166656=220.000000
,340.666656=110.000000
,342.000000=440.000000
,342.666656=220.000000
,343.166656=110.000000
,343.500000=440.000000
,344.166656=220.000000
,344.666656=110.000000
,345.000000=440.000000
,345.500000=220.000000
,345.750000=110.000000
,346.000000=220.000000
,350.000000=440.000000
,350.666656=220.000000
,351.166656=110.000000
,351.500000=440.000000
,352.166656=220.000000
,352.666656=110.000000
,353.000000=440.000000
,353.666656=220.000000
,354.166656=110.000000
,354.500000=440.000000
,355.166656=220.000000
,355.666656=110.000000
,356.000000=440.000000
,356.500000=220.000000
,356.750000=110.000000
,357.000000=440.000000
,357.500000=220.000000
,357.750000=110.000000
,358.000000=440.000000
,358.666656=220.000000
,359.166656=110.000000
,359.500000=440.000000
,360.166656=220.000000
,360.666656=110.000000
,361.000000=440.000000
,361.666656=220.000000
,362.166656=110.000000
,362.500000=220.000000
,366.000000=440.000000
,366.666656=220.000000
,367.166656=110.000000
,367.500000=440.000000
,370.000000=220.000000
,370.500000=110.000000
;
#STOPS:100.000000=0.102272
,100.750000=0.102274
,101.500000=0.068182
,108.000000=0.068182
,108.500000=0.102272
,109.250000=0.068182
,110.250000=0.034090
,110.500000=0.068182
,111.000000=0.068182
,171.500000=0.204548
,172.000000=0.204548
,201.500000=0.204548
,202.000000=0.204548
,307.500000=0.204544
,308.000000=0.204544
,321.000000=0.102272
,321.750000=0.102272
,322.500000=0.068184
,323.000000=0.102272
,323.750000=0.102272
,324.500000=0.068184
,325.000000=0.068177
,325.500000=0.068177
,326.000000=0.068177
,326.500000=0.068177
,337.500000=0.204544
,338.000000=0.204544
,367.500000=0.204544
,368.000000=0.204544
,368.500000=0.068177
;
#DELAYS:;
#WARPS:;
#TIMESIGNATURES:0.000000=4=4
;
#TICKCOUNTS:0.000000=4
;
#COMBOS:0.000000=1
;
#SPEEDS:0.000000=1.000000=0.000000=0
;
#SCROLLS:0.000000=1.000000
;
#FAKES:;
#LABELS:0.000000=Song Start
;
#DISPLAYBPM:55.000000:220.000000;
#NOTES:
// measure 0
0000
0000
0000
0000
,  // measure 1
0000
0000
0000
0000
,  // measure 2
0000
0000
0000
0000
,  // measure 3
0000
0000
0000
0000
,  // measure 4
1001
0000
0000
0000
1000
0000
0100
1000
0100
0000
1000
0000
0001
0000
0200
0000
,  // measure 5
0000
0000
0301
0100
0001
0000
0100
0000
0010
0000
0100
0000
0001
0000
1000
0000
,  // measure 6
1001
0101
1001
1100
,  // measure 7
1000
0000
0010
0000
0100
0000
0001
0000
0000
0000
1000
0100
1000
0100
1000
0100
,  // measure 8
1000
0000
0000
1010
0000
0000
1001
0000
,  // measure 9
0001
0000
0100
0000
0010
0000
0010
0000
0100
0000
0001
1000
0001
1000
0001
1000
,  // measure 10
0001
0000
0000
0011
0000
0000
1001
0000
,  // measure 11
0000
0101
0000
0000
1001
0000
0011
0000
,  // measure 12
1100
0000
0000
0011
0000
0000
0101
0000
,  // measure 13
1000
0010
0100
0100
0010
1000
0100
0010
,  // measure 14
0011
0000
0000
0101
0000
0000
1010
0000
,  // measure 15
0000
1100
0000
0000
1001
0000
MMMM
0000
,  // measure 16
0001
0000
0100
0010
0100
0000
0001
0000
0100
0000
1000
0000
0100
0000
0010
0000
,  // measure 17
0100
0000
0001
1000
0001
0000
0010
0000
0100
0000
0010
0000
1000
0000
0010
0000
,  // measure 18
0001
0000
1000
0010
0000
1000
0010
0000
0100
0001
0100
0001
0100
0000
0001
0000
,  // measure 19
1000
0000
0001
0010
0000
0001
0010
0000
0001
0000
0100
0000
1010
0000
0000
0000
,  // measure 20
1000
0000
0100
0010
0100
0000
1000
0000
0100
0000
0001
0000
0100
0000
0010
0000
,  // measure 21
0100
0000
1000
0001
1000
0000
0010
0000
0100
0000
0010
0000
0001
0000
0010
0000
,  // measure 22
1000
0000
0001
0010
0000
0001
0010
0000
0100
1000
0100
1000
0100
0000
1000
0000
,  // measure 23
0002
0023
2030
3200
,  // measure 24
0301
0000
0010
0100
0010
0000
0001
0000
0100
0000
1000
0000
0100
0000
0001
0000
,  // measure 25
0011
0000
0000
1001
0000
0000
1010
0000
0010
0000
0100
0000
0001
0000
0000
0000
,  // measure 26
1000
0000
0100
0010
0100
0000
1000
0000
0001
0000
0100
0000
0010
0000
1000
0000
,  // measure 27
1001
0000
1001
0000
0000
0110
0000
0000
0000
1000
0001
0000
1000
0000
0100
0000
,  // measure 28
0010
0000
0001
0100
0001
0000
0100
0000
1000
0000
0100
0000
0010
0000
0100
0000
,  // measure 29
0001
0000
0010
0001
0010
0000
0100
0000
0010
0000
1000
0000
0010
0000
0001
0000
,  // measure 30
0100
1000
0100
0001
0010
1000
0010
0001
,  // measure 31
2000
0000
0010
0020
3000
0130
0102
0000
,  // measure 32
2003
0000
0000
0000
0000
0000
3100
0010
0200
0000
0000
0000
0302
0000
0000
0000
,  // measure 33
0203
0000
0000
0000
0000
0000
0000
0000
0000
0000
0000
0000
0000
0000
0000
0000
0000
0000
0000
0000
0000
0000
0000
0000
0000
0000
0000
0000
0000
0000
0000
0000
0000
0000
0000
0000
2300
0000
0000
0000
0000
0000
0000
0000
0000
0000
0000
0000
0000
0000
0000
0000
0000
0000
0000
0000
0000
0000
0000
0000
0000
0000
0000
0000
0000
0000
0000
0000
0000
0000
0000
0000
3002
0000
0000
0000
0000
0000
0000
0000
0000
0000
0000
0000
0000
0000
0000
0000
0000
0000
0000
0000
0000
0000
0000
0000
0203
0000
0000
0000
0000
0000
0000
0000
0000
0000
0000
0000
0000
0000
0000
0000
0000
0000
0000
0000
0000
0000
0000
0000
0000
0000
0000
0000
0000
0000
0000
0000
0300
0000
0000
0000
0010
0000
0000
0000
0000
0000
1000
0000
0000
0000
0000
0000
0001
0000
0000
0000
0000
0000
0000
0000
0000
0000
0000
0000
0000
0000
0000
0000
0000
0000
0000
0000
0000
0000
0000
0000
1000
0000
0000
0000
0000
0000
0000
0000
0000
0000
0000
0000
1000
0000
0000
0000
0000
0000
0000
0000
0000
0000
0000
0000
,  // measure 34
0200
0000
0310
0000
0011
0000
0001
0100
0020
0000
1030
0000
1020
0000
0130
0000
,  // measure 35
0002
0000
0013
0200
1000
0000
0320
0000
0032
0000
0103
0020
1000
0000
0230
0000
,  // measure 36
0002
0000
0000
0000
0303
0000
0100
0010
1001
0000
0000
0000
0101
0000
0100
0000
,  // measure 37
0001
1000
0001
1000
0100
0000
0010
0000
0011
0000
0000
0000
1010
0000
0000
0000
,  // measure 38
0010
1000
0010
1000
0001
0000
1000
0000
0100
0000
0001
0000
0100
0000
1000
0000
,  // measure 39
0010
0001
0010
1000
0100
0010
0001
0100
,  // measure 40
1000
0000
0100
0010
0100
0000
0000
0000
1001
0000
0000
0000
1100
0000
0100
0000
,  // measure 41
1000
0001
1000
0001
0100
0000
0010
0000
1010
0000
0000
0000
0011
0000
0000
0000
,  // measure 42
0010
0000
0000
0001
0000
0000
0010
0000
0000
0001
0000
0000
1000
0000
0000
0000
0000
0000
0001
0000
0000
0000
0000
0000
0202
0000
0000
0000
0000
0000
0000
0000
0303
0000
0000
0000
0000
0000
0000
0000
0000
0000
1010
0000
0000
0000
0000
0000
,  // measure 43
1001
0000
0000
0000
0012
0000
0000
0000
0000
0000
0000
0000
2000
0000
0000
0000
0000
0000
0000
0000
3003
0000
0000
0000
0001
0000
0010
0100
0010
0000
0001
0000
,  // measure 44
0101
0000
0000
0000
1100
0000
1000
0000
0001
0100
0001
0100
0010
0000
1000
0000
,  // measure 45
1010
0000
0000
0000
0011
0000
0000
0000
0010
0001
0010
0001
1000
0000
0001
0000
,  // measure 46
0100
1000
0100
0001
0010
1000
0010
0001
,  // measure 47
0100
0000
1000
0000
0100
0000
0010
0000
1000
0000
0001
0010
0001
0000
0000
0000
,  // measure 48
1100
0000
0000
0000
0101
0000
0001
0000
1000
0100
1000
0100
0010
0000
0001
0000
,  // measure 49
0011
0000
0000
0000
1010
0000
0000
0000
0010
1000
0010
1000
0001
0000
1000
0000
,  // measure 50
2200
0000
0000
0000
3300
0000
0000
0000
0000
0011
0000
0000
1001
0000
0000
1020
0000
0000
0000
0000
0000
0200
0000
0000
,  // measure 51
0000
0000
0030
0000
0000
0000
0310
0000
0000
1001
0000
0000
1100
0000
0000
0000
0000
0000
0101
0000
0000
0000
0000
0000
,  // measure 52
1000
0001
1000
0000
0001
0010
0100
0010
,  // measure 53
1000
0000
0010
0000
0001
0000
0000
0000
1000
0000
0010
0100
0010
0000
1000
0000
,  // measure 54
0001
0100
0001
0000
1000
0000
0001
0000
1000
0100
1000
0000
0001
0000
0100
0000
,  // measure 55
0020
0030
2000
3000
0101
0000
0000
0000
1100
0000
0000
0000
0001
0000
1000
0000
,  // measure 56
0001
0000
1000
0010
0100
0010
0001
0010
,  // measure 57
1000
0000
0000
0000
0001
0000
0010
0001
0010
0000
0100
0000
1000
0100
1000
0000
,  // measure 58
0001
0100
0020
0030
2002
3003
1100
0000
,  // measure 59
1000
0000
1000
0100
0001
0000
0001
0100
,  // measure 60
0010
0000
0100
0000
0001
0000
0100
0000
1000
0000
0000
0000
0001
0000
1000
0010
,  // measure 61
0000
1000
0010
0000
1000
0001
1000
0001
1000
0000
0100
0000
0010
0000
0001
0100
,  // measure 62
0000
0001
0100
0000
0010
0000
1000
0000
1100
0000
0000
0000
0101
0000
0000
0000
,  // measure 63
0001
0000
0001
0100
1000
0000
1000
0100
,  // measure 64
0010
0100
1000
0100
0001
0000
0001
0010
,  // measure 65
1000
0000
0010
0000
0001
0000
0010
0000
1000
0000
0010
0000
0002
0000
0103
0010
,  // measure 66
2001
0000
3100
0000
1100
0000
0000
0000
0001
0000
0100
0000
0010
1000
0010
1000
,  // measure 67
0001
0000
0000
0000
1000
0000
0000
0000
0001
0000
0100
0000
1000
0000
0100
0000
0001
1000
0001
1000
0001
0000
0010
0000
0110
0000
0000
0000
0000
0000
0000
0000
,  // measure 68
0001
0101
0000
1010
0000
0011
2002
0000
,  // measure 69
0000
0000
0000
0000
,  // measure 70
0000
0000
0000
3003
0101
0000
1100
0100
,  // measure 71
1000
0010
1000
0010
0100
0000
0001
0000
0011
0000
0000
0000
1010
0000
0000
0000
,  // measure 72
1000
0100
1000
0100
0010
0000
0001
0000
0100
0000
1000
0000
0100
0000
0001
0000
,  // measure 73
0010
1000
0010
0001
0100
0010
0001
0010
,  // measure 74
1000
0000
0100
0010
0100
0000
0000
0000
1100
0000
0000
0000
0101
0000
0100
0000
,  // measure 75
0001
0010
0001
0010
0100
0000
1000
0000
1010
0000
0000
0000
0011
0000
0000
0000
,  // measure 76
0001
0000
0000
0100
0000
0000
0001
0000
0000
0100
0000
0000
0010
0000
0000
0000
0000
0000
1000
0000
0000
0000
0000
0000
2200
0000
0000
0000
0000
0000
0000
0000
3300
0000
0000
0000
0000
0000
0000
0000
0000
0000
0011
0000
0000
0000
0000
0000
,  // measure 77
1001
2010
0000
3010
0100
1000
0100
0001
,  // measure 78
0010
0000
0100
0000
1000
0000
1000
0000
0010
0000
0010
0000
0100
0001
0100
0001
,  // measure 79
1000
0000
1000
0000
0001
0000
0001
0000
0010
0000
0001
1000
0001
0000
0100
0000
,  // measure 80
1000
0000
0100
0000
0110
0000
0000
0101
0000
0000
1001
0000
1001
0000
0000
1100
,  // measure 81
0000
0011
0001
1000
0010
0100
0101
1100
,  // measure 82
0001
0000
0001
0000
0100
0000
0100
0000
0010
1000
0010
1000
0001
0000
0001
0000
,  // measure 83
1000
0000
1000
0000
0100
0000
0010
0001
0010
0000
0100
0000
1000
0000
0010
0000
,  // measure 84
0202
0000
0000
0000
0303
0000
0000
0000
0000
1010
0000
0000
1001
0000
0000
0021
0000
0000
0000
0000
0000
0230
0000
0000
,  // measure 85
0000
0000
0310
0001
0101
0000
0000
1100
,  // measure 86
0000
0000
0101
0000
1000
0100
0001
0001
,  // measure 87
0100
1000
0010
0100
0101
0000
0000
1010
,  // measure 88
0000
0000
0011
0000
0000
1010
0000
0000
,  // measure 89
1100
0000
0011
0000
0101
0000
0000
1100
,  // measure 90
0000
0000
1010
0000
0000
0001
0100
0100
,  // measure 91
1000
0000
0100
0000
0001
0100
0001
0000
1001
0000
0000
0000
0000
0000
0011
0000
,  // measure 92
1001
0101
2020
0000
0000
0000
3030
0000
;

//---------------dance-single - ----------------
#NOTEDATA:;
#CHARTNAME:;
#STEPSTYPE:dance-single;
#DESCRIPTION:;
#CHARTSTYLE:;
#DIFFICULTY:Hard;
#METER:14;
#RADARVALUES:0.776042,0.843018,0.810002,0.431414,0.079239,617.000000,525.000000,92.000000,49.000000,4.000000,0.000000,0.000000,0.000000,0.000000,0.776042,0.843018,0.810002,0.431414,0.079239,617.000000,525.000000,92.000000,49.000000,4.000000,0.000000,0.000000,0.000000,0.000000;
#CREDIT:;
#OFFSET:-0.050870;
#BPMS:0.000000=220.000000
,128.000000=110.000000
,144.000000=55.000000
,146.000000=220.000000
,238.000000=110.000000
,240.000000=220.000000
,276.000000=110.000000
,278.000000=220.000000
,282.000000=495.000000
,288.000000=330.000000
,288.500000=110.000000
,289.000000=220.000000
;
#STOPS:;
#DELAYS:;
#WARPS:;
#TIMESIGNATURES:0.000000=4=4
;
#TICKCOUNTS:0.000000=4
;
#COMBOS:0.000000=1
;
#SPEEDS:0.000000=1.000000=0.000000=0
;
#SCROLLS:0.000000=1.000000
;
#FAKES:;
#LABELS:0.000000=Song Start
;
#DISPLAYBPM:55.000000:220.000000;
#NOTES:
// measure 0
0000
0000
0000
0000
,  // measure 1
0000
0000
0000
0000
,  // measure 2
0000
0000
0000
0000
,  // measure 3
0000
0000
0000
0000
,  // measure 4
1001
0000
1000
0000
0100
1000
0001
0200
,  // measure 5
0000
0301
0001
0000
0100
0001
1000
0100
,  // measure 6
0110
0110
1001
1001
,  // measure 7
1000
0010
0100
0001
0000
2002
0000
3003
,  // measure 8
1100
0000
0000
1100
0000
0000
1100
0000
,  // measure 9
0001
0100
0001
0100
1000
0100
0001
0010
,  // measure 10
0011
0000
0000
1100
0000
0000
1010
0000
,  // measure 11
0000
0101
0000
0000
0011
0000
1100
0000
,  // measure 12
0101
0000
0000
0101
0000
0000
0101
0000
,  // measure 13
1000
0100
1000
0100
0001
0100
0010
0100
,  // measure 14
1100
0000
0000
1010
0000
0000
0101
0000
,  // measure 15
0000
0011
0000
0000
1001
0000
MMMM
0000
,  // measure 16
0101
0000
1010
0000
1000
0100
0010
0000
,  // measure 17
0001
0100
0010
0100
1000
0100
0010
0000
,  // measure 18
1000
0000
0000
0010
0000
0000
1000
0000
0100
0000
0010
0000
0100
0000
1000
0000
,  // measure 19
0001
0000
0000
0010
0000
0000
0001
0000
0100
0000
0010
0000
1000
0000
0000
0000
,  // measure 20
1100
0000
0011
0000
0001
0100
0010
0000
,  // measure 21
1000
0100
0010
0100
0001
0100
0010
0000
,  // measure 22
0001
0000
0000
1000
0000
0000
0001
0000
0100
0000
0010
0000
1000
0000
0001
0000
,  // measure 23
0200
2300
3200
0302
,  // measure 24
1003
0100
1000
0100
0010
0001
0100
0010
,  // measure 25
1010
0000
0000
1010
0000
0000
1010
0000
1000
0000
0001
0000
0010
0000
0000
0000
,  // measure 26
0001
0100
0001
0100
0010
1000
0100
0010
,  // measure 27
0001
0000
0011
0000
0000
1001
0000
0000
0000
0000
0001
0000
0100
0000
0010
0000
,  // measure 28
1010
0000
0101
0000
1000
0100
0010
0000
,  // measure 29
0001
0100
0010
0100
1000
0100
0001
0000
,  // measure 30
1000
0100
0010
0100
1000
0100
0010
0100
,  // measure 31
2000
0000
0000
3020
0000
0000
0130
0000
,  // measure 32
0002
0000
0000
0000
0000
0000
1003
0100
0020
0000
0000
0000
0032
0000
0000
0000
,  // measure 33
0203
0000
0000
2300
0000
0000
3200
0000
0302
0000
0000
0013
0100
0000
0010
0000
,  // measure 34
0002
0000
0100
0000
0103
0000
0010
1000
0002
0000
1003
0000
2000
0000
3001
0000
,  // measure 35
0020
0000
0130
2000
0000
3001
0200
0000
0320
0000
1030
0002
0000
0013
0200
0000
,  // measure 36
2300
0000
0000
0000
3000
0000
0100
0010
1001
0000
0000
0000
0001
0000
0100
0000
,  // measure 37
1000
0100
0001
0010
0001
0000
0011
0000
,  // measure 38
0001
0010
1000
0010
0001
0100
0001
0100
,  // measure 39
0010
1000
0010
1000
0001
1000
0100
1000
,  // measure 40
0010
0100
0001
0000
1001
0000
1000
0100
,  // measure 41
0001
0100
1000
0010
1000
0000
1010
0000
,  // measure 42
1000
0000
0010
0000
0001
0000
0010
0000
2000
0000
0000
0000
0000
3000
1010
0000
,  // measure 43
0000
1001
0000
0021
0000
0230
0000
0000
,  // measure 44
0310
0000
0001
0000
1001
0000
1000
0100
,  // measure 45
0001
0100
0010
0001
0100
0000
1010
0000
,  // measure 46
1000
0010
0001
0010
1000
0100
1000
0100
,  // measure 47
0010
0001
0010
0001
1000
0001
0100
0001
,  // measure 48
0010
0100
1000
0000
1001
0000
0001
0100
,  // measure 49
1000
0100
0010
1000
0001
0000
0011
0000
,  // measure 50
0001
0010
1000
0010
0002
0000
0003
0011
,  // measure 51
0000
1001
0000
1020
0000
0230
0000
0000
,  // measure 52
0310
1000
0101
1100
,  // measure 53
1000
0010
1000
0000
0001
0010
0001
0010
,  // measure 54
0100
0010
0001
0000
1000
0010
1000
0010
,  // measure 55
0100
0010
0001
0010
0100
0010
1000
0001
,  // measure 56
0020
0030
0200
0300
1100
0000
0101
0000
,  // measure 57
0001
0010
0001
0000
1000
0010
1000
0010
,  // measure 58
0100
0010
1000
0000
0001
0010
0001
1000
,  // measure 59
0001
0100
0001
1000
0200
0300
0220
0330
,  // measure 60
1001
0000
1000
0000
1000
0010
1000
0000
,  // measure 61
1000
0010
1000
0100
1000
0010
1000
0000
,  // measure 62
0001
0000
0000
0010
0000
0000
0100
0000
0010
0000
0001
0000
1000
0000
0010
0000
,  // measure 63
0100
0000
0000
0010
0000
0000
1000
0000
0010
0000
1000
0000
0001
0000
0000
0000
,  // measure 64
1001
0000
0001
0000
0001
0010
0001
0000
,  // measure 65
0001
0010
0001
0100
0001
0010
0001
0000
,  // measure 66
1000
0010
0100
0010
1000
0010
0100
0010
,  // measure 67
2000
0000
3100
0010
1002
0000
0103
0000
,  // measure 68
1001
0000
0001
0100
1000
0100
1000
0100
,  // measure 69
0002
0000
0000
0003
1001
0000
0000
1100
,  // measure 70
0000
0011
0000
1001
0020
0000
0000
0000
,  // measure 71
0000
0000
0000
0000
,  // measure 72
0000
0030
1001
0000
0001
0010
0100
0010
,  // measure 73
0001
0100
1000
0000
1100
0000
1000
0100
,  // measure 74
0001
0010
0100
1000
0100
1000
0001
0100
,  // measure 75
0001
0100
0010
1000
0001
0010
0100
1000
,  // measure 76
0001
0000
1001
0000
1000
0010
0100
0010
,  // measure 77
1000
0100
0001
0000
0101
0000
0001
0100
,  // measure 78
1000
0010
2000
0000
3000
1010
0000
1001
,  // measure 79
0000
0021
0000
0130
1000
0000
0110
0000
,  // measure 80
1001
0000
0001
0100
0001
0100
1000
0100
,  // measure 81
1000
0100
0001
0010
0001
0010
1000
0010
,  // measure 82
1000
0000
0010
0000
0001
0000
0000
0001
0000
0000
0100
0000
0100
0000
0000
0100
,  // measure 83
0000
0010
1000
1000
0001
0001
1000
0000
,  // measure 84
0110
0000
1000
0100
1000
0100
0001
0100
,  // measure 85
0001
0100
1000
0010
1000
0010
0001
0010
,  // measure 86
1000
0000
2200
0000
3300
0011
0000
1001
,  // measure 87
0000
1020
0000
0230
0000
0000
0301
0000
,  // measure 88
1000
0000
1100
0000
0000
0011
0000
0000
,  // measure 89
1100
0000
0001
0100
0010
0100
1000
0100
,  // measure 90
0010
0100
0101
0000
0000
1010
0000
0000
,  // measure 91
0101
0000
0000
0011
0000
0000
1100
0000
,  // measure 92
0011
0000
1001
0000
0000
1010
0000
0000
,  // measure 93
1001
0000
0000
1000
0100
0010
0100
1000
,  // measure 94
0001
0100
0110
0000
0000
1001
0000
0110
,  // measure 95
0000
1001
2002
0000
0000
0000
3003
0000
;

//---------------dance-single - ----------------
#NOTEDATA:;
#CHARTNAME:;
#STEPSTYPE:dance-single;
#DESCRIPTION:;
#CHARTSTYLE:;
#DIFFICULTY:Medium;
#METER:10;
#RADARVALUES:0.583604,0.709082,0.360979,0.405001,0.013207,464.000000,423.000000,41.000000,46.000000,4.000000,0.000000,0.000000,0.000000,0.000000,0.583604,0.709082,0.360979,0.405001,0.013207,464.000000,423.000000,41.000000,46.000000,4.000000,0.000000,0.000000,0.000000,0.000000;
#CREDIT:;
#OFFSET:-0.050870;
#BPMS:0.000000=220.000000
,128.000000=110.000000
,148.000000=220.000000
,240.000000=110.000000
,242.000000=220.000000
,278.000000=110.000000
,280.000000=220.000000
;
#STOPS:284.000000=0.818177
;
#DELAYS:;
#WARPS:;
#TIMESIGNATURES:0.000000=4=4
;
#TICKCOUNTS:0.000000=4
;
#COMBOS:0.000000=1
;
#SPEEDS:0.000000=1.000000=0.000000=0
;
#SCROLLS:0.000000=1.000000
;
#FAKES:;
#LABELS:0.000000=Song Start
;
#DISPLAYBPM:55.000000:220.000000;
#NOTES:
// measure 0
0000
0000
0000
0000
,  // measure 1
0000
0000
0000
0000
,  // measure 2
0000
0000
0000
0000
,  // measure 3
0000
0000
0000
0000
,  // measure 4
1001
0001
0100
0100
,  // measure 5
0010
0010
1000
1000
,  // measure 6
0011
0011
1100
1100
,  // measure 7
0001
1000
0001
1000
0000
2001
0000
0000
,  // measure 8
3100
0000
0000
0100
0000
0000
0100
0000
,  // measure 9
1000
0000
1000
0000
0001
0100
0010
0000
,  // measure 10
1000
0000
0000
1000
0000
0000
1000
0000
,  // measure 11
0000
1000
0000
0000
0010
0000
0010
0000
,  // measure 12
0100
0000
0000
0100
0000
0000
0100
0000
,  // measure 13
0001
0000
0001
0000
1000
0100
0010
0000
,  // measure 14
0001
0000
0000
0001
0000
0000
0001
0000
,  // measure 15
0000
0001
0000
0000
0001
0000
MMMM
0000
,  // measure 16
1000
0000
1000
0000
0010
0100
0010
0000
,  // measure 17
1000
0010
1000
0000
0001
0010
0001
0000
,  // measure 18
1000
0000
1000
0000
0010
1000
0001
0010
,  // measure 19
0001
0000
0001
0000
0010
0001
0100
0000
,  // measure 20
0001
0000
0001
0000
0010
0100
0010
0000
,  // measure 21
0001
0010
0001
0000
1000
0010
1000
0000
,  // measure 22
0100
0000
0100
0000
0010
0100
1000
0001
,  // measure 23
0200
0320
2030
3002
,  // measure 24
1003
0100
1000
0000
0001
0100
0001
0000
,  // measure 25
1002
0000
0013
0010
,  // measure 26
0001
0100
0001
0000
1000
0100
1000
0000
,  // measure 27
2002
0000
0000
0000
0000
3003
0000
0000
0000
0000
1000
0000
0001
0000
0000
0000
,  // measure 28
0010
0000
0010
0000
0001
1000
0001
0000
,  // measure 29
1000
0010
1000
0000
0001
0010
0001
0000
,  // measure 30
0100
0010
0100
0010
0100
0010
0100
0010
,  // measure 31
0200
0000
0000
0302
0000
0000
1003
0000
,  // measure 32
0200
0000
0000
0000
0000
0000
1300
0001
2000
0000
0000
0000
3020
0000
0000
0000
,  // measure 33
0230
0000
0000
0302
0000
0000
2003
0000
3200
0000
0000
0310
0001
0000
1000
0000
,  // measure 34
0001
0100
1000
1000
0100
0001
0010
0010
,  // measure 35
0100
1000
0010
0001
0010
1000
0100
0010
,  // measure 36
0002
0000
0000
0000
0003
0000
0001
1000
,  // measure 37
0100
0000
0100
0000
1000
0001
1000
0000
,  // measure 38
0010
0000
0010
0000
1000
0001
1000
0000
,  // measure 39
0001
0010
1000
0010
,  // measure 40
0001
0100
0010
1000
,  // measure 41
0001
0000
0001
0000
0010
0100
0010
0000
,  // measure 42
0001
0000
0001
0000
1000
0010
1000
0000
,  // measure 43
0202
0000
0303
1001
0000
1001
0000
2001
,  // measure 44
0000
0200
3000
0000
1300
0000
0001
0000
,  // measure 45
0100
0000
0100
0000
0001
1000
0001
0000
,  // measure 46
0010
0000
0010
0000
0001
1000
0001
0000
,  // measure 47
1000
0010
0001
0010
,  // measure 48
1000
0100
0010
0001
,  // measure 49
1000
0000
1000
0000
0010
0100
0010
0000
,  // measure 50
1000
0000
1000
0000
0001
0010
0001
0000
,  // measure 51
2200
0000
3300
1001
0000
1001
0000
1002
,  // measure 52
0000
0200
0003
0000
0310
0000
1000
0000
,  // measure 53
1001
0000
1001
0000
1000
0100
1000
0000
,  // measure 54
0001
0100
0001
0000
1000
0100
1000
0000
,  // measure 55
0010
0001
0010
1000
,  // measure 56
0100
0010
0001
0001
,  // measure 57
1001
0000
1001
0000
0001
0100
0001
0000
,  // measure 58
1000
0100
1000
0000
0001
0100
0001
0000
,  // measure 59
0010
1000
0010
0001
,  // measure 60
0200
0300
0220
0330
1001
0000
1000
0000
,  // measure 61
1000
0010
1000
0000
1000
0001
1000
0000
,  // measure 62
1000
0100
1000
0000
0001
0000
0010
0000
,  // measure 63
0001
1000
0001
1000
0001
0000
0100
0000
,  // measure 64
0001
1000
0100
0000
1001
0000
0001
0000
,  // measure 65
0001
0010
0001
0000
0001
1000
0001
0000
,  // measure 66
0001
0100
0001
0000
0010
0100
0010
0100
,  // measure 67
0010
0100
0010
0100
0020
0000
0031
1000
,  // measure 68
0010
0110
1001
0001
,  // measure 69
1000
0001
1000
0000
0200
0000
0300
0000
,  // measure 70
1001
0000
0000
1010
0000
1010
0000
0001
,  // measure 71
0020
0000
0031
0000
0001
0000
1000
0010
,  // measure 72
1000
0000
0001
0000
0001
0000
1000
0100
,  // measure 73
1000
0001
0100
1000
,  // measure 74
0100
0001
0010
0100
,  // measure 75
1000
0000
0001
0000
0001
0000
1000
0100
,  // measure 76
0010
0000
0001
0000
0001
0000
0100
0010
,  // measure 77
1000
0000
0220
0000
0330
1001
0000
1001
,  // measure 78
0000
2002
0000
0000
3003
0000
1000
0000
,  // measure 79
0001
0000
1000
0010
1000
0000
0001
0010
,  // measure 80
0001
0000
1000
0100
1000
0000
0001
0100
,  // measure 81
0001
0000
0000
0000
2200
0000
0000
3300
0000
0000
0002
0000
0200
0000
0000
0303
,  // measure 82
0000
1000
0100
1000
0100
1000
0001
0000
,  // measure 83
1001
0000
0001
0010
0001
0000
0100
0001
,  // measure 84
0100
0000
0010
1000
0010
0000
1000
0100
,  // measure 85
1000
0000
0022
0000
0033
1010
0000
1010
,  // measure 86
0000
2010
0000
0002
3000
0000
0013
0000
,  // measure 87
0100
0000
1000
0000
0000
1000
0000
0000
,  // measure 88
1000
0000
0010
0000
0010
0000
1000
0001
,  // measure 89
1000
0000
0100
0000
0000
0100
0000
0000
,  // measure 90
0100
0000
0000
0100
0000
0000
0010
0000
,  // measure 91
0010
0000
0001
0000
0000
0001
0000
0000
,  // measure 92
0001
0000
0000
0100
0010
0000
0100
0010
,  // measure 93
0100
0000
1001
0000
0000
1001
0000
1001
,  // measure 94
0000
0200
0020
0000
0000
0000
0330
0000
;

//---------------dance-single - ----------------
#NOTEDATA:;
#CHARTNAME:;
#STEPSTYPE:dance-single;
#DESCRIPTION:;
#CHARTSTYLE:;
#DIFFICULTY:Easy;
#METER:8;
#RADARVALUES:0.389908,0.709082,0.140870,0.308153,0.000000,310.000000,294.000000,16.000000,35.000000,4.000000,0.000000,0.000000,0.000000,0.000000,0.389908,0.709082,0.140870,0.308153,0.000000,310.000000,294.000000,16.000000,35.000000,4.000000,0.000000,0.000000,0.000000,0.000000;
#CREDIT:;
#OFFSET:-0.050870;
#BPMS:0.000000=220.000000
,128.000000=110.000000
,148.000000=220.000000
,240.000000=110.000000
,242.000000=220.000000
,278.000000=110.000000
,280.000000=220.000000
;
#STOPS:284.000000=0.818177
;
#DELAYS:;
#WARPS:;
#TIMESIGNATURES:0.000000=4=4
;
#TICKCOUNTS:0.000000=4
;
#COMBOS:0.000000=1
;
#SPEEDS:0.000000=1.000000=0.000000=0
;
#SCROLLS:0.000000=1.000000
;
#FAKES:;
#LABELS:0.000000=Song Start
;
#DISPLAYBPM:55.000000:220.000000;
#NOTES:
// measure 0
0000
0000
0000
0000
,  // measure 1
0000
0000
0000
0000
,  // measure 2
0000
0000
0000
0000
,  // measure 3
0000
0000
0000
0000
,  // measure 4
1001
0000
0100
0000
,  // measure 5
0100
0000
0100
0000
,  // measure 6
0100
0100
0100
0100
,  // measure 7
1001
0000
0000
0010
0000
1001
0000
0000
,  // measure 8
0001
0000
0000
0001
0000
0000
0001
0000
,  // measure 9
1000
0010
0100
0001
,  // measure 10
1000
0000
0000
1000
0000
0000
0001
0000
,  // measure 11
0000
0001
0000
0000
1000
0000
0001
0000
,  // measure 12
0010
0000
0000
0010
0000
0000
0010
0000
,  // measure 13
0001
0010
0100
1000
,  // measure 14
0001
0000
0000
0001
0000
0000
1000
0000
,  // measure 15
0000
1000
0000
0000
1001
0000
MMMM
0000
,  // measure 16
1000
0000
0001
0000
,  // measure 17
1000
0010
0100
0000
,  // measure 18
0001
0001
0010
0010
,  // measure 19
0001
0001
0100
0000
,  // measure 20
0001
0000
1000
0000
,  // measure 21
0001
0010
0100
0000
,  // measure 22
1000
1000
0010
0010
,  // measure 23
0200
0320
2030
3002
,  // measure 24
0013
0100
0010
0000
,  // measure 25
2002
0000
3003
0000
,  // measure 26
0010
0100
0010
0000
,  // measure 27
2002
0000
3003
0000
,  // measure 28
1000
0000
0001
0000
,  // measure 29
1000
0010
0100
0000
,  // measure 30
0001
1000
0001
1000
,  // measure 31
0200
0000
0310
0001
,  // measure 32
0200
0000
0000
0310
0020
0000
2030
0000
,  // measure 33
3002
0023
0230
2300
,  // measure 34
3001
0100
0001
0100
1000
0100
1000
0100
,  // measure 35
0001
0010
1000
0010
0001
0100
1000
0100
,  // measure 36
0002
0000
0003
0000
0000
0000
0001
0001
,  // measure 37
1000
0010
1000
0010
,  // measure 38
1000
0001
0010
0001
,  // measure 39
2000
0000
0100
0000
,  // measure 40
3100
1000
0001
0000
,  // measure 41
0001
0010
0001
0010
,  // measure 42
0001
1000
0010
0100
,  // measure 43
0020
0000
0000
0100
0000
0100
0000
0200
,  // measure 44
0000
0330
0010
1000
,  // measure 45
0001
0010
0001
0010
,  // measure 46
0001
1000
0010
1000
,  // measure 47
0002
0000
0100
0000
,  // measure 48
0103
0001
1000
0000
,  // measure 49
1000
0010
1000
0010
,  // measure 50
1000
0001
0010
0100
,  // measure 51
0020
0000
0000
0100
0000
0100
0000
0200
,  // measure 52
0000
0330
0010
0001
,  // measure 53
1000
0000
0001
0000
,  // measure 54
1000
0001
1000
0000
,  // measure 55
1000
0010
1000
0100
,  // measure 56
1000
0010
1000
1000
,  // measure 57
0001
0000
1000
0000
,  // measure 58
0001
1000
0001
0000
,  // measure 59
0010
0001
0100
0001
,  // measure 60
2000
3000
0001
0000
,  // measure 61
0001
0000
0001
0001
,  // measure 62
0001
0000
1000
0010
,  // measure 63
1000
0000
0001
0010
,  // measure 64
0001
0000
1000
0000
,  // measure 65
1000
0000
1000
1000
,  // measure 66
1000
0000
0001
1000
,  // measure 67
0001
1000
0200
0300
,  // measure 68
1001
0100
1000
1000
,  // measure 69
0001
0001
0200
0300
,  // measure 70
1001
0000
0000
1001
0000
1001
0000
0000
,  // measure 71
1001
0001
0010
0001
,  // measure 72
0010
0001
1000
0010
,  // measure 73
0100
0002
0000
0100
,  // measure 74
0000
0103
0001
1000
,  // measure 75
0000
1000
0010
0100
,  // measure 76
0001
1000
0001
0010
,  // measure 77
0100
0000
0020
0000
0000
0100
0000
0100
,  // measure 78
0000
0200
0000
0000
0330
0000
0010
0000
,  // measure 79
0001
1000
1000
0010
,  // measure 80
0010
0001
0001
0100
,  // measure 81
0100
0000
2000
0000
0000
3000
0002
0000
,  // measure 82
0000
0003
0100
0000
0010
0000
1001
0000
,  // measure 83
0000
0001
0001
0010
,  // measure 84
0010
1000
1000
0100
,  // measure 85
0100
0000
0002
0000
0000
1000
0000
1000
,  // measure 86
0000
2000
0000
0000
3003
0000
0001
0000
,  // measure 87
0100
0000
0010
0000
0000
0010
0000
0000
,  // measure 88
0010
1000
0010
0100
,  // measure 89
0001
0000
0010
0000
0000
0010
0000
0000
,  // measure 90
0100
0000
0000
0100
0000
0000
0010
0000
,  // measure 91
0001
0000
1000
0000
0000
1000
0000
0000
,  // measure 92
1000
0000
1000
0010
,  // measure 93
0100
0000
0101
0000
0000
1001
0000
1001
,  // measure 94
0000
2002
0000
3003
;

//---------------dance-single - ----------------
#NOTEDATA:;
#CHARTNAME:;
#STEPSTYPE:dance-single;
#DESCRIPTION:;
#CHARTSTYLE:;
#DIFFICULTY:Beginner;
#METER:4;
#RADARVALUES:0.208789,0.402139,0.052826,0.325762,0.000000,166.000000,160.000000,6.000000,37.000000,0.000000,0.000000,0.000000,0.000000,0.000000,0.208789,0.402139,0.052826,0.325762,0.000000,166.000000,160.000000,6.000000,37.000000,0.000000,0.000000,0.000000,0.000000,0.000000;
#CREDIT:;
#OFFSET:-0.050870;
#BPMS:0.000000=220.000000
;
#STOPS:;
#DELAYS:;
#WARPS:;
#TIMESIGNATURES:0.000000=4=4
;
#TICKCOUNTS:0.000000=4
;
#COMBOS:0.000000=1
;
#SPEEDS:0.000000=1.000000=0.000000=0
;
#SCROLLS:0.000000=1.000000
;
#FAKES:;
#LABELS:0.000000=Song Start
;
#DISPLAYBPM:55.000000:220.000000;
#NOTES:
// measure 0
0000
0000
0000
0000
,  // measure 1
0000
0000
0000
0000
,  // measure 2
0000
0000
0000
0000
,  // measure 3
0000
0000
0000
0000
,  // measure 4
1001
0000
0000
0000
,  // measure 5
1000
0000
0000
0000
,  // measure 6
1001
0000
0000
0000
,  // measure 7
0001
0000
0000
0000
,  // measure 8
2000
0000
0000
0000
,  // measure 9
3000
0000
0000
0000
,  // measure 10
0200
0000
0000
0000
,  // measure 11
0000
0000
0000
0300
,  // measure 12
0020
0000
0000
0000
,  // measure 13
0030
0000
0000
0000
,  // measure 14
0002
0000
0000
0000
,  // measure 15
0000
0000
0000
0003
,  // measure 16
1000
0000
1000
0000
,  // measure 17
0001
0000
0001
0000
,  // measure 18
1000
0000
0100
0000
,  // measure 19
1000
0000
0010
0000
,  // measure 20
1000
0000
1000
0000
,  // measure 21
0001
0000
0001
0000
,  // measure 22
0010
0000
0001
0000
,  // measure 23
0200
0000
0300
0000
,  // measure 24
0001
0000
1000
0000
,  // measure 25
0002
0000
0003
0000
,  // measure 26
0010
0000
0100
0000
,  // measure 27
0020
0000
0030
0000
,  // measure 28
0001
0000
0001
0000
,  // measure 29
1000
0000
1000
0000
,  // measure 30
0001
0000
1000
0000
,  // measure 31
0200
0000
0300
0000
,  // measure 32
2000
0000
3000
0000
,  // measure 33
0010
0000
0010
0000
,  // measure 34
0020
0000
0030
0000
,  // measure 35
0200
0000
0300
0000
,  // measure 36
0002
0000
0003
0000
,  // measure 37
0010
0000
0010
0000
,  // measure 38
0020
0000
0030
0000
,  // measure 39
0002
0000
0003
0000
,  // measure 40
0200
0000
0000
0000
,  // measure 41
0300
0000
0000
0000
,  // measure 42
0010
0010
0010
0000
,  // measure 43
0010
0010
0010
0000
,  // measure 44
2000
0000
3000
0000
,  // measure 45
0001
0000
0001
0000
,  // measure 46
0010
0010
0010
0000
,  // measure 47
0010
0010
0010
0000
,  // measure 48
0002
0000
0000
0003
0000
0000
0000
2000
,  // measure 49
0000
0000
3000
0000
,  // measure 50
0001
0001
0001
0000
,  // measure 51
0001
0001
0001
0000
,  // measure 52
0200
0000
0300
0000
,  // measure 53
0010
0000
1000
0000
,  // measure 54
0100
0100
0100
0000
,  // measure 55
0100
0100
0100
0000
,  // measure 56
2000
0000
0000
3000
0000
0000
0000
0002
,  // measure 57
0000
0000
0003
0000
,  // measure 58
1000
0000
1000
0000
,  // measure 59
0001
0000
0001
0000
,  // measure 60
0100
0000
0010
0000
,  // measure 61
0100
0000
0010
0000
,  // measure 62
1000
0000
1000
0000
,  // measure 63
0001
0000
0001
0000
,  // measure 64
0010
0000
0100
0000
,  // measure 65
0020
0000
0030
0000
,  // measure 66
0001
0000
0001
0000
,  // measure 67
0001
0000
0001
0000
,  // measure 68
0100
0000
0010
0000
,  // measure 69
0100
0000
0010
0000
,  // measure 70
1000
0000
1000
0000
,  // measure 71
1000
0000
1000
0000
,  // measure 72
0001
0000
1000
0000
,  // measure 73
0200
0000
0300
0000
,  // measure 74
0110
0000
0000
0000
,  // measure 75
0002
0000
0003
0000
,  // measure 76
0110
0000
0000
0000
,  // measure 77
2002
0000
3003
0000
,  // measure 78
1000
1000
1000
0000
,  // measure 79
1000
1000
1000
0000
,  // measure 80
0200
0000
0300
0000
,  // measure 81
0010
0000
0001
0000
,  // measure 82
0100
0100
0100
0000
,  // measure 83
0100
0100
0100
0000
,  // measure 84
0002
0000
0000
0003
0000
0000
0000
2000
,  // measure 85
0000
0000
3000
0000
,  // measure 86
0001
0100
0001
0100
,  // measure 87
0001
0100
0001
0100
,  // measure 88
0001
0000
0001
0000
,  // measure 89
1000
0001
1000
0000
,  // measure 90
1000
0100
1000
0100
,  // measure 91
1000
0100
1000
0100
,  // measure 92
2000
0000
0000
3000
0000
0000
0000
0002
,  // measure 93
0000
0000
0003
0000
,  // measure 94
2000
0000
0000
0000
,  // measure 95
3000
0000
0000
0000
,  // measure 96
0020
0000
0000
0000
,  // measure 97
0000
0000
0000
0030
,  // measure 98
0200
0000
0000
0000
,  // measure 99
0000
0300
0000
0000
,  // measure 100
0002
0000
0003
0000
,  // measure 101
2002
0000
3003
0000
;
