#VERSION:0.83;
#TITLE:TITANS RETURN;
#SUBTITLE:;
#ARTIST:L.E.D.;
#TITLETRANSLIT:;
#SUBTITLETRANSLIT:;
#ARTISTTRANSLIT:;
#GENRE:Drumstep;
#ORIGIN:;
#CREDIT:;
#BANNER:TITANS RETURN.png;
#BACKGROUND:TITANS RETURN-bg.png;
#PREVIEWVID:;
#JACKET:TITANS RETURN-jacket.png;
#CDIMAGE:;
#DISCIMAGE:;
#LYRICSPATH:;
#CDTITLE:cdtitle.png;
#MUSIC:TITANS RETURN.ogg;
#OFFSET:-0.066206;
#SAMPLESTART:21.097134;
#SAMPLELENGTH:9.896908;
#SELECTABLE:YES;
#BPMS:0.000=194.000,
120.000=97.000,
136.000=194.000,
216.000=97.000,
232.000=194.000;
#STOPS:103.000=1.237,
107.000=1.546,
111.500=0.928;
#DELAYS:;
#WARPS:;
#TIMESIGNATURES:0.000=4=4;
#TICKCOUNTS:0.000=4;
#COMBOS:0.000=1;
#SPEEDS:0.000=1.000=0.000=0;
#SCROLLS:0.000=1.000;
#FAKES:;
#LABELS:0.000=Song Start;
#BGCHANGES:;
#KEYSOUNDS:;
#ATTACKS:
;

//---------------dance-single - ----------------
#NOTEDATA:;
#CHARTNAME:;
#STEPSTYPE:dance-single;
#DESCRIPTION:;
#CHARTSTYLE:;
#DIFFICULTY:Challenge;
#METER:15;
#RADARVALUES:0.797444,1.051902,0.611738,0.200726,0.549608,584.000000,520.000000,64.000000,21.000000,4.000000,0.000000,0.000000,0.000000,0.000000,0.797444,1.051902,0.611738,0.200726,0.549608,584.000000,520.000000,64.000000,21.000000,4.000000,0.000000,0.000000,0.000000,0.000000;
#CREDIT:;
#NOTES:
// measure 0
0000
0000
0000
0000
,  // measure 1
0000
0000
0000
0000
,  // measure 2
0000
0000
0000
0000
,  // measure 3
0000
0000
0000
0000
,  // measure 4
0000
0000
0000
0000
,  // measure 5
1000
0100
0010
0001
0000
0100
0010
1000
,  // measure 6
0100
0010
0001
0100
0000
0010
0100
0001
,  // measure 7
1000
0100
1000
0100
0001
0100
0001
0100
,  // measure 8
1000
0100
1000
0100
0010
0001
0010
0001
1000
0001
1000
0001
0100
0000
0000
0000
,  // measure 9
0010
0000
1000
0000
1001
0000
0000
0001
0000
0000
1000
0000
1010
0000
0000
0000
,  // measure 10
0001
0000
0010
0000
0011
0000
0000
0001
0000
0001
1000
0000
1010
0000
0000
0000
,  // measure 11
0100
0000
0001
0000
1001
0000
0000
1000
0000
0000
0001
0000
0101
0000
0000
0000
,  // measure 12
0001
0000
1000
0000
1100
0000
0000
0010
0000
0100
0010
0000
1001
0000
0000
0000
,  // measure 13
0001
0000
0100
0000
0110
0000
0000
0010
0000
0000
1000
0000
1001
0000
0000
0000
,  // measure 14
1000
0000
0100
0000
0110
0000
0000
0010
0000
0010
0001
0000
1001
0000
0000
0000
,  // measure 15
0001
0000
1000
0000
1010
0000
0000
0100
0000
0000
0001
0000
0011
0000
0000
0000
,  // measure 16
0100
0000
0000
1001
0000
0000
0100
0000
0000
1010
0000
0000
0101
0000
0000
0001
,  // measure 17
1000
0000
0100
0000
0010
0000
0000
0001
0000
0000
1000
0000
1010
0000
0000
0000
,  // measure 18
0100
0000
0001
0000
0010
0000
0100
1000
0000
1000
0001
0000
0101
0000
0000
0000
,  // measure 19
0010
0000
1000
0000
0100
0000
0000
1000
0000
0000
0010
0000
0110
0000
0000
0000
,  // measure 20
0001
0000
1000
0000
0100
0000
0010
0001
0000
0100
0001
0000
1010
0000
0000
0000
,  // measure 21
0100
0000
0001
0000
0010
0000
0000
0001
0000
0000
0100
0000
0101
0000
0000
0000
,  // measure 22
0010
0000
1000
0000
0100
0000
1000
0001
0000
0001
0100
0000
0110
0000
0000
0000
,  // measure 23
1000
0010
1000
0010
0001
0010
0001
0010
,  // measure 24
1000
0000
0010
0000
0100
0000
0001
0000
1000
0000
0001
0000
0010
0100
0010
0000
,  // measure 25
1001
2002
0000
3003
,  // measure 26
0110
0220
0000
0330
,  // measure 27
1001
0000
0000
2002
0000
0000
0000
3003
,  // measure 28
1001
0001
1000
1001
0001
1000
1001
0001
,  // measure 29
0100
0000
0010
0000
1000
0000
0100
0000
0010
0000
0001
0000
1000
0010
2000
0000
,  // measure 30
3000
0102
1000
1000
0010
0010
1000
1000
,  // measure 31
0103
0000
0000
0000
2100
0000
0000
0000
0001
0000
0000
0000
0001
0000
0000
0000
0010
0000
0000
0000
0010
0000
0000
0000
0001
0000
0000
0000
3001
0000
1000
0001
,  // measure 32
1000
1200
0010
0010
0001
0001
0010
0010
,  // measure 33
1300
0000
0000
0000
0102
0000
0000
0000
0010
0000
0000
0000
0010
0000
0000
0000
1003
0100
1000
0100
1000
0000
0100
0000
0010
0001
0010
0001
0010
0000
0001
0000
,  // measure 34
1000
0000
0100
0000
0011
0000
0000
0001
0000
0000
0100
0000
1010
0000
0000
0000
,  // measure 35
0001
0000
0010
0000
1100
0000
0000
1000
0000
0000
0010
0000
0101
0000
0000
0000
,  // measure 36
1001
0000
0001
0000
0100
0000
0010
1000
0001
0000
1000
0000
0100
0000
1000
0000
,  // measure 37
0001
0100
0001
0100
0010
1000
0010
1000
0001
1000
0001
1000
0100
0000
0000
0000
,  // measure 38
0010
0000
0001
0000
0100
0000
0010
1000
0000
0010
1000
0000
0001
0000
0100
0000
,  // measure 39
0010
0000
1000
0000
0100
0000
0010
0001
0000
0001
1000
0000
1001
0000
0000
0000
,  // measure 40
0001
0000
0100
0000
0010
0000
1000
0100
0000
1000
0100
0000
0010
0000
0100
0000
,  // measure 41
1000
0000
0010
0000
0100
0000
0001
0010
0000
0001
0100
0000
1010
0000
0000
0000
,  // measure 42
0100
0000
0001
0000
0010
0000
0001
0100
0000
0001
0100
0000
0010
0000
1000
0000
,  // measure 43
0100
0000
0010
0000
0001
0000
0100
0010
0000
0100
0010
0000
0110
0000
0000
0000
,  // measure 44
MMMM
0000
0000
0000
1000
0000
0001
0100
0001
0000
1000
0000
1010
0000
0000
0000
,  // measure 45
1000
0000
0100
0000
0001
0000
0100
0000
1000
0000
0001
0000
1000
0100
0010
0000
,  // measure 46
0001
0000
0100
0000
0010
0000
1000
0100
0000
0100
0010
0000
0001
0000
0100
0000
,  // measure 47
0010
0000
1000
0000
0100
0000
1000
0010
0000
0010
0100
0000
0101
0000
0000
0000
,  // measure 48
0001
0000
0010
0000
0100
0000
1000
0010
0000
0010
0100
0000
0010
0000
1000
0000
,  // measure 49
0001
0000
0010
0000
0001
0000
1000
0010
0000
1000
0100
0000
1001
0000
0000
0000
,  // measure 50
0001
0000
0010
0000
0100
0000
0010
0001
0000
0001
0100
0000
0010
0000
1000
0000
,  // measure 51
0100
0000
0010
0000
0001
0000
0100
0010
0000
0010
1000
0000
1001
0000
0000
0000
,  // measure 52
0001
0000
0100
0000
0001
0000
0100
0010
1000
0000
0100
0000
1000
0000
0100
0000
,  // measure 53
0010
0001
0010
0000
0001
0100
0001
0000
1000
0010
1000
0000
0200
0000
0000
0000
,  // measure 54
0300
0012
1000
1000
0100
0100
1000
1000
,  // measure 55
0013
2010
0001
3001
1200
0010
0302
0203
,  // measure 56
1300
0000
0000
1020
0000
0000
0100
0000
0000
0100
0000
0000
0001
0000
0000
0001
0000
0000
0130
0010
0100
0010
0100
0010
,  // measure 57
1000
0000
0000
0000
1200
0000
0000
0000
0010
0000
0000
0000
0310
0000
0000
0000
0001
0010
0001
0010
0001
0000
0010
0000
0100
1000
0100
1000
0100
0000
1000
0000
,  // measure 58
0001
0000
0100
0000
1010
0000
0000
1000
0000
0000
0100
0000
0011
0000
0000
0000
,  // measure 59
0010
0000
0001
0000
1100
0000
0000
1000
0000
0000
0010
0000
0101
0000
0000
0000
,  // measure 60
0001
0100
0001
0100
0001
0100
0001
0100
0010
0000
1000
0000
0010
0000
1000
0000
,  // measure 61
0001
0100
0001
0000
1000
0010
1000
0000
0100
1000
0100
0000
0010
0000
0000
0000
,  // measure 62
0001
0000
0100
0000
0010
0000
0000
1000
0000
0000
0001
0000
1001
0000
0000
0000
,  // measure 63
1000
0000
0010
0000
1000
0000
0001
0100
0000
0100
0010
0000
0110
0000
0000
0000
,  // measure 64
0010
0000
0100
0000
0001
0000
0000
1000
0000
0000
0100
0000
0110
0000
0000
0000
,  // measure 65
0001
0000
1000
0000
0100
0000
1000
0001
0000
0100
0010
0000
1001
0000
0000
0000
,  // measure 66
0001
0000
1000
0000
0010
0000
0000
0100
0000
0000
0001
0000
1001
0000
0000
0000
,  // measure 67
0001
0000
1000
0000
0010
0000
1000
0100
0000
0100
0010
0000
0011
0000
0000
0000
,  // measure 68
0001
0010
0001
0010
1000
0010
1000
0010
,  // measure 69
0001
0010
0001
0010
0100
1000
0100
1000
0001
1000
0001
1000
0010
0000
0000
0000
,  // measure 70
0220
0000
0000
0000
,  // measure 71
0330
0000
0000
0000
;

//---------------dance-single - ----------------
#NOTEDATA:;
#CHARTNAME:;
#STEPSTYPE:dance-single;
#DESCRIPTION:;
#CHARTSTYLE:;
#DIFFICULTY:Hard;
#METER:13;
#RADARVALUES:0.647240,0.780443,0.477920,0.191168,0.066909,474.000000,424.000000,50.000000,20.000000,4.000000,0.000000,0.000000,0.000000,0.000000,0.647240,0.780443,0.477920,0.191168,0.066909,474.000000,424.000000,50.000000,20.000000,4.000000,0.000000,0.000000,0.000000,0.000000;
#CREDIT:;
#NOTES:
0000
0000
0000
0000
,
0000
0000
0000
0000
,
0000
0000
0000
0000
,
0000
0000
0000
0000
,
0000
0000
0000
0000
,
0001
0100
0010
1000
0000
0100
0000
1000
,
0000
0010
0000
0100
0000
0001
1000
0000
,
0100
0010
0100
0010
0001
1000
0001
1000
,
0001
0100
1000
0100
0001
0100
0110
0000
,
1000
0000
0010
1000
0100
0010
0011
0000
,
0001
0010
0001
1000
0010
0100
0101
0000
,
0001
0000
0010
0001
0100
0010
1010
0000
,
1000
0000
0001
0000
1000
0000
0000
0100
0000
0000
0010
0000
1001
0000
0000
0000
,
1000
0000
0010
0100
0001
1000
1100
0000
,
0010
0001
1000
0010
1000
0100
0110
0000
,
0001
0000
0010
0001
1000
0001
0101
0000
,
1000
0000
0000
1001
0000
0000
0001
0000
0000
1001
0000
0000
0110
0000
0000
0000
,
1000
0100
0010
0001
0000
1000
0000
0010
,
1000
0100
0001
0100
1000
0010
0100
0000
,
0001
0100
0010
1000
0000
0100
0000
0010
,
0001
0000
0100
0000
0010
0000
0000
1000
0000
0000
0100
0000
0011
0000
0000
0000
,
0001
0010
0100
1000
0000
0010
0000
1000
,
0100
0010
0001
0100
1000
0100
0001
0000
,
0010
0100
0010
0100
1000
0001
1000
0001
,
0100
0010
1000
0100
0010
0001
0100
0000
,
1001
2002
0000
3003
,
0110
0220
0000
0330
,
1001
0000
0000
2002
0000
0000
0000
3003
,
0001
0001
0001
1000
1000
1000
0001
0001
,
1000
0010
1000
0001
0010
0001
0100
0020
,
0030
2001
0010
0010
0001
0001
0100
0100
,
3001
0000
1002
0000
0010
0000
0010
0000
1000
0000
1000
0000
0100
0000
0103
0001
,
1000
2001
0100
0100
0001
0001
0010
0010
,
3001
0000
1002
0000
0100
0000
0103
0000
0001
0100
1000
0000
1000
0100
0001
0000
,
1000
0100
0010
0000
0001
0100
0110
0000
,
0001
0100
0010
0000
1000
0100
0110
0000
,
0001
0000
1000
0001
0000
1000
0010
1000
,
0001
0100
1000
0100
0001
0100
0110
0000
,
1001
0000
0010
0001
1000
0010
1010
0000
,
1000
0100
0010
0001
0100
0001
1001
0000
,
1000
0000
0010
1000
0001
0010
0011
0000
,
0001
0000
0100
0000
0010
0000
0000
1000
0000
0000
0001
0000
0110
0000
0000
0000
,
0001
0000
1000
0010
0100
0001
1001
0000
,
0001
0100
0010
1000
0100
1000
1001
0000
,
MMMM
0000
1001
0000
0001
0100
0010
0000
,
1000
0000
0100
0001
0000
0100
1000
0000
,
1001
0000
0010
1000
0100
0010
0011
0000
,
0001
0100
1000
0100
0001
0010
0011
0000
,
0001
0000
0010
0001
0100
0010
1010
0000
,
1000
0000
0100
0000
0010
0000
0000
0001
0000
0000
0100
0000
1001
0000
0000
0000
,
1010
0000
0100
0001
0010
0100
1100
0000
,
1000
0010
0001
0010
1000
0100
1100
0000
,
0010
0001
0010
0001
1000
0010
1000
0010
,
0100
0001
0100
1000
0100
0001
2000
0000
,
3000
2001
0010
0010
0100
0100
0010
0010
,
3001
1002
0010
0010
0203
0010
0001
0302
,
1003
0000
2001
0000
0100
0000
0100
0000
0010
0000
0010
0000
3100
1000
0100
1000
,
0001
0000
1002
0000
0100
0000
0103
0000
0001
0010
1000
0000
1000
0010
0001
0000
,
0001
0100
0010
0000
1000
0100
0011
0000
,
1000
0100
0010
0000
0001
0100
1010
0000
,
1000
0100
0010
0001
0100
0010
0100
0010
,
1000
0100
0001
0100
1000
0100
0110
0000
,
0001
0100
0010
1000
0000
0100
0000
0010
,
0001
0100
1000
0100
0001
0010
0100
0000
,
0010
0001
0100
0010
0000
1000
0000
0010
,
1000
0000
0100
0000
0010
0000
0000
0001
0000
0000
0100
0000
1001
0000
0000
0000
,
0001
0010
0100
1000
0000
0010
0000
0100
,
0001
0010
1000
0010
0001
0100
0010
0000
,
1000
0001
1000
0001
0100
0010
0100
0010
,
1000
0100
0001
0100
1000
0100
0010
0000
,
2002
0000
0000
0000
,
3003
0000
0000
0000
;

//---------------dance-single - ----------------
#NOTEDATA:;
#CHARTNAME:;
#STEPSTYPE:dance-single;
#DESCRIPTION:;
#CHARTSTYLE:;
#DIFFICULTY:Medium;
#METER:10;
#RADARVALUES:0.528443,0.576850,0.630854,0.200726,0.000000,387.000000,321.000000,66.000000,21.000000,0.000000,0.000000,0.000000,0.000000,0.000000,0.528443,0.576850,0.630854,0.200726,0.000000,387.000000,321.000000,66.000000,21.000000,0.000000,0.000000,0.000000,0.000000,0.000000;
#CREDIT:;
#NOTES:
0000
0000
0000
0000
,
0000
0000
0000
0000
,
0000
0000
0000
0000
,
0000
0000
0000
0000
,
0000
0000
0000
0000
,
1000
0010
0100
0001
,
0010
0100
0010
0001
,
1000
1000
0001
0001
,
1000
0001
1000
0001
1000
0001
0010
0000
,
0001
0000
0011
0000
0100
1000
0100
0000
,
1000
0000
1010
0000
0100
0001
0100
0000
,
0001
0000
0101
0000
1000
0010
1000
0000
,
0001
0010
0110
1001
,
0001
0000
1010
0000
0001
0100
0001
0000
,
1000
0000
0011
0000
1000
0100
1000
0000
,
0010
0000
1001
0000
0010
0100
0010
0000
,
1000
1001
0110
1001
,
1000
0000
0010
0100
0000
0001
0100
0000
,
0010
0000
1001
0000
0100
0010
1000
0000
,
0100
0000
0010
0001
0000
0010
0100
0000
,
1000
0001
0100
0000
1010
0000
0101
0000
,
1001
0000
0001
0100
0000
0010
0100
0000
,
0010
1000
0001
0000
0010
0000
0110
0000
,
1001
0100
1001
0010
,
1000
0001
1000
0001
0100
0000
0010
0000
,
1001
2002
0000
3003
,
0110
0220
0000
0330
,
1001
0000
0000
2002
0000
0000
0000
3003
,
0011
0000
0000
1100
0000
0000
0101
0000
,
1000
0001
1000
0001
0100
0000
0020
0000
,
0030
2001
0001
0000
0010
0000
0010
0000
,
3001
1002
1000
0000
0010
0000
0010
0000
,
1003
2001
0001
0000
0100
0000
0100
0000
,
3001
1002
1000
0003
0001
0100
0010
1000
,
0101
0000
0011
0000
0100
1000
0010
0000
,
1010
0000
1100
0000
0100
0010
0001
0000
,
1001
0000
0000
1000
0000
0000
0001
0000
,
0100
0010
0100
0010
0100
0010
0100
0000
,
0010
0000
1010
0000
0100
0001
0100
0000
,
0010
1000
0010
0000
0100
0001
0100
0000
,
0010
0000
1001
0000
0100
1000
0100
0000
,
0010
0001
0010
0000
1100
0000
1010
0000
,
0001
0000
0011
0000
1000
0001
1000
0000
,
0010
0100
0010
0000
1000
0001
1000
0000
,
0000
0000
1001
0000
0001
1000
0001
0000
,
0100
0000
0000
0010
0000
0000
0100
0000
,
1001
0000
0101
0000
0100
0010
1000
0000
,
0010
0100
0010
0000
1000
0001
0100
0000
,
0010
0000
1001
0000
1000
0100
0010
0000
,
0001
0010
0001
0000
1100
0000
1010
0000
,
0101
0000
1001
0000
0001
0010
0100
0000
,
1000
0001
1000
0000
0010
0100
0001
0000
,
1001
1000
0001
0001
,
1000
0001
1000
0001
1000
0001
0020
0000
,
0030
2100
0100
0000
0001
0000
0001
0000
,
3100
0102
0100
0000
2003
0000
3001
0002
,
0103
2010
0010
0000
0001
0000
3001
1000
,
0001
0012
0010
0003
1000
0010
0100
0001
,
1010
0000
0101
0000
0100
0010
1000
0000
,
0011
0000
1100
0000
1000
0100
0010
0000
,
0002
1000
1003
0001
,
1000
0001
1000
0001
1000
0001
0010
0000
,
0001
0000
0010
0100
0000
0010
0001
0000
,
0100
0000
1001
0000
0010
1000
0001
0000
,
0100
0000
0010
1000
0000
0001
0100
0000
,
0001
1000
0001
0000
0011
0000
1100
0000
,
1001
0000
0100
0010
0000
0100
1000
0000
,
0100
0010
0001
0000
0100
0000
0110
0000
,
1001
0001
1001
1000
,
0001
1000
0001
1000
0001
1000
0010
0000
,
0220
0000
0000
0000
,
0330
0000
0000
0000
;

//---------------dance-single - ----------------
#NOTEDATA:;
#CHARTNAME:;
#STEPSTYPE:dance-single;
#DESCRIPTION:;
#CHARTSTYLE:;
#DIFFICULTY:Easy;
#METER:6;
#RADARVALUES:0.338641,0.441120,0.191168,0.353661,0.000000,248.000000,228.000000,20.000000,37.000000,0.000000,0.000000,0.000000,0.000000,0.000000,0.338641,0.441120,0.191168,0.353661,0.000000,248.000000,228.000000,20.000000,37.000000,0.000000,0.000000,0.000000,0.000000,0.000000;
#CREDIT:;
#NOTES:
0000
0000
0000
0000
,
0000
0000
0000
0000
,
0000
0000
0000
0000
,
0000
0000
0000
0000
,
0000
0000
0000
0000
,
0001
0000
0010
0000
,
0100
0000
1000
0000
,
0001
0001
1000
1000
,
0010
0010
0010
0100
,
0001
1000
0000
0001
,
1000
0100
0000
0010
,
0001
0100
0000
0010
,
1000
0001
0100
0001
,
1000
0100
0000
0010
,
0100
1000
0000
0010
,
0100
0001
0000
0010
,
0001
1000
0001
0001
,
2000
0100
0000
3100
,
0020
0031
2000
3001
,
0200
0010
0000
0310
,
0100
0001
2000
3001
,
0020
0100
0000
0130
,
0020
0031
2000
3010
,
0100
0100
0001
0001
,
1000
0100
0010
0001
,
1001
2002
0000
3003
,
0110
0220
0000
0330
,
1001
0000
0000
2002
0000
0000
0000
3003
,
1001
0000
0000
1001
0000
0000
1001
0000
,
0001
1000
0100
0020
,
0030
0002
1000
0000
1000
0000
1000
0000
,
1003
0020
0100
0000
0100
0000
0100
0000
,
0130
0002
0010
0000
0010
0000
0010
0000
,
0013
0200
1000
0000
0310
0000
0001
0000
,
0100
1001
0000
1001
,
0010
1001
0000
1001
,
1000
0000
0000
0001
0000
0000
1000
0000
,
0100
0100
0100
0010
,
0001
1000
0000
0100
,
1000
0010
0000
0100
,
0001
0010
0000
0001
,
0100
0010
1000
0001
,
0010
0001
0000
0100
,
0010
1000
0001
0010
,
0000
1001
0000
1000
,
0100
0000
0000
0100
0000
0000
0100
0000
,
0010
0001
0000
1000
,
0010
0100
0000
0001
,
0010
0100
0000
0010
,
0001
0100
0010
1000
,
0001
0010
0000
0010
,
0001
0100
0000
0001
,
1001
1000
0001
0001
,
0010
0010
0010
0200
,
0300
2000
0100
0000
0100
0000
0100
0000
,
3100
0020
0001
0000
0032
0000
0013
0002
,
0103
0002
0100
0000
0100
0000
0103
0010
,
1000
0020
1000
0000
0130
0000
0001
0000
,
0010
1001
0000
1001
,
0100
1001
0000
0001
,
2001
0000
3001
0001
,
0100
0010
0100
0010
,
2000
0100
0000
3100
,
0020
0031
0200
0310
,
2000
0001
0000
3001
,
1000
0010
0200
0301
,
2000
0100
0000
3100
,
0020
0031
0200
0310
,
1000
1000
0001
0001
,
0010
0010
0010
0100
,
2002
0000
0000
0000
,
3003
0000
0000
0000
;

//---------------dance-single - ----------------
#NOTEDATA:;
#CHARTNAME:;
#STEPSTYPE:dance-single;
#DESCRIPTION:;
#CHARTSTYLE:;
#DIFFICULTY:Beginner;
#METER:3;
#RADARVALUES:0.163858,0.203594,0.009558,0.114701,0.000000,120.000000,119.000000,1.000000,12.000000,0.000000,0.000000,0.000000,0.000000,0.000000,0.163858,0.203594,0.009558,0.114701,0.000000,120.000000,119.000000,1.000000,12.000000,0.000000,0.000000,0.000000,0.000000,0.000000;
#CREDIT:;
#NOTES:
0000
0000
0000
0000
,
0000
0000
0000
0000
,
0000
0000
0000
0000
,
0000
0000
0000
0000
,
0000
0000
0000
0000
,
0001
0000
0000
0000
,
1000
0000
0000
0000
,
0001
0000
1000
0000
,
0001
0000
0001
0001
,
0000
1000
0000
1000
,
0000
1000
0000
1000
,
0000
0010
0000
0010
,
0000
0010
0000
0010
,
0000
0100
0000
0100
,
0000
0100
0000
0100
,
0000
0001
0000
0001
,
0000
0001
0000
0001
,
0002
0000
0003
0000
,
0010
0000
0100
0000
,
2000
0000
0000
0000
,
3000
0000
0001
0000
,
2000
0000
3000
0000
,
0010
0000
0100
0000
,
0001
0000
0001
0000
,
0001
0000
0000
0000
,
1000
2000
0000
3000
,
0001
0002
0000
0003
,
1000
0000
0000
0000
2000
0000
0000
3000
,
0001
0000
1000
0000
,
0010
0000
0100
0000
,
0001
0000
0100
0000
,
0010
0000
1000
0000
,
0001
0000
0010
0000
,
0100
0000
1000
1000
,
0001
0000
0000
0000
,
1000
0000
0000
0000
,
0001
0000
0001
0000
,
1000
0000
1000
1000
,
0000
0001
0000
0001
,
0000
0001
0000
0001
,
0000
0010
0000
0010
,
0000
0010
0000
0010
,
0000
0100
0000
0100
,
0000
0100
0000
0100
,
0000
1000
0000
1000
,
1000
0000
0000
0000
,
0001
0001
0000
0001
,
0000
0001
0000
0001
,
0000
1000
0000
1000
,
0000
1000
0000
1000
,
0000
0010
0000
0010
,
0000
0010
0000
0010
,
0010
0000
0100
0000
,
0100
0000
0100
0000
,
0001
0000
0010
0000
,
0100
0000
1000
0000
,
0001
0000
0100
0000
,
0010
0000
1000
1000
,
0001
0000
0000
0000
,
1000
0000
0000
0000
,
0020
0000
0030
0000
,
0100
0000
0100
0000
,
0002
0000
0003
0000
,
0010
0000
0100
0000
,
2000
0000
0000
0000
,
3000
0000
0001
0000
,
2000
0000
3000
0000
,
0010
0000
0100
0000
,
0001
0000
0001
0000
,
1000
0000
1000
0000
,
2002
0000
0000
0000
,
3003
0000
0000
0000
;
