#VERSION:0.83;
#TITLE:THE SAFARI -Try to Sing Ver.-;
#SUBTITLE:;
#ARTIST:Lion Musashi rejected by TAG;
#TITLETRANSLIT:;
#SUBTITLETRANSLIT:;
#ARTISTTRANSLIT:;
#GENRE:Rejected Eurorave;
#ORIGIN:;
#CREDIT:;
#BANNER:THE SAFARI -Try to Sing Ver.-.png;
#BACKGROUND:THE SAFARI -Try to Sing Ver.--bg.png;
#PREVIEWVID:;
#JACKET:THE SAFARI -Try to Sing Ver.--jacket.png;
#CDIMAGE:;
#DISCIMAGE:;
#LYRICSPATH:;
#CDTITLE:cdtitle.png;
#MUSIC:THE SAFARI -Try to Sing Ver.-.ogg;
#OFFSET:-0.017000;
#SAMPLESTART:37.189621;
#SAMPLELENGTH:17.032257;
#SELECTABLE:YES;
#BPMS:0.000=155.000;
#STOPS:;
#DELAYS:;
#WARPS:;
#TIMESIGNATURES:0.000=4=4;
#TICKCOUNTS:0.000=4;
#COMBOS:0.000=1;
#SPEEDS:0.000=1.000=0.000=0;
#SCROLLS:0.000=1.000;
#FAKES:;
#LABELS:0.000=Song Start;
#BGCHANGES:;
#KEYSOUNDS:;
#ATTACKS:
;

//---------------dance-single - ----------------
#NOTEDATA:;
#CHARTNAME:;
#STEPSTYPE:dance-single;
#DESCRIPTION:;
#CHARTSTYLE:;
#DIFFICULTY:Challenge;
#METER:15;
#RADARVALUES:0.729864,0.791811,0.672721,0.390906,0.618176,562.000000,488.000000,74.000000,43.000000,0.000000,0.000000,0.000000,0.000000,0.000000,0.729864,0.791811,0.672721,0.390906,0.618176,562.000000,488.000000,74.000000,43.000000,0.000000,0.000000,0.000000,0.000000,0.000000;
#CREDIT:;
#OFFSET:-0.028328;
#BPMS:0.000000=155.000000
;
#STOPS:;
#DELAYS:;
#WARPS:;
#TIMESIGNATURES:0.000000=4=4
;
#TICKCOUNTS:0.000000=4
;
#COMBOS:0.000000=1
;
#SPEEDS:0.000000=1.000000=0.000000=0
;
#SCROLLS:0.000000=1.000000
,34.500000=0.500000
,40.000000=1.000000
,42.500000=0.500000
,48.000000=1.000000
,50.500000=0.500000
,56.000000=1.000000
;
#FAKES:;
#LABELS:0.000000=Song Start
;
#NOTES:
// measure 0
0000
0000
0000
0000
,  // measure 1
0000
0000
0000
0000
,  // measure 2
0000
0000
0000
0000
,  // measure 3
0000
0000
0000
0000
,  // measure 4
0000
0011
2200
3300
,  // measure 5
0102
0000
0000
1003
0000
0000
1010
0000
,  // measure 6
1001
0000
0001
0010
0000
1100
0000
2002
,  // measure 7
0000
0000
0003
0000
,  // measure 8
3001
0000
0001
0000
0001
0000
0100
0001
0000
0100
0002
0000
0000
0000
0000
0000
,  // measure 9
0000
0000
0000
0000
,  // measure 10
1003
0000
1000
0000
1000
0000
0100
1000
0000
0100
2000
0000
0000
0000
0000
0000
,  // measure 11
0000
0000
0000
0000
,  // measure 12
3001
0000
0001
0000
0001
0000
0010
0001
0000
0010
0002
0000
0000
0000
0000
0000
,  // measure 13
0000
0000
0000
0000
,  // measure 14
1003
0000
1000
0000
1000
0000
0010
1000
0000
0010
2000
0000
0000
0000
3001
0000
,  // measure 15
0010
0000
0100
0010
0000
0100
1000
0000
0010
0000
0000
0000
1001
0000
0000
0000
,  // measure 16
0001
0000
1000
0000
0010
0000
1000
0001
0000
1000
0001
0000
0000
0000
0001
0000
,  // measure 17
0000
0000
0100
0000
0010
0000
0000
0000
1001
0000
0000
1100
0000
0000
0100
0000
,  // measure 18
0010
0000
0001
0000
1000
0000
0001
0100
0000
0001
0100
0000
0000
0000
0001
0000
,  // measure 19
0010
0000
0100
1000
0000
0001
0000
1000
0010
0000
1000
0001
0000
0000
1000
0000
,  // measure 20
0100
0000
0010
0000
0001
0000
0100
0010
0000
0100
0010
0000
0000
0000
1010
0000
,  // measure 21
0000
0000
0101
0000
0000
0000
1001
0000
0000
0000
0001
1000
0100
0000
0000
0000
,  // measure 22
0010
0000
0001
0000
0100
0000
0010
1000
0000
0010
1000
0000
0000
0000
0001
0000
,  // measure 23
0010
0000
0100
0010
0000
0100
1000
0000
0010
0000
1000
0000
0100
0000
0010
0000
,  // measure 24
1001
0000
0000
1100
0000
0000
1001
0000
0000
1010
0000
0000
0100
0000
0001
0000
,  // measure 25
1001
0000
0000
0101
0000
0000
1001
0000
0000
0011
0000
0000
0100
0000
1000
0000
,  // measure 26
1001
0000
0000
0101
0000
0000
0110
0000
0000
1010
0000
0000
0100
0000
0001
0000
,  // measure 27
1001
0000
0000
1100
0000
0000
0011
0000
0000
0001
1000
0010
1000
0001
0010
0100
,  // measure 28
1000
0000
0000
1100
0000
0000
0110
0000
0000
0011
0000
0000
0001
0000
1000
0000
,  // measure 29
1010
0000
0000
0110
0000
0000
0101
0000
0000
0011
0000
0010
0100
0000
1000
0000
,  // measure 30
1001
0000
0000
1010
0000
0000
0101
0000
0000
0001
1000
0001
0010
0100
1000
0001
,  // measure 31
0100
0010
0120
0100
0100
0130
0010
1000
,  // measure 32
0001
0100
1000
0100
0001
0010
0100
1000
,  // measure 33
0001
0100
0001
0100
0010
1000
0010
1000
0010
1000
0010
1000
0001
0100
0010
0100
,  // measure 34
0001
1000
0100
0010
0001
0100
1001
0000
,  // measure 35
0002
0103
0001
0100
0001
0200
2300
3200
,  // measure 36
0320
1030
0010
1000
0010
0002
0023
2030
,  // measure 37
3200
0310
0100
0010
0100
0002
0203
2300
,  // measure 38
3200
0310
0100
0010
0001
2000
3020
0230
,  // measure 39
0302
0013
0001
0010
0001
0020
2030
3020
,  // measure 40
0230
1300
0100
1000
0100
0002
0203
2300
,  // measure 41
3020
1030
0010
1000
0010
0100
0001
0010
,  // measure 42
0220
0000
0330
0000
2002
0000
3003
0000
0001
0010
0000
0010
0100
0000
1000
0001
,  // measure 43
1000
0000
0001
0000
1000
0000
0010
1000
0001
1000
0001
1000
0010
0000
0010
0100
,  // measure 44
0001
0000
1000
0000
0001
0000
1000
0100
0010
0100
0010
0100
1000
0000
1000
0001
,  // measure 45
0100
0000
0010
0000
0100
0000
0010
1000
0001
1000
0001
1000
0100
0000
0100
1000
,  // measure 46
0100
0000
0010
0000
0100
0000
0010
0001
1000
0001
1000
0001
0100
0000
0100
0010
,  // measure 47
1000
0000
0100
0000
0010
0000
0100
1000
0100
0010
0100
1000
0100
0000
0100
0010
,  // measure 48
0001
0000
0100
0000
0010
0000
0100
0001
0100
0010
0100
0001
0100
0000
0100
0010
,  // measure 49
1000
0000
0001
0000
0010
0000
0001
1000
0001
0010
0001
1000
0001
0000
0100
0000
,  // measure 50
0220
0000
0330
0000
2002
0000
3003
0000
1000
0100
0000
0010
0001
0000
0100
0010
,  // measure 51
1000
0000
0001
0000
1000
0100
0010
0001
1000
0000
0000
1010
0000
0000
0100
0001
,  // measure 52
0100
0000
0000
0101
0000
0000
0001
1000
0001
0000
0010
0000
0100
0000
0000
0000
,  // measure 53
0010
0000
0001
0000
0100
0010
0100
0010
1000
0000
0000
1001
0000
0000
1000
0100
,  // measure 54
0010
0000
0000
0010
0001
1000
0001
1000
0010
0000
0100
0000
0001
0000
0000
0000
,  // measure 55
1000
0000
0100
0000
0010
0001
1000
0100
0010
0000
0000
0011
0000
0000
0100
1000
,  // measure 56
0010
0000
1000
0000
0001
0010
0001
1000
0010
0000
0000
0101
0000
0000
0001
0100
,  // measure 57
0001
0000
1000
0100
1000
0000
0010
0000
0100
0000
0100
0000
0001
0000
0010
0000
,  // measure 58
0001
0000
0100
0000
1000
0000
0100
0000
0001
0100
0010
0100
0001
1000
0001
1000
,  // measure 59
0100
0000
0000
0011
0000
0000
1100
0000
0000
0110
0000
0000
0010
0000
0001
0000
,  // measure 60
0101
0000
0000
1010
0000
0000
0101
0000
0000
1001
0000
0000
1000
0000
0100
0000
,  // measure 61
0110
0000
0000
0011
0000
0000
1100
0000
0000
1001
0000
0000
1000
0000
0010
0000
,  // measure 62
0110
0000
0000
0101
0000
0000
1001
0000
0000
1000
0100
0010
0001
0000
0100
0010
,  // measure 63
1000
0000
0000
1010
0000
0000
1100
0000
0000
0101
0000
0000
0001
0000
0010
0000
,  // measure 64
0011
0000
0000
0101
0000
0000
1100
0000
0000
1010
0000
0010
1000
0000
0010
0000
,  // measure 65
0110
0000
0000
0101
0000
0000
0011
0000
0000
1010
0000
0000
1000
0000
0100
0000
,  // measure 66
0010
0000
0001
1000
0001
0000
0100
0000
0010
1000
0010
1000
0001
1000
0100
0010
,  // measure 67
0001
0000
0000
0000
;

//---------------dance-single - ----------------
#NOTEDATA:;
#CHARTNAME:;
#STEPSTYPE:dance-single;
#DESCRIPTION:;
#CHARTSTYLE:;
#DIFFICULTY:Hard;
#METER:11;
#RADARVALUES:0.528567,0.548177,0.190907,0.427269,0.322724,407.000000,386.000000,21.000000,47.000000,0.000000,0.000000,0.000000,0.000000,0.000000,0.528567,0.548177,0.190907,0.427269,0.322724,407.000000,386.000000,21.000000,47.000000,0.000000,0.000000,0.000000,0.000000,0.000000;
#CREDIT:;
#OFFSET:-0.017000;
#BPMS:0.000000=155.000000
;
#STOPS:;
#DELAYS:;
#WARPS:;
#TIMESIGNATURES:0.000000=4=4
;
#TICKCOUNTS:0.000000=4
;
#COMBOS:0.000000=1
;
#SPEEDS:0.000000=1.000000=0.000000=0
;
#SCROLLS:0.000000=1.000000
,34.500000=0.500000
,40.000000=1.000000
,42.500000=0.500000
,48.000000=1.000000
,50.500000=0.500000
,56.000000=1.000000
;
#FAKES:;
#LABELS:0.000000=Song Start
;
#NOTES:
0000
0000
0000
0000
,
0000
0000
0000
0000
,
0000
0000
0000
0000
,
0000
0000
0000
0000
,
0000
1010
0202
0303
,
2100
0000
0000
3001
0000
0000
0011
0000
,
1001
0000
1000
0010
0000
0101
0000
2002
,
0000
0000
0000
3003
,
0001
0000
1000
0000
0001
0000
1000
0001
0000
1000
0002
0000
0000
0000
0000
0000
,
0000
0000
0000
0000
,
0103
0000
0010
0000
0100
0000
0010
0100
0000
0010
0200
0000
0000
0000
0000
0000
,
0000
0000
0000
0000
,
0301
0000
1000
0000
0001
0000
1000
0001
0000
1000
0002
0000
0000
0000
0000
0000
,
0000
0000
0000
0000
,
0013
0000
0100
0000
0010
0000
0100
0010
0000
0100
0020
0000
0000
0000
0031
0000
,
0010
0000
0001
1000
0000
0001
1000
0000
0020
0000
0000
0000
1030
0000
0000
0000
,
0001
0000
0001
0000
0100
0000
0001
0100
0000
0001
0100
0000
0000
0000
0001
0000
,
0000
0000
0100
0000
0010
0000
0000
0000
1000
0000
0000
0001
0000
0000
0001
0000
,
1000
0000
1000
0000
0100
0000
1000
0100
0000
1000
0100
0000
0000
0000
0010
0000
,
0001
0000
1000
0001
0000
0000
1000
0000
0010
0000
0100
0001
0000
0000
1000
0000
,
0010
0000
0010
0000
1000
0000
0010
1000
0000
0010
1000
0000
0000
0000
1010
0000
,
0000
0000
1001
0000
0000
0000
0101
0000
0000
0000
0001
1000
0001
0000
0000
0000
,
0010
0000
0010
0000
0001
0000
0010
0001
0000
0010
0001
0000
0000
0000
0100
0000
,
0010
0000
1000
0001
0000
1000
0001
0000
0010
0000
0100
0000
0010
0000
0001
0000
,
2000
0000
0000
3010
0000
0000
0020
0000
0000
0130
0000
0000
0001
0000
1000
0000
,
0002
0000
0000
0013
0000
0000
0020
0000
0000
0130
0000
0000
1000
0000
0001
0000
,
2000
0000
0000
3010
0000
0000
0020
0000
0000
0130
0000
0000
0001
0000
1000
0000
,
0002
0000
0000
0013
0000
0000
0020
0000
0000
0130
0010
0000
0001
0000
0100
0000
,
0020
0000
0000
1030
0000
0000
2000
0000
0000
3100
0000
0000
0010
0000
0001
0000
,
0200
0000
0000
0301
0000
0000
0002
0000
0000
0013
0000
0001
0010
0000
0100
0000
,
2000
0000
0000
3010
0000
0000
0200
0000
0000
0310
0100
0000
0010
0000
1000
0000
,
0001
2002
0000
3003
,
1000
0100
0010
0001
0100
0010
1000
0001
,
0010
0100
0010
0001
1000
0100
0001
0100
,
1000
0010
0100
0001
0000
0100
0010
0000
,
2001
0000
0001
0000
3001
1000
0100
0010
,
0002
0000
1000
0000
1003
0001
0100
1000
,
0200
0000
0001
0000
0301
0100
1000
0100
,
0002
0000
0100
0000
0103
0010
1000
0001
,
0020
0000
0001
0000
0031
0010
0100
1000
,
0020
0000
1000
0000
1030
0010
0001
0010
,
2000
0000
0001
0000
0001
3000
0001
1000
,
0100
0000
0000
0000
0011
0000
0000
0000
0001
0100
0000
0001
0100
0000
0010
0000
,
1001
0000
0000
0000
1000
0000
0000
0010
0100
0000
0001
0000
0010
0000
0100
0000
,
1000
0000
0000
0000
0100
0000
0000
0010
0001
0000
0100
0000
0010
0000
1000
0000
,
0100
0000
0000
0000
0010
0000
0000
0100
1000
0000
0100
0000
0001
0000
0100
0000
,
0010
0000
0000
0000
0100
0000
0000
1000
0100
0000
0001
0000
0100
0000
1000
0000
,
0010
0000
0000
0000
0100
0000
0000
0010
1000
0000
0100
0000
0010
0000
0001
0000
,
0100
0000
0000
0000
0010
0000
0000
1000
0001
0000
0010
0000
0100
0000
1000
0000
,
0010
0000
0000
0000
0100
0000
0000
0001
0100
0000
1000
0000
0100
0000
0001
0000
,
0010
0000
0000
0000
1100
0000
0000
0000
0010
0001
0000
0010
0001
0000
0000
0000
,
1000
0000
0010
0000
0100
0000
0001
0000
0010
0000
0000
0011
0000
0000
0100
0000
,
1000
0000
0000
1001
0000
0000
0001
0000
0100
0000
0010
0000
1000
0000
0000
0000
,
0100
0000
0010
0000
0100
0000
1000
0000
0010
0000
0000
1010
0000
0000
0100
0000
,
0001
0000
0000
0001
1000
0000
0100
0000
0010
0000
0001
0000
0100
0000
0000
0000
,
0001
0000
0010
0000
0100
0000
1000
0000
0001
0000
0000
1001
0000
0000
1000
0000
,
0100
0000
0010
0000
0001
0000
1000
0000
0010
0000
0000
0110
0000
0000
0100
0000
,
0001
1000
0100
0010
0001
1000
0001
0100
,
1000
0100
0001
0010
0100
1000
0001
0000
,
2000
0000
0000
3010
0000
0000
0020
0000
0000
0130
0000
0000
0001
0000
0010
0000
,
0002
0000
0000
0103
0000
0000
0200
0000
0000
0310
0000
0000
1000
0000
0100
0000
,
2000
0000
0000
3001
0000
0000
0002
0000
0000
0103
0000
0000
0010
0000
1000
0000
,
0002
0000
0000
0013
0000
0000
0200
0000
0000
0310
0100
0000
0010
0000
0001
0000
,
2000
0000
0000
3100
0000
0000
0020
0000
0000
0031
0000
0000
0100
0000
0001
0000
,
2000
0000
0000
3010
0000
0000
0200
0000
0000
0301
0000
1000
0001
0000
0010
0000
,
0002
0000
0000
0103
0000
0000
2000
0000
0000
3100
0000
0000
0001
0000
0010
0000
,
0100
1000
0001
1000
0001
0100
0010
1000
,
1001
0000
0000
0000
;

//---------------dance-single - ----------------
#NOTEDATA:;
#CHARTNAME:;
#STEPSTYPE:dance-single;
#DESCRIPTION:;
#CHARTSTYLE:;
#DIFFICULTY:Easy;
#METER:5;
#RADARVALUES:0.292205,0.365451,0.090908,0.381815,0.000000,225.000000,215.000000,10.000000,42.000000,0.000000,0.000000,0.000000,0.000000,0.000000,0.292205,0.365451,0.090908,0.381815,0.000000,225.000000,215.000000,10.000000,42.000000,0.000000,0.000000,0.000000,0.000000,0.000000;
#CREDIT:;
#OFFSET:-0.017000;
#BPMS:0.000000=155.000000
;
#STOPS:;
#DELAYS:;
#WARPS:;
#TIMESIGNATURES:0.000000=4=4
;
#TICKCOUNTS:0.000000=4
;
#COMBOS:0.000000=1
;
#SPEEDS:0.000000=1.000000=0.000000=0
;
#SCROLLS:0.000000=1.000000
,34.500000=0.500000
,40.000000=1.000000
,42.500000=0.500000
,48.000000=1.000000
,50.500000=0.500000
,56.000000=1.000000
;
#FAKES:;
#LABELS:0.000000=Song Start
;
#NOTES:
0000
0000
0000
0000
,
0000
0000
0000
0000
,
0000
0000
0000
0000
,
0000
0000
0000
0000
,
0000
0001
0002
0003
,
0200
0000
0300
0020
0000
0030
2000
0000
,
3002
0000
0003
2000
0000
3002
0000
2000
,
0000
0000
0000
3003
,
1000
0010
2000
0000
,
0000
0000
0000
3000
,
0001
0010
0002
0000
,
0000
0000
0000
0003
,
1000
0100
2000
0000
,
0000
0000
0000
3000
,
0001
0100
0002
0000
,
1003
0010
0100
0001
,
1000
1000
0100
0100
,
1000
0001
1000
0001
,
0100
0100
0001
0001
,
1000
0100
0010
0001
,
1000
1000
0010
0010
,
1000
0001
1000
0001
,
0010
0010
0001
0001
,
1000
0010
0100
0001
,
1000
0100
0100
0010
,
0001
0100
0100
0010
,
1000
0100
0100
0010
,
0001
0100
0100
0010
,
1000
0001
0010
0001
,
1000
0010
1000
0001
,
1000
0100
1000
0001
,
0100
0220
0000
0330
,
0010
0100
0010
0100
,
0010
2002
0000
3003
,
1000
0000
0000
0001
0000
0000
1000
0000
,
1002
0010
0010
0013
,
2001
0010
0010
3010
,
1002
0100
0100
0103
,
2001
0100
0100
3100
,
0012
1000
1000
1003
,
2010
0001
0001
3001
,
2100
0001
3001
0000
,
2000
3020
0230
0302
,
2003
3100
0010
0010
,
0002
0103
0010
0010
,
0200
0301
1000
1000
,
0200
1300
0001
0001
,
0200
0310
1000
1000
,
0200
0310
0010
0001
,
2000
0001
3001
0000
,
2000
3020
0230
0302
,
1003
0100
1000
1000
,
0001
0100
0001
0001
,
1000
0100
0010
0100
,
1000
0001
0001
0100
,
0010
1000
0001
0010
,
0001
1000
0010
0100
,
0001
1000
0001
0010
,
1000
0010
0001
0100
,
0020
0000
0000
0030
0000
0000
1000
0000
,
0002
0000
0000
0003
0000
0000
1000
0000
,
0200
0000
0000
0300
0000
0000
0010
0000
,
0002
0000
0000
0003
0000
0000
1000
0000
,
0001
0100
0001
0100
,
0010
1000
0010
1000
,
0001
0010
0001
0010
,
0100
1000
0001
0100
,
0110
0000
0000
0000
;

//---------------dance-single - ----------------
#NOTEDATA:;
#CHARTNAME:;
#STEPSTYPE:dance-single;
#DESCRIPTION:;
#CHARTSTYLE:;
#DIFFICULTY:Beginner;
#METER:3;
#RADARVALUES:0.177920,0.243634,0.054545,0.227271,0.000000,137.000000,131.000000,6.000000,25.000000,0.000000,0.000000,0.000000,0.000000,0.000000,0.177920,0.243634,0.054545,0.227271,0.000000,137.000000,131.000000,6.000000,25.000000,0.000000,0.000000,0.000000,0.000000,0.000000;
#CREDIT:;
#OFFSET:-0.017000;
#BPMS:0.000000=155.000000
;
#STOPS:;
#DELAYS:;
#WARPS:;
#TIMESIGNATURES:0.000000=4=4
;
#TICKCOUNTS:0.000000=4
;
#COMBOS:0.000000=1
;
#SPEEDS:0.000000=1.000000=0.000000=0
;
#SCROLLS:0.000000=1.000000
,34.500000=0.500000
,40.000000=1.000000
,42.500000=0.500000
,48.000000=1.000000
,50.500000=0.500000
,56.000000=1.000000
;
#FAKES:;
#LABELS:0.000000=Song Start
;
#NOTES:
0000
0000
0000
0000
,
0000
0000
0000
0000
,
0000
0000
0000
0000
,
0000
0000
0000
0000
,
0000
1000
1000
0000
,
0002
0000
0000
0003
0000
0000
0100
0000
,
0100
0000
0010
0000
,
2000
0000
3000
0000
,
1000
1000
2000
0000
,
0000
0000
3000
0000
,
0001
0001
0002
0000
,
0000
0000
0003
0000
,
1000
1000
2000
0000
,
0000
0000
3000
0000
,
0001
0001
0001
0000
,
0010
0000
0100
0000
,
1000
1000
1000
0000
,
0001
0000
0001
0000
,
0100
0100
0100
0000
,
0010
0000
0010
0000
,
1000
1000
1000
0000
,
0001
0000
0001
0000
,
0010
0010
0010
0000
,
0001
0000
1000
0000
,
0001
0000
0001
0000
,
0100
0000
0100
0000
,
0010
0000
0010
0000
,
1000
0000
1000
0000
,
0100
0000
0100
0000
,
0010
0000
0010
0000
,
0001
0000
0001
0000
,
1000
2000
0000
3000
,
0001
0000
1000
0000
,
0010
0020
0000
0030
,
0100
0000
0010
0000
,
1002
0000
0003
1000
,
2000
0000
3000
0010
,
0020
0000
0030
0100
,
0200
0000
0300
0001
,
0002
0000
0003
1000
,
2000
0000
3000
0100
,
0200
0000
0300
0000
,
0020
0030
0002
0003
,
2000
0000
3000
0001
,
0002
0000
0003
0100
,
0200
0000
0300
0010
,
0020
0000
0030
1000
,
2000
0000
3000
0001
,
0002
0000
0003
0010
,
0020
0000
0030
0000
,
0002
0003
2000
3000
,
0001
0001
0001
0000
,
0100
0000
0010
0000
,
1000
1000
1000
0000
,
0100
0000
0010
0000
,
0001
0001
0001
0000
,
1000
1000
1000
0000
,
0010
0000
0010
0010
,
0010
0000
0100
0000
,
1001
0000
1000
0000
,
1001
0000
0001
0000
,
1001
0000
1000
0000
,
1001
0000
0001
0000
,
1000
0000
0100
0000
,
1000
0000
0100
0000
,
0010
0000
0001
0000
,
0010
0000
0001
0000
,
1001
0000
0000
0000
;

//---------------dance-single - ----------------
#NOTEDATA:;
#CHARTNAME:;
#STEPSTYPE:dance-single;
#DESCRIPTION:;
#CHARTSTYLE:;
#DIFFICULTY:Medium;
#METER:7;
#RADARVALUES:0.405191,0.548177,0.445450,0.390906,0.000000,312.000000,263.000000,49.000000,43.000000,0.000000,0.000000,0.000000,0.000000,0.000000,0.405191,0.548177,0.445450,0.390906,0.000000,312.000000,263.000000,49.000000,43.000000,0.000000,0.000000,0.000000,0.000000,0.000000;
#CREDIT:;
#OFFSET:-0.017000;
#BPMS:0.000000=155.000000
;
#STOPS:;
#DELAYS:;
#WARPS:;
#TIMESIGNATURES:0.000000=4=4
;
#TICKCOUNTS:0.000000=4
;
#COMBOS:0.000000=1
;
#SPEEDS:0.000000=1.000000=0.000000=0
;
#SCROLLS:0.000000=1.000000
,34.500000=0.500000
,40.000000=1.000000
,42.500000=0.500000
,48.000000=1.000000
,50.500000=0.500000
,56.000000=1.000000
;
#FAKES:;
#LABELS:0.000000=Song Start
;
#NOTES:
0000
0000
0000
0000
,
0000
0000
0000
0000
,
0000
0000
0000
0000
,
0000
0000
0000
0000
,
0000
0002
2003
3000
,
0200
0000
0000
0320
0000
0000
0032
0000
,
2003
0000
3000
0020
0000
0130
0000
2002
,
0000
0000
0000
3003
,
1001
1001
2002
0000
,
0000
0000
0000
3003
,
0110
0110
0220
0000
,
0000
0000
0000
0330
,
1001
1001
2002
0000
,
0000
0000
0000
3003
,
0110
0110
0220
0330
,
1000
0000
0010
1000
0001
0000
2000
0000
,
3001
0001
1000
0100
,
0010
0001
1000
0000
1000
0001
0100
0000
,
0010
0010
1000
0001
,
0010
0100
1000
0000
0010
0100
0001
0000
,
1000
1000
0010
0100
,
0001
0000
0001
0000
0001
0010
0100
0000
,
0010
0010
0001
1000
,
0010
0000
1000
0001
0010
0000
0100
0000
,
1000
0000
0001
0000
1000
0000
0010
0100
,
0001
0000
1000
0000
0001
0000
0010
0100
,
1000
0000
0001
0000
1000
0000
0010
0100
,
0001
0000
1000
0000
0001
0000
0010
0001
,
1000
0010
0000
1010
0000
0101
0000
1001
,
0000
1100
0000
0011
0000
1001
0000
1010
,
0000
0101
0000
1001
0000
1100
0000
0010
,
0001
2002
0000
3003
,
1000
0000
0100
0000
0010
0000
0001
1000
,
0010
0220
0000
0330
,
1001
0000
0100
0010
0000
0100
0010
0000
,
1002
0000
1000
0000
1003
0000
0001
0010
,
0002
0000
1000
0000
1003
0000
0001
0100
,
0002
0000
0100
0000
0103
0000
0001
0100
,
0002
0000
0103
0000
0001
0000
1000
0001
,
2000
0000
0001
0000
3001
0000
1000
0010
,
2000
0000
0001
0000
3001
0000
1000
0100
,
2000
0000
0100
0000
3100
0000
0000
0100
,
0110
1100
1001
0101
,
2001
0000
3001
0000
1000
0100
0010
0000
,
0002
0000
1003
0000
0001
0100
0010
0000
,
2000
0000
3100
0000
0010
0100
1000
0000
,
0002
0000
0103
0000
0010
0100
0001
0000
,
0020
0000
0130
0000
0010
0100
1000
0000
,
0020
0000
0130
0000
0010
0100
0001
0000
,
2000
0000
0100
0000
3100
0000
0000
0100
,
0110
0011
1001
1010
,
1001
0000
1000
0001
1000
0000
0100
0000
,
0010
0000
0010
0000
0100
1000
0001
0000
,
0100
0000
0010
0100
0010
0000
1000
0000
,
0001
0000
0001
0010
0100
0000
0010
0000
,
0001
0000
1000
0010
1000
0000
0001
0000
,
1000
0000
0001
1000
0100
0000
0010
0000
,
0001
1000
0001
0000
1000
0001
1000
0000
,
0100
0001
0010
1000
,
1002
0000
0000
0203
0000
0000
0310
0010
,
2000
0000
0000
3200
0000
0000
0310
0010
,
0002
0000
0000
0203
0000
0000
0310
0010
,
2000
0000
0000
3100
0000
1000
0100
0010
,
0001
1000
0000
0101
0000
0011
0000
1100
,
0000
1010
0000
0101
0000
0011
0000
1100
,
0000
1010
0000
0101
0000
0011
0000
1000
,
0100
0000
0010
0000
0001
0000
0100
0010
,
1001
0000
0000
0000
;
