#TITLE:Strange Flow;
#SUBTITLE:;
#ARTIST:Sota Fujimori;
#TITLETRANSLIT:;
#SUBTITLETRANSLIT:;
#ARTISTTRANSLIT:;
#GENRE:Psychedelic Tech;
#CREDIT:;
#BANNER:Strange Flow.png;
#BACKGROUND:Strange Flow-bg.png;
#LYRICSPATH:;
#CDTITLE:cdtitle.png;
#MUSIC:Strange Flow.ogg;
#OFFSET:-0.049206;
#SAMPLESTART:48.049206;
#SAMPLELENGTH:13.714287;
#SELECTABLE:YES;
#BPMS:0.000000=140.000000
;
#STOPS:
;
#BGCHANGES:;
#KEYSOUNDS:;
#ATTACKS:;

//---------------dance-single - ----------------
#NOTES:
     dance-single:
     :
     Challenge:
     16:
     0.908642,1.011357,0.325715,0.434287,1.085717,703.000000,667.000000,36.000000,48.000000,43.000000,0.000000,0.908642,1.011357,0.325715,0.434287,1.085717,703.000000,667.000000,36.000000,48.000000,43.000000,0.000000:
// measure 0
0000
0000
0000
0000
,  // measure 1
0000
0000
0000
0000
,  // measure 2
0000
0000
0000
0000
,  // measure 3
0000
0000
0000
0000
,  // measure 4
1001
0000
1000
0000
0001
0010
0001
0100
0010
0000
0010
0000
2000
0000
0000
0000
,  // measure 5
3001
0000
1000
0100
0010
0000
0100
0000
0001
0000
1000
0000
0010
0000
0001
0000
,  // measure 6
0101
0000
0000
0000
0000
0000
1000
0000
0000
0010
0000
0000
1000
0000
0000
0010
0000
0000
1000
0000
0000
0010
0000
0000
0100
0000
0000
0000
0000
0000
0100
0000
0000
0000
0000
0000
0002
0000
0000
0000
0000
0000
1003
0000
0100
0000
1000
0000
,  // measure 7
0100
0000
0010
0001
0100
0000
0010
0000
1000
0010
0001
0010
1000
0000
0000
0000
,  // measure 8
1000
0100
1000
0000
0100
0000
0001
0000
1000
0000
0010
0001
0100
0000
0100
0001
,  // measure 9
0010
0001
1000
2010
00M0
3100
0010
0001
,  // measure 10
1000
0010
1000
0000
0010
0000
0001
0000
1000
0100
1000
0000
0100
0000
0001
0000
,  // measure 11
0000
0000
1000
0000
0100
0000
0210
0000
00M0
0000
0301
0100
1000
0000
1000
0000
,  // measure 12
0001
0100
0001
0000
0100
0000
1000
0000
0001
0000
0010
1000
0100
0000
0100
1000
,  // measure 13
0010
0000
1000
0000
0001
0000
0021
0000
000M
0130
1000
0000
0010
0000
1000
0000
,  // measure 14
0001
0010
0001
0000
0010
0000
1000
0000
0001
0100
0001
0000
0100
0000
1000
0000
,  // measure 15
0000
0000
0001
0000
0100
0000
0210
0000
00M0
0000
1300
0100
0001
0000
0010
0000
,  // measure 16
0011
0000
0001
0100
000M
0100
1000
0000
1010
0000
1000
0100
M000
0100
0001
1000
,  // measure 17
0100
1000
0001
0100
000M
0100
1000
0010
0100
0001
0010
0100
1000
0000
0010
0000
,  // measure 18
1010
0000
1000
0100
M000
0100
0001
0000
0011
0000
0001
0100
000M
0100
1000
0010
,  // measure 19
0100
0001
1000
0100
M000
0100
0001
0010
0001
0100
0010
1000
0100
0000
0000
0000
,  // measure 20
1000
0010
0100
1000
0100
0010
1000
0001
1000
0100
0010
1000
0010
0100
1000
0001
,  // measure 21
1000
0010
0100
1000
0100
0010
1000
0001
1000
0100
0001
0100
1000
0000
2010
0000
,  // measure 22
3001
0010
0100
0001
0100
0010
0001
1000
0020
0000
0000
0032
0013
0100
0010
1000
,  // measure 23
0001
0010
0100
0001
0100
0010
0001
1000
0001
0100
0010
2000
0000
3000
0000
0000
,  // measure 24
0001
0010
0001
0010
0100
0010
0001
1000
0010
0100
0001
0000
0001
0100
0002
0000
,  // measure 25
1003
0010
1000
0010
0100
0010
0001
0010
0100
0010
1000
0000
1000
0001
0020
0000
,  // measure 26
0130
1000
0100
1000
0001
1000
0010
0100
0001
0010
0100
0000
0100
0010
0002
0000
,  // measure 27
0103
0001
0100
0001
1000
0010
1000
0100
0010
0001
0100
0000
0120
0000
0030
0000
,  // measure 28
1000
0000
0100
M000
0100
0000
0001
0000
0010
000M
0010
0000
1000
0000
0001
0010
,  // measure 29
0200
0000
M00M
0000
0310
0000
2001
0000
0MM0
0000
3001
0100
0010
0000
1000
0000
,  // measure 30
0001
0000
0000
0000
0000
0000
0010
0000
0000
000M
0000
0000
0010
0000
0000
0000
0000
0000
1000
0000
0000
0001
0000
0000
1000
0000
0000
0000
0000
0000
0100
0000
0000
M000
0000
0000
0100
0000
0000
0000
0000
0000
0001
0000
0100
0000
0010
0000
,  // measure 31
2000
0000
0000
0000
0000
0000
000M
0000
0000
3100
0000
0000
0010
0000
0000
0000
0000
0000
0012
0000
0000
0000
0000
0000
M000
0000
0000
0103
0000
0000
0010
0000
0000
1000
0000
0000
0001
0000
0000
0000
0000
0000
0010
0000
0100
0000
1000
0000
,  // measure 32
0001
0000
0100
000M
0100
0000
1000
0000
0010
M000
0010
0000
0001
0000
1000
0010
,  // measure 33
0200
0000
M00M
0000
0310
0000
1002
0000
0MM0
0000
0013
0100
1000
0000
0000
0000
,  // measure 34
1000
0000
0000
0000
0000
0000
0010
0000
0000
M000
0000
0000
0010
0000
0000
0000
0000
0000
0001
0000
0000
1000
0000
0000
0001
0000
0000
0000
0000
0000
0100
0000
0000
000M
0000
0000
0100
0000
0000
0000
0000
0000
1000
0000
0100
0000
0010
0000
,  // measure 35
0002
0000
0000
0000
0000
0000
M000
0000
0000
0103
0000
0000
0010
0000
0000
0000
0000
0000
2010
0000
0000
0000
0000
0000
000M
0000
0000
3100
0000
0000
0010
0000
0000
0001
0000
0000
1000
0000
0000
0000
0000
0000
0010
0000
0100
0000
0001
0000
,  // measure 36
1000
0100
0001
0001
0100
1000
0001
0001
,  // measure 37
0100
0000
1000
0000
0001
0000
0001
0000
1000
0000
0100
0000
0001
0000
0010
0100
,  // measure 38
1000
0010
0001
0001
0010
1000
0001
0001
,  // measure 39
0010
1000
0001
0001
1000
0010
0001
0000
,  // measure 40
1000
0010
1000
0000
0010
0000
0001
0000
1000
0100
1000
0000
0100
0001
0100
0000
,  // measure 41
0001
0010
0001
0000
0010
0000
1000
0000
0001
0100
0001
0000
0100
1000
0100
0000
,  // measure 42
1000
0010
1000
0010
0002
0000
0013
0000
1000
0100
0000
1000
0100
0010
0002
0000
,  // measure 43
0103
0010
0100
0001
1000
0001
1000
0001
0010
0001
0100
0000
0110
0000
0000
0000
,  // measure 44
1001
0000
0000
0000
0000
0000
0001
0000
0000
0000
0000
0000
0100
0000
0000
0000
0000
0000
0001
0000
0100
0000
0010
0000
0100
0000
0000
0000
0000
0000
1000
0000
0000
0100
0000
0000
0001
0000
0000
0000
0000
0000
0201
0000
0000
0000
0000
0000
,  // measure 45
0320
0000
0000
0000
0000
0000
0000
0000
2030
0000
0000
0000
00M0
0000
0000
0000
0000
0000
0000
0000
0000
0000
0000
0000
3002
0000
0000
0000
0000
0000
0000
0000
0023
0000
0000
0000
0100
0000
0000
0030
0020
0000
0000
0000
0000
0000
0000
0030
0120
0000
0000
0000
0000
0000
0000
0030
0020
0000
0000
0000
0000
0000
0000
0000
,  // measure 46
0031
0100
0010
2000
0001
0000
3001
0100
0010
1000
0100
0010
0100
0001
0100
0010
,  // measure 47
0001
0000
0000
1000
0000
0000
0010
0000
0000
0100
0000
0000
0001
0000
0000
0010
0000
0000
0001
0000
0000
0100
0000
0000
1000
0000
0000
0100
0000
0000
0001
0000
0000
0010
0000
0000
0100
0000
0000
1000
0000
0000
0001
0000
0100
0000
0010
0000
,  // measure 48
1000
0000
0000
0001
0000
0000
1000
0000
0000
0100
0000
0000
1000
0000
0000
0001
0000
0000
1000
0000
0010
0000
0100
0000
0001
0000
0000
1000
0000
0000
0001
0000
0000
0010
0000
0000
0001
0000
0000
1000
0000
0000
0001
0000
0000
0100
0000
0000
,  // measure 49
0020
0000
0000
0000
0000
0000
0000
0000
1000
0000
0000
0000
0000
0000
0000
0030
0210
0000
0000
0000
0000
0000
0000
0000
0301
0000
0000
0000
0010
0000
0000
0000
0100
0000
0000
0000
1000
0000
0000
0000
0100
0000
0000
0000
0010
0000
0000
0000
0001
0000
0000
0000
0100
0000
0000
0000
0010
0000
0000
0000
1000
0000
0000
0000
,  // measure 50
1001
0000
M10M
0000
1001
0000
M02M
0000
0000
0030
0110
0000
0MM0
0000
1002
0000
,  // measure 51
0000
0013
0100
0010
0100
0010
0100
0010
0001
0100
0010
0100
0101
0000
0000
0000
,  // measure 52
1001
0000
0000
0000
0000
0000
1000
0000
0000
0000
0000
0000
0100
0000
0000
0000
0000
0000
1000
0000
0100
0000
0010
0000
0100
0000
0000
0000
0000
0000
0001
0000
0000
0100
0000
0000
1000
0000
0000
0000
0000
0000
1200
0000
0000
0000
0000
0000
,  // measure 53
0320
0000
0000
0000
0000
0000
0000
0000
0032
0000
0000
0000
00M0
0000
0000
0000
0000
0000
0000
0000
0000
0000
0000
0000
2003
0000
0000
0000
0000
0000
0000
0000
3020
0000
0000
0000
0100
0000
0000
0030
0020
0000
0000
0000
0000
0000
0000
0030
0120
0000
0000
0000
0000
0000
0000
0000
0030
0000
0000
0000
0000
0000
0000
0000
,  // measure 54
1000
0100
0010
0002
1000
0000
1003
0100
0010
0001
0100
0010
0100
1000
0100
0001
,  // measure 55
1000
0000
0000
0100
0000
0000
0010
0000
0000
0100
0000
0000
0001
0000
0000
0100
0000
0000
0001
0000
0000
0100
0000
0000
0010
0000
0000
0100
0000
0000
1000
0000
0100
0000
0010
0000
0001
0000
0000
0100
0000
0000
0010
0000
0000
1000
0000
0000
,  // measure 56
0001
0000
0000
0010
0000
0000
0100
0000
0000
0010
0000
0000
0001
0000
0000
1000
0000
0000
0001
0000
0100
0000
0010
0000
1000
0000
0000
0000
0000
0000
0101
0000
0000
0000
0000
0000
1010
0000
0000
0000
0000
0000
1000
0000
0000
0100
0000
0000
,  // measure 57
0020
0000
0000
0000
0000
0000
0000
0000
0001
0000
0000
0000
0000
0000
0000
0030
0210
0000
0000
0000
0000
0000
0000
0000
1300
0000
0000
0000
0010
0000
0000
0000
0100
0000
0000
0000
0001
0000
0000
0000
0100
0000
0000
0000
0010
0000
0000
0000
1000
0000
0000
0000
0100
0000
0000
0000
0010
0000
0000
0000
0001
0000
0000
0000
,  // measure 58
1000
0010
1000
00M0
1000
0010
0100
0000
M101
0000
0000
0M11
0000
0000
21MM
0000
,  // measure 59
0000
3010
0100
0010
0100
0010
0100
0010
1000
0100
0010
0100
1100
0000
0000
0000
,  // measure 60
0001
0100
0010
0000
0010
0100
0001
0000
0001
1000
0100
0000
0100
1000
0001
0000
,  // measure 61
1000
0010
0100
0000
0100
0010
1000
0000
1000
0001
0010
0000
0010
0001
1000
0000
,  // measure 62
0001
0100
0010
0000
0010
1000
0001
0000
0001
1000
0100
0000
0100
0010
0001
0000
,  // measure 63
1000
0010
0100
0000
0100
0001
1000
0000
1000
0100
0010
0000
0010
0100
0001
0000
;

//---------------dance-single - ----------------
#NOTES:
     dance-single:
     :
     Hard:
     13:
     0.664356,0.693502,0.253334,0.271429,0.352858,514.000000,486.000000,28.000000,30.000000,0.000000,0.000000,0.664356,0.693502,0.253334,0.271429,0.352858,514.000000,486.000000,28.000000,30.000000,0.000000,0.000000:
0000
0000
0000
0000
,
0000
0000
0000
0000
,
0000
0000
0000
0000
,
0000
0000
0000
0000
,
1001
1000
0100
0001
0100
0010
0002
0000
,
0103
0010
1000
0001
0010
1000
0010
0001
,
1001
0000
1000
0000
0010
0000
0100
0000
1000
0000
0100
0000
0002
0000
0013
0100
,
0010
0001
0011
0000
0001
0101
1010
0000
,
1000
0001
1000
0000
0100
0000
0010
0000
1000
0000
0010
0000
0100
0000
1000
0000
,
0000
1000
0010
0200
0000
0301
0100
0010
,
1000
0100
1000
0000
0100
0000
0010
0000
0001
0010
0001
0000
1000
0000
0010
0000
,
0000
0010
0100
0002
0000
0013
1000
0010
,
0001
1000
0001
0000
0100
0000
0010
0000
0001
0000
0010
0000
0100
0000
0001
0000
,
0000
0001
0010
0200
0000
1300
0100
0010
,
0001
0100
0001
0000
0100
0000
0010
0000
1000
0010
1000
0000
0001
0000
0010
0000
,
0000
0010
0100
2000
0000
3010
0001
0010
,
1000
0000
0000
0100
0000
0000
0100
0000
0010
0000
0000
0001
0000
0000
1000
0010
,
1000
0000
0000
0001
0000
0000
1000
0100
1000
0000
0001
0100
0001
0000
1000
0000
,
0001
0000
0000
0010
0000
0000
0010
0000
2000
0000
3000
0010
0000
0000
0001
0100
,
0001
0000
0000
1000
0000
0000
0001
0010
0001
0000
1000
0010
1000
0000
0000
0000
,
1010
0000
0000
1100
0000
0000
0110
0000
0011
0000
0000
0101
0000
0000
1000
0010
,
1000
0000
0000
1100
0000
0000
0001
0010
0001
0000
1000
0010
1000
0000
0001
0000
,
0011
0000
0000
0101
0000
0000
1010
0000
0002
0000
0000
2003
3000
0000
0100
0010
,
0001
0000
0000
0101
0000
0000
1000
0010
1000
0000
0001
0020
0000
0030
0000
0000
,
0001
0000
0010
0000
0100
0000
0010
0000
0001
0100
0001
0000
1000
0100
1000
0000
,
0001
0000
0100
0000
1000
0000
0100
0000
0001
0010
0001
0000
1000
0010
1000
0000
,
0100
0000
0001
0000
0100
0000
1000
0000
0010
0100
0010
0000
1000
0001
1000
0000
,
0100
0000
0001
0000
0100
0000
1000
0000
0001
0100
0001
0000
0020
0000
0030
0000
,
0001
0000
0100
0000
1000
0000
0001
0000
1000
0000
0100
0000
0001
0000
0010
0001
,
0020
0000
0000
0000
0130
0000
2100
0000
0000
0000
3001
0010
0001
0000
1000
0000
,
0010
0000
0100
0000
1000
0000
0100
0010
0100
0000
0001
0000
1000
0000
0100
0010
,
0001
0000
0000
0001
0100
0000
1020
0000
0000
1030
0010
0100
0001
0000
1000
0001
,
1000
0000
0100
0000
0001
0000
1000
0000
0001
0000
0100
0000
1000
0000
0010
1000
,
0020
0000
0000
0000
0130
0000
0102
0000
0000
0000
1003
0100
0010
0000
0000
0000
,
0010
0000
0100
0000
0001
0000
0100
0010
0100
0000
1000
0000
0001
0000
0100
0010
,
1000
0000
0000
1000
0100
0000
0021
0000
0000
0031
0010
0100
1000
0000
0001
1000
,
0001
0100
0001
0001
0100
1000
0100
0100
,
1000
0010
1000
1000
0010
0001
0010
0010
,
0001
0100
0001
0001
0100
1000
0100
0100
,
1000
0010
1000
1000
0010
0001
0100
0000
,
0001
0100
0001
0000
0100
0000
0010
0000
1000
0010
1000
0000
0001
1000
0001
0000
,
1000
0100
1000
0000
0100
0000
0010
0000
0001
0010
0001
0000
1000
0001
1000
0000
,
0001
0000
0100
0000
2000
0000
0000
0000
3100
0010
0000
0010
0100
0000
0001
0000
,
1000
0100
1000
0000
0001
0000
0001
0000
0100
0000
0010
0000
1001
0000
0000
0000
,
1000
0000
1000
0000
0001
0000
0010
0100
0010
0000
0001
0000
1000
0000
0020
0000
,
1000
0100
0000
0001
0100
0100
0100
0130
,
0010
1000
0010
2000
0000
0000
3100
0000
0001
0000
0100
0000
0010
0000
0001
0000
,
1000
0000
0010
0000
0001
0000
1000
0000
0001
0000
0010
0000
1000
0000
0001
1000
,
0001
0000
0010
0000
0100
0000
0001
0100
0001
0000
0100
0000
0010
0000
0001
0000
,
0200
0000
0310
0100
1000
0001
0010
1000
,
2010
3001
0012
2000
3003
0110
0000
2001
,
0000
3100
0010
0000
0100
0000
0010
0000
0001
0000
0100
0000
1010
0000
0000
0000
,
0001
0000
0001
0000
1000
0000
0010
0100
0010
0000
1000
0000
0001
0000
0020
0000
,
0001
0100
0000
1000
0100
0100
0130
0000
,
0010
0001
0010
0002
0000
0000
0103
0000
1000
0000
0100
0000
0010
0000
1000
0000
,
0002
0000
0000
0000
0000
0000
0000
0000
0000
0000
1003
0100
0010
0000
0000
0000
,
0001
0000
0100
0000
1000
0000
0100
0010
0100
0000
0100
0000
0100
0000
0001
0000
,
2000
0000
3100
0001
1000
0010
0001
0100
,
0001
0010
0001
0000
1000
0010
1000
0000
0001
0000
0000
0110
0000
0000
1002
0000
,
0000
0103
0010
0000
0100
0000
0010
0000
1000
0000
0100
0000
0011
0000
0000
0000
,
0001
0100
0001
0100
1000
0100
1000
0100
,
1000
0010
1000
0010
0001
0010
0001
0010
,
1000
0010
1000
0010
1000
0100
1000
0100
,
0001
0100
0001
0100
0001
0010
0001
0010
;

//---------------dance-single - ----------------
#NOTES:
     dance-single:
     :
     Medium:
     10:
     0.482110,0.491231,0.072381,0.524763,0.085953,373.000000,365.000000,8.000000,58.000000,0.000000,0.000000,0.482110,0.491231,0.072381,0.524763,0.085953,373.000000,365.000000,8.000000,58.000000,0.000000,0.000000:
0000
0000
0000
0000
,
0000
0000
0000
0000
,
0000
0000
0000
0000
,
0000
0000
0000
0000
,
1001
0000
1000
0000
0100
0100
0200
0000
,
1300
0000
0001
0000
0100
0100
0100
0000
,
1001
0000
1000
0000
0010
0010
0020
0000
,
1030
0001
1000
0000
0100
0010
0001
0000
,
1000
0010
1000
0010
1000
0100
1000
0010
,
0000
0000
2000
3200
0000
0320
0032
2003
,
3001
0100
0001
0100
0010
0100
0001
0010
,
0000
0200
0320
0032
0003
0002
2003
3000
,
0001
0010
0001
0010
0001
0100
0001
0010
,
0000
0000
0002
0203
0000
0320
2030
3002
,
1003
0100
1000
0100
0010
0100
1000
0010
,
0000
0200
0320
2030
3000
2000
3002
0003
,
1000
0000
0000
1000
0000
0000
1000
0000
0010
0000
0000
0010
0000
0000
0010
0000
,
0100
0000
0000
0100
0000
0000
0100
0000
0001
0000
0000
0001
0000
0000
0001
0000
,
1000
0000
0000
1000
0000
0000
1000
0000
0200
0000
0300
0010
0000
0000
0100
0000
,
0010
0000
0000
0010
0000
0000
0010
0000
0001
0000
0000
1000
0000
0000
0000
0000
,
0001
0000
0000
0100
0000
0000
0010
0000
1000
0000
0000
0100
0000
0000
0010
0000
,
0001
0000
0000
1000
0000
0000
0010
0000
1000
0000
0000
0001
0000
0000
0010
0000
,
0100
0000
0000
0010
0000
0000
0001
0000
0200
0000
0000
0320
0030
0000
1000
0000
,
0100
0000
0000
0010
0000
0000
0100
0000
1000
0000
0000
0002
0000
0003
0000
0000
,
1000
0010
1000
0010
1000
1000
0001
0001
,
0010
0001
0010
0001
1000
1000
0001
0001
,
0100
0001
0100
0001
1000
1000
0001
0001
,
1000
0100
1000
0100
0010
0001
2000
3000
,
0001
0100
0010
0100
0010
0100
0001
1000
,
0200
0000
0000
0302
0000
0103
0010
0000
,
0100
1000
0100
1000
0001
0100
0001
0100
,
0020
0000
0000
2030
0000
0001
3001
0000
,
1000
0100
0010
0100
0010
0100
1000
0001
,
0200
0000
0000
2300
0000
0100
3100
0000
,
0010
0100
0010
0100
0001
1000
0001
1000
,
0200
0000
0000
0320
0000
0001
0031
0000
,
1000
1000
0010
0010
,
0001
0001
0100
0100
,
1000
1000
0010
0010
,
0001
0001
0100
1000
,
0001
0100
0001
0000
0100
1000
0100
0000
,
1000
0010
1000
0000
0010
0001
0010
0000
,
0001
0100
0020
0000
1030
0000
0001
0000
,
1000
0100
0010
0001
0100
0010
1000
0000
,
0001
0010
0001
0010
0100
0010
0001
2000
,
3020
0230
0000
0320
2030
3002
2003
3002
,
1003
0000
0000
0200
0000
0000
0310
0000
0001
0000
0000
0000
1001
0000
0000
0000
,
1000
0010
0100
0001
0010
0100
1000
0001
,
0100
0010
0100
0010
1000
0001
1000
0010
,
0200
0000
0301
1000
0100
0010
0100
0000
,
1001
0000
1001
0000
0000
1010
0000
0102
,
0000
0013
0100
0010
0100
0010
0001
0000
,
1000
0010
1000
0010
0100
0010
1000
0002
,
0023
0230
0000
0320
0032
2003
3002
0003
,
0010
0000
0000
0002
0000
0000
0103
0000
0010
0000
1000
0000
1000
0000
0002
0000
,
0000
0000
0000
0000
0000
0010
0013
0000
,
0100
0010
0100
0010
0001
0001
0001
0100
,
0020
0000
1030
0100
0010
0001
1000
0000
,
0001
0000
0100
0000
0001
0000
0100
0000
0001
0000
0000
1000
0000
0000
2100
0000
,
0000
3010
0100
0010
0100
0010
1000
0000
,
1000
0100
0001
0000
0100
0001
0010
0000
,
0001
0010
1000
0000
0010
1000
0100
0000
,
1000
0100
0001
0000
0100
0001
0010
0000
,
0001
0010
1000
0000
0010
1000
0100
0001
;

//---------------dance-single - ----------------
#NOTES:
     dance-single:
     :
     Easy:
     6:
     0.312790,0.433439,0.162858,0.253334,0.000000,242.000000,224.000000,18.000000,28.000000,0.000000,0.000000,0.312790,0.433439,0.162858,0.253334,0.000000,242.000000,224.000000,18.000000,28.000000,0.000000,0.000000:
0000
0000
0000
0000
,
0000
0000
0000
0000
,
0000
0000
0000
0000
,
0000
0000
0000
0000
,
1001
0000
0100
0000
,
1000
0000
0010
0000
,
1001
0000
0100
0000
,
0001
0000
0010
0000
,
0001
0000
0001
0000
1000
0010
1000
0010
,
0000
0000
0000
2000
0000
3000
0100
0000
,
0010
0000
0001
0000
0100
0001
0100
0001
,
0000
0000
0000
1000
0000
0000
0010
0000
,
1000
0000
1000
0000
0001
0010
0001
0010
,
0000
0000
0000
0002
0000
0003
0100
0000
,
0010
0000
1000
0000
0100
1000
0100
1000
,
0000
0000
0000
0001
0000
0000
0010
0000
,
0001
0000
0100
0000
,
1000
0000
0010
0000
,
0001
0000
0100
0000
,
1000
0000
0010
0000
,
0011
0000
0101
0000
,
1100
0000
1010
0000
,
0011
0000
0101
0000
,
1010
0000
0000
0000
0000
0000
0000
0000
2002
0000
0000
3003
0000
0000
0000
0000
,
0001
0000
1000
0000
0001
0100
0001
0000
,
1000
0000
0001
0000
1000
0100
1000
0000
,
0001
0000
0100
0000
0010
1000
0010
0000
,
0100
0000
0001
0000
1000
0100
0020
0030
,
0001
0100
1000
0100
,
0002
0000
0000
0023
0000
0000
0130
0000
,
1000
0010
0100
0001
,
0020
0000
0000
0230
0000
0000
1300
0000
,
1000
0100
0001
0100
,
2000
0000
0000
3020
0000
0000
0130
0000
,
0001
0010
0100
1000
,
0020
0000
0000
0230
0000
0000
0301
0000
,
1000
0100
1000
0100
,
0010
0001
0010
0001
,
1000
0010
1000
0010
,
0100
0001
0100
0001
,
1000
0100
0001
0010
,
1000
0100
0001
0010
,
1000
1000
0001
0001
,
1000
0000
0010
0000
0100
0010
1000
0000
,
0001
0010
1000
0010
,
0001
0200
0000
0310
2000
0000
3001
0000
,
2000
0100
3002
0023
,
0031
0000
0100
0000
0010
1000
0010
0000
,
1000
0000
0100
0000
0010
0001
0010
0000
,
0200
0000
1000
0000
0310
0001
0100
0000
,
0101
0000
1010
0000
0000
1100
0000
0012
,
0000
0000
1003
0000
0001
1000
0001
0000
,
1000
0010
0001
0010
,
1000
0200
0000
0310
0002
0000
1003
0000
,
0002
0100
2003
3020
,
0230
0000
0000
0310
,
1000
0000
0001
0000
0010
0100
0010
0100
,
0020
0000
0001
0000
0130
1000
0010
0000
,
1010
0000
0101
0000
0011
0000
0000
2100
,
0000
0000
3001
0000
1000
0001
1000
0000
,
0001
0001
0100
0100
,
1000
1000
0010
0010
,
0001
0001
0100
0100
,
1000
0000
1000
0000
0010
0000
0010
0001
;

//---------------dance-single - ----------------
#NOTES:
     dance-single:
     :
     Beginner:
     2:
     0.153810,0.229810,0.036191,0.144762,0.000000,119.000000,115.000000,4.000000,16.000000,0.000000,0.000000,0.153810,0.229810,0.036191,0.144762,0.000000,119.000000,115.000000,4.000000,16.000000,0.000000,0.000000:
0000
0000
0000
0000
,
0000
0000
0000
0000
,
0000
0000
0000
0000
,
0000
0000
0000
0000
,
1000
0000
0000
0000
,
0001
0000
0000
0000
,
0100
0000
0000
0000
,
0010
0000
0000
0000
,
1000
1000
1000
1000
,
0000
0000
0000
0000
,
0100
0100
0100
0100
,
0000
0000
0000
0000
,
0010
0010
0010
0010
,
0000
0000
0000
0000
,
0001
0001
0001
0001
,
0000
0000
0000
0000
,
1000
0000
1000
0000
,
0001
0000
0001
0000
,
1000
0000
1000
0000
,
0001
0000
0001
0000
,
1000
0000
0010
0000
,
1000
0000
0010
0000
,
0100
0000
0001
0000
,
0100
0000
0001
0000
,
1000
0000
0000
0000
,
0001
0000
0000
0000
,
1000
0000
0000
0000
,
0001
0000
0000
0000
,
1000
1000
1000
0000
,
0200
0000
0000
0300
0000
0000
0000
0000
,
0010
0010
0010
0000
,
0002
0000
0000
0003
0000
0000
0000
0000
,
1000
1000
1000
0000
,
0020
0000
0000
0030
0000
0000
0000
0000
,
0100
0100
0100
0000
,
0002
0000
0000
0003
0000
0000
0000
0000
,
1000
0000
1000
0000
,
0001
0000
0001
0000
,
1000
0000
1000
0000
,
0001
0000
0001
0000
,
1000
0000
0100
0000
,
0001
0000
0010
0000
,
2000
3000
0002
0003
,
0010
0000
0200
0300
,
0010
0010
0010
0000
,
0001
0000
0002
0003
,
1000
0000
0010
0010
,
0010
0000
0100
0000
,
0001
0001
0001
0000
,
2000
3000
0100
0000
,
1001
0000
2002
0000
0000
0000
0000
3003
,
0000
0000
0000
1000
,
0010
0010
0010
0000
,
1000
0000
2000
3000
,
0001
0000
0010
0010
,
0020
0000
0000
0030
,
0001
0001
0001
0000
,
2000
3000
0010
0000
,
1001
0000
2002
0000
0000
0000
0000
3003
,
0000
0000
0000
0001
,
0010
0000
0100
0000
,
0010
0000
0100
0000
,
1000
0000
0001
0000
,
1000
0000
0001
0000
;
