#VERSION:0.83;
#TITLE:Stompbox (Spor Remix);
#SUBTITLE:;
#ARTIST:The Qemists;
#TITLETRANSLIT:;
#SUBTITLETRANSLIT:;
#ARTISTTRANSLIT:;
#GENRE:Neurofunk;
#ORIGIN:;
#CREDIT:;
#BANNER:Stompbox (Spor Remix).png;
#BACKGROUND:Stompbox (Spor Remix)-bg.png;
#PREVIEWVID:;
#JACKET:Stompbox (Spor Remix)-jacket.png;
#CDIMAGE:;
#DISCIMAGE:;
#LYRICSPATH:;
#CDTITLE:cdtitle.png;
#MUSIC:Stompbox (Spor Remix).ogg;
#OFFSET:-0.378550;
#SAMPLESTART:67.355782;
#SAMPLELENGTH:11.162788;
#SELECTABLE:YES;
#DISPLAYBPM:86.000000:172.000000;
#BPMS:0.000=172.000,
98.000=344.000,
98.500=172.000,
98.750=86.000,
99.000=172.000,
104.000=344.000,
104.500=172.000,
104.750=86.000,
105.000=172.000,
111.000=86.000,
111.500=344.000,
113.500=86.000,
114.000=172.000,
124.000=344.000,
124.500=172.000,
124.750=86.000,
125.000=172.000,
157.000=344.000,
157.500=172.000,
157.750=86.000,
158.000=172.000,
188.000=344.000,
188.500=172.000,
188.750=86.000,
189.250=172.000,
189.500=344.000,
190.000=172.000,
221.000=344.000,
221.500=172.000,
221.750=86.000,
222.000=172.000,
252.000=344.000,
252.500=172.000,
252.750=86.000,
253.250=172.000,
253.500=344.000,
254.000=172.000,
269.000=344.000,
269.500=172.000,
269.750=86.000,
270.000=172.000;
#STOPS:98.750=0.698,
104.750=0.349;
#DELAYS:;
#WARPS:;
#TIMESIGNATURES:0.000=4=4;
#TICKCOUNTS:0.000=4;
#COMBOS:0.000=1;
#SPEEDS:0.000=1.000=0.000=0;
#SCROLLS:0.000=1.000;
#FAKES:;
#LABELS:0.000=Song Start;
#BGCHANGES:;
#KEYSOUNDS:;
#ATTACKS:
;

//---------------dance-single - ----------------
#NOTEDATA:;
#CHARTNAME:;
#STEPSTYPE:dance-single;
#DESCRIPTION:;
#CHARTSTYLE:;
#DIFFICULTY:Challenge;
#METER:16;
#RADARVALUES:0.890314,0.991908,0.561070,0.820026,0.876133,722.000000,657.000000,65.000000,95.000000,93.000000,0.000000,0.000000,0.000000,0.000000,0.890314,0.991908,0.561070,0.820026,0.876133,722.000000,657.000000,65.000000,95.000000,93.000000,0.000000,0.000000,0.000000,0.000000;
#CREDIT:;
#DISPLAYBPM:86.000000:172.000000;
#NOTES:
// measure 0
0000
0000
0000
0000
,  // measure 1
0000
0000
0000
0000
,  // measure 2
0000
0000
0000
0000
,  // measure 3
0000
0000
0000
0000
,  // measure 4
2000
0000
3010
1000
0100
0100
0100
0010
,  // measure 5
0100
0000
0100
1000
0010
0010
0010
0100
,  // measure 6
0002
0000
0013
0001
0100
0100
0100
0010
,  // measure 7
1000
0000
0000
1000
0100
0000
0010
0000
0100
0000
0010
0001
1000
0001
0100
0000
,  // measure 8
0110
0000
0000
0000
1010
0000
1000
0100
1000
0000
0100
0000
1100
0000
0001
0000
,  // measure 9
0100
0000
0000
0000
0101
0000
0001
1000
0100
0000
1000
0000
1100
0000
0010
0000
,  // measure 10
0001
0000
0000
0000
0011
0000
0001
0100
0001
0000
0100
0000
0101
0000
1000
0000
,  // measure 11
0100
0000
0000
0000
1100
0000
1000
0001
0100
0000
0001
0000
0101
0000
0010
0000
,  // measure 12
1000
0000
0000
0000
1001
0000
0001
0010
0001
0000
1000
0000
1010
0000
1000
0000
,  // measure 13
0001
0000
0000
0000
0011
0000
0010
0100
1000
0000
0001
0000
0101
0000
0001
0000
,  // measure 14
1000
0000
0100
0000
1000
0000
0100
0010
0001
0000
0010
0000
0001
0000
1000
0010
,  // measure 15
0100
0001
0100
0001
1000
0001
1000
0001
1000
0100
1000
0100
0010
0001
1000
0010
,  // measure 16
0200
0000
0000
0300
0202
0000
0303
2020
0000
3030
0022
0033
2200
0300
0000
0000
,  // measure 17
3001
0000
0000
0000
01M1
0000
0000
0001
0000
0000
10M0
0000
1100
0000
0000
0000
,  // measure 18
10M0
0000
0000
0000
1010
0000
0000
1000
0000
0000
0M01
0000
0011
0000
0000
0000
,  // measure 19
0M01
0000
0000
0000
1001
0000
00M0
0100
0000
0000
0100
0000
1001
0000
0000
0000
,  // measure 20
0200
0000
0000
0300
2200
0000
3300
0022
0000
0033
2020
3030
0202
0300
0000
0000
,  // measure 21
1003
0000
0000
0000
11M0
0000
0000
1000
0000
0000
00M1
0000
0101
0000
0000
0000
,  // measure 22
00M1
0000
0000
0000
0011
0000
0000
0010
0001
0000
1M00
0000
1010
0000
0010
0000
,  // measure 23
100M
0000
0100
0000
0010
0000
M001
0100
0001
0000
0100
0000
0010
0000
1000
0001
,  // measure 24
0020
0000
0000
0000
0130
0010
0001
0000
2000
0000
0000
3000
0001
0100
0010
0000
,  // measure 25
0200
0000
0000
0300
0200
0000
0000
0300
0020
0000
0000
0000
0130
0010
1000
0000
,  // measure 26
0002
0000
0000
0003
2001
0000
0000
0000
3010
0000
1000
0000
0100
0000
0100
0000
,  // measure 27
0100
0000
0010
0000
0012
0000
0000
0000
0103
0010
1000
0000
0200
0000
0300
0000
,  // measure 28
0000
0000
0000
0000
0000
0000
MMMM
0000
1000
0001
1000
0000
0020
0000
0030
0000
,  // measure 29
0020
0000
0030
0000
2000
0000
0000
0000
3100
0010
0001
0000
0200
0000
2300
0000
,  // measure 30
3200
0000
0000
0000
0301
0100
0001
1000
0100
0010
0001
0100
0001
0100
0001
1000
,  // measure 31
0200
0000
0000
0300
0210
0000
00M0
0000
0310
0001
0100
0020
0M0M
0000
1000
0030
,  // measure 32
1000
0000
0000
0000
0000
0000
1000
0000
0000
0000
0000
0000
1000
0000
0000
0000
1000
0000
0100
0000
0010
0000
0000
0000
0002
0000
0000
0000
0000
0000
0000
0003
,  // measure 33
0200
0000
0000
0300
0210
0000
00M0
0000
0310
1000
0001
MM20
0000
0000
0031
0000
,  // measure 34
0001
0000
0000
0001
0100
0000
0000
0100
1000
0000
0100
0000
0001
0000
1000
0100
,  // measure 35
0000
0100
0010
0000
0021
0000
000M
0000
0130
1000
0001
02M0
0000
0000
0310
0000
,  // measure 36
1000
0010
1000
0010
0100
0000
0100
0010
1000
0000
0100
0000
0010
0001
1000
0001
,  // measure 37
0010
0001
1000
0001
0100
0000
0001
1000
0100
0000
0010
0001
1000
0000
0010
0100
,  // measure 38
0001
0000
0010
0100
1000
0001
1000
0001
0100
0010
0100
0010
1000
0001
1000
0001
,  // measure 39
0010
0100
0010
0100
1000
0000
0000
0000
1001
0000
0001
02M0
0000
0000
0301
0000
,  // measure 40
2M1M
0000
0000
0000
3100
0000
0010
0001
0100
0000
0010
200M
0000
0000
3100
0000
,  // measure 41
M001
0100
0000
0100
1000
0000
0010
0100
0001
0000
1000
02M0
0000
0000
0310
0000
,  // measure 42
MM12
0000
0000
0000
0103
0000
0010
1000
0100
0000
0010
M002
0000
0000
0103
0000
,  // measure 43
100M
0100
0000
0100
0001
0000
0010
0001
0100
0000
0010
200M
0000
0000
3100
0000
,  // measure 44
MM21
0000
0000
0000
0130
0000
0010
0001
0100
0000
1000
02M0
0000
0000
0301
0000
,  // measure 45
0M10
0001
0000
0001
1000
0000
0010
1000
0100
0000
0010
M002
0000
0000
0103
0000
,  // measure 46
2M1M
0000
0000
0000
3200
0000
0310
0001
0010
0001
1000
0010
0100
0001
0100
0001
,  // measure 47
0020
0000
0000
0030
0220
0330
0000
0000
1001
0000
1000
0M20
0000
0000
0031
0000
,  // measure 48
M12M
0000
0000
0000
1030
0000
0010
1000
0100
0000
0010
M002
0000
0000
0103
0000
,  // measure 49
100M
0100
0000
0100
0001
0000
0010
0001
0100
0000
0001
0M20
0000
0000
1030
0000
,  // measure 50
M12M
0000
0000
0000
0031
0000
0010
0001
0100
0000
0010
200M
0000
0000
3100
0000
,  // measure 51
M001
0100
0000
0100
1000
0000
0001
0100
0010
0000
0100
20M0
0000
0000
3100
0000
,  // measure 52
M12M
0000
0000
0000
0130
0000
0001
1000
0100
0000
0010
M200
0000
0000
0301
0000
,  // measure 53
1M00
0010
0000
0010
0001
0000
1000
0010
0100
0000
0001
20M0
0000
0000
3100
0000
,  // measure 54
M12M
0000
0000
0000
0031
0000
1000
0010
0100
0000
0001
1000
0000
1000
0100
0000
,  // measure 55
0010
0001
0000
0001
0100
0000
0000
0000
0001
0100
0010
1000
0000
1000
0100
0000
,  // measure 56
MM21
0000
0000
0000
0130
0000
1000
0010
1000
0010
0100
0002
0MM0
0000
1003
0000
,  // measure 57
0100
0010
0000
0010
0001
0000
0000
0001
1000
0010
0000
M21M
0000
0000
0301
0000
,  // measure 58
0101
0000
1001
0000
0000
1000
0100
0000
0010
0100
1000
0002
MM00
0000
0103
0000
,  // measure 59
0010
1000
0000
1000
0001
0000
0010
0001
1000
0010
1000
0001
0000
0001
0010
0000
,  // measure 60
12MM
0000
0000
0000
0310
0000
0001
0100
0001
0100
0010
2000
0MM0
0000
3100
0000
,  // measure 61
0001
0100
0000
0100
1000
0000
0001
0100
0010
1000
0001
0010
0000
0010
0001
0000
,  // measure 62
1MM2
0000
0000
0000
1003
0010
0100
0001
1000
0100
1000
0100
1000
0100
1000
0100
,  // measure 63
0020
0000
0000
0030
2002
3003
0000
0000
1000
0010
1000
0001
0000
1000
0100
0000
,  // measure 64
MM21
0000
0000
0031
0100
0000
0010
1000
0010
1000
0001
0M20
0000
0000
0130
0000
,  // measure 65
0010
0001
1000
0010
0100
0000
0010
1000
0001
0010
0001
1000
0000
0001
0100
0000
,  // measure 66
1M2M
0000
0000
1030
0100
0000
0010
0001
0100
0000
1000
0100
0000
0100
0001
0000
,  // measure 67
0010
0100
0010
0100
1000
0000
0000
0000
0001
0100
0001
2000
0000
0000
3100
0000
,  // measure 68
M11M
0000
0100
1000
0001
0000
0000
0000
1000
0100
1000
0002
0000
0000
0103
0000
,  // measure 69
M11M
0000
0100
0001
1000
0000
0000
0000
0001
0010
0100
0010
0000
0001
1000
0000
,  // measure 70
1001
0000
0001
0100
0010
0000
1000
0001
0010
0100
0010
0100
0010
0001
1000
0000
,  // measure 71
0001
0100
0010
1000
0002
0000
0000
0000
0013
0001
0010
0002
0000
0000
0103
0000
,  // measure 72
1MM2
0000
0000
0000
0103
0000
0000
0000
0010
1000
0010
2000
0000
0000
3100
0000
,  // measure 73
2MM1
0000
3100
0000
0100
0010
0001
0001
,  // measure 74
0001
0100
1000
0000
1000
0100
0001
0001
,  // measure 75
0001
0000
0010
0000
2100
0000
0000
0000
3001
0100
0001
0200
0000
0000
0310
0000
,  // measure 76
2MM1
0000
0000
0000
3010
0000
0000
0000
1000
0100
1000
0200
0000
0000
0310
0000
,  // measure 77
1MM2
0000
0000
0000
0013
0000
0000
0010
0001
0000
0000
0001
0100
0000
1000
0000
,  // measure 78
0100
0000
0010
0100
0001
0000
0000
0001
0010
0000
0100
0000
1000
0000
0001
0100
,  // measure 79
0000
0100
0010
0000
1MM1
0000
0000
0000
0000
0000
0000
0000
0000
0000
0000
0000
;

//---------------dance-single - ----------------
#NOTEDATA:;
#CHARTNAME:;
#STEPSTYPE:dance-single;
#DESCRIPTION:;
#CHARTSTYLE:;
#DIFFICULTY:Hard;
#METER:13;
#RADARVALUES:0.676984,0.718278,0.638757,0.371170,0.345274,549.000000,475.000000,74.000000,43.000000,10.000000,0.000000,6.000000,0.000000,0.000000,0.676984,0.718278,0.638757,0.371170,0.345274,549.000000,475.000000,74.000000,43.000000,10.000000,0.000000,6.000000,0.000000,0.000000;
#CREDIT:;
#DISPLAYBPM:86.000000:172.000000;
#NOTES:
0000
0000
0000
0000
,
0000
0000
0000
0000
,
0000
0000
0000
0000
,
0000
0000
0000
0000
,
0002
0000
0013
0001
0100
0001
0100
0010
,
0100
0000
0100
1000
0100
0010
0100
0001
,
2000
0000
3010
1000
0100
1000
0100
0001
,
0100
0000
0000
1000
0000
0000
0010
0000
0100
0000
0010
0000
0100
0000
0001
0000
,
2001
0000
3010
1000
0001
0001
0001
1000
,
0100
0000
1000
0100
0001
0001
0001
0100
,
1200
0000
0310
0001
1000
1000
1000
0001
,
0100
0000
0001
0100
1000
1000
1000
0100
,
0102
0000
1003
0100
0010
0010
0010
0100
,
1000
0000
0001
0100
0010
0010
0010
1000
,
1002
0100
0100
0100
,
1003
0010
0001
0010
1000
0100
0001
0100
,
1000
0000
0000
0000
2010
0000
0000
0001
0000
0000
3001
0000
1100
0000
0000
0000
,
0001
0000
0000
0000
0011
0000
0000
0001
0000
0000
0100
0000
0101
0000
0000
0000
,
1000
0000
0000
0000
1010
0000
0000
1000
0000
0000
0100
0000
1100
0000
0000
0000
,
0001
0000
0000
0000
1001
0000
0000
0100
0000
0000
0100
0000
1001
0000
0000
0000
,
0100
0000
0000
0000
0012
0000
0000
1000
0000
0000
1003
0000
0101
0000
0000
0000
,
1000
0000
0000
0000
1100
0000
0000
1000
0000
0000
0010
0000
1010
0000
0000
0000
,
0001
0000
0000
0000
0101
0000
0000
0001
0000
0000
0010
0000
0011
0000
0000
0000
,
0001
0100
0010
0100
1000
0100
0010
0100
,
0002
0000
0000
0000
0013
0000
0100
0000
2000
0000
0000
3000
1000
0000
0100
0000
,
0020
0000
0000
0030
0002
0000
0000
0003
2000
0000
0000
0000
3010
0000
0100
0000
,
0002
0000
0000
0003
1002
0000
0000
0000
0103
0000
0001
0000
0010
0000
0001
0000
,
0010
0100
2100
0000
3010
0100
0002
0003
,
0000
0000
0000
0000
0000
0000
MMMM
0000
0001
0000
1000
0000
0020
0000
0000
0030
,
0200
0000
0000
0300
0002
0000
0000
0000
0013
0000
0100
0000
2000
0000
3020
0000
,
0230
0000
0000
0000
0301
0000
1000
0000
0400
0040
0000
0000
0000
0000
0000
0000
,
0330
0000
0MM0
0000
0110
0000
0000
0000
0011
0000
0000
2001
0000
0000
3010
0000
,
0010
0000
0000
1000
0000
0000
0010
0000
1000
0000
0001
0000
0020
0000
0000
0030
,
0002
0000
0000
0003
0101
0000
0000
0000
1010
0000
0000
1002
0000
0000
0013
0000
,
0010
0000
0000
0000
0001
0000
0000
0001
1000
0000
0001
0000
0100
0000
0010
1000
,
0000
0010
1000
0000
1001
0000
0000
0000
1100
0000
0000
0011
0000
0000
0001
0000
,
0100
0000
0000
0100
0010
0000
0000
0010
1000
0000
0001
0000
0010
0000
0100
0010
,
0000
0100
0010
0000
0001
0000
0100
0000
0001
0000
0100
0000
0010
0000
1000
0000
,
0010
1000
0001
0010
1000
0010
0001
0100
,
1000
0000
0100
0000
0001
0000
0000
0000
0011
0000
0000
0001
0000
0000
0100
0000
,
1010
0000
0000
0000
0010
0000
1000
0000
0100
0000
0000
1000
0000
0000
0100
0000
,
0010
0001
0000
0001
0100
0000
0010
0000
1010
0000
0000
1000
0000
0000
0100
0000
,
0011
0000
0000
0000
0010
0000
0001
0000
0100
0000
0000
0001
0000
0000
0100
0000
,
0010
1000
0000
1000
0100
0000
0010
0000
0110
0000
0000
0100
0000
0000
1000
0000
,
1001
0000
0000
0000
1000
0000
0010
0000
0100
0000
0000
0001
0000
0000
0010
0000
,
0100
0010
0000
0010
0001
0000
1000
0000
1010
0000
0000
1000
0000
0000
0001
0000
,
0011
0000
0000
0000
0004
4000
0000
0000
0000
0000
0000
0000
0000
0000
0000
0000
,
3003
0000
M00M
0000
1001
0000
0000
0000
0101
0000
0000
0100
0000
0000
0010
0000
,
1010
0000
0000
0000
1000
0000
0100
0000
0001
0000
0000
0100
0000
0000
1000
0000
,
0010
0100
0000
0100
0001
0000
1000
0000
1100
0000
0000
0100
0000
0000
0010
0000
,
0011
0000
0000
0000
0001
0000
0100
0000
1000
0000
0000
0100
0000
0000
0001
0000
,
0010
0100
0000
0100
1000
0000
0010
0000
0110
0000
0000
0010
0000
0000
1000
0000
,
1001
0000
0000
0000
0001
0000
0010
0000
1000
0000
0000
0010
0000
0000
0100
0000
,
0010
0001
0000
0001
0100
0000
0010
0000
1010
0000
0000
1000
0000
0000
0001
0000
,
0011
0000
0000
0000
0001
0000
0100
0000
0010
0000
0000
1000
0000
0000
1000
0000
,
0001
0010
0000
0100
1000
0000
0000
0000
0001
0000
0000
0200
0000
0000
0310
0000
,
1010
0000
0000
0000
1000
0000
0100
0000
0001
0000
0000
0200
0000
0000
0310
0000
,
0100
1000
0000
1000
0010
0000
0000
0000
0101
0000
0000
1010
0000
0000
0001
0000
,
0100
0000
1000
0000
0000
0000
1000
0000
0100
0000
0000
0002
0000
0000
0013
0000
,
0100
0010
0000
0010
0001
0000
0000
0000
1000
0000
0000
0020
0000
0000
0130
0000
,
0101
0000
0000
0000
0001
0000
0010
0000
1000
0000
0000
0020
0000
0000
0130
0000
,
0010
0001
0000
0001
0100
0000
0000
0000
1000
0000
0000
0100
0000
0000
0001
0000
,
0101
0000
0000
0000
0001
0000
0010
0000
0400
4000
0000
0000
0000
0000
0000
0000
,
3300
0000
MM00
0000
1100
0000
0000
0000
0001
0000
0000
0200
0000
0000
0310
0000
,
0100
0000
1000
0000
0100
0000
0010
0000
1000
0000
0000
0200
0000
0000
0310
0000
,
0100
0000
0001
0000
0100
0000
0010
0000
0001
0000
0000
2000
0000
0000
3010
0000
,
0100
0000
0010
0000
0001
0000
0010
0000
1000
0000
0000
0002
0000
0000
0013
0000
,
0100
0000
0010
0000
0001
0000
0000
0000
0101
0000
0000
0002
0000
0000
0103
0000
,
0010
0000
0100
0000
1000
0000
0000
0000
1100
0000
0000
2000
0000
0000
3100
0000
,
0010
0000
0100
0000
0001
0000
0000
0000
1001
0000
0000
2000
0000
0000
3100
0000
,
1000
0010
0001
0010
1000
0100
0010
0100
,
1000
0000
0001
0000
0101
0000
0000
0000
0110
0000
0000
0110
0000
0000
1010
0000
,
1002
0000
0000
0000
0013
0000
0000
0000
0110
0000
0000
0110
0000
0000
0011
0000
,
2001
0000
3010
0000
1000
0001
0010
0010
,
0010
0001
0100
0000
0001
0100
1000
1000
,
1000
0000
0100
0000
0110
0000
0000
0000
0101
0000
0000
0101
0000
0000
0011
0000
,
2001
0000
0000
0000
3100
0000
0000
0000
1100
0000
0000
1100
0000
0000
1010
0000
,
1002
0000
0000
0000
0103
0000
0000
0010
1000
0000
0000
1000
0100
0000
0010
0000
,
0001
0000
0100
0000
1000
0000
0000
1000
0100
0000
0001
0000
0010
0000
0100
1000
,
0000
0100
1000
0000
1001
0000
0000
0000
0000
0000
0000
0000
0000
0000
0000
0000
;

//---------------dance-single - ----------------
#NOTEDATA:;
#CHARTNAME:;
#STEPSTYPE:dance-single;
#DESCRIPTION:;
#CHARTSTYLE:;
#DIFFICULTY:Medium;
#METER:10;
#RADARVALUES:0.517911,0.581463,0.526543,0.267587,0.133794,420.000000,359.000000,61.000000,31.000000,0.000000,0.000000,4.000000,0.000000,0.000000,0.517911,0.581463,0.526543,0.267587,0.133794,420.000000,359.000000,61.000000,31.000000,0.000000,0.000000,4.000000,0.000000,0.000000;
#CREDIT:;
#DISPLAYBPM:86.000000:172.000000;
#NOTES:
0000
0000
0000
0000
,
0000
0000
0000
0000
,
0000
0000
0000
0000
,
0000
0000
0000
0000
,
2000
3000
0001
0001
,
0100
0000
0001
0010
,
0002
0003
1000
1000
,
0010
0000
0100
0000
0010
1000
0100
0000
,
1002
0000
0003
0010
0001
0100
0001
0100
,
0010
0000
0000
0010
0100
0001
0100
0001
,
2000
0000
3000
0010
1000
0100
1000
0100
,
0010
0000
0000
0010
0100
1000
0100
1000
,
0002
0000
0003
1000
0010
1000
0010
1000
,
0001
0000
0000
0001
0010
0001
0010
0001
,
2000
0010
0010
0010
,
3020
0032
0203
2300
,
3010
0000
0101
0000
0000
0001
0101
0000
,
1000
0000
1100
0000
0000
1000
1100
0000
,
1000
0000
1010
0000
0000
1000
1010
0000
,
0001
0000
0011
0000
0000
0001
0011
0000
,
1000
0000
1100
0000
0000
1000
1010
0000
,
0001
0000
0101
0000
0000
0001
0011
0000
,
1000
0000
1010
0000
0000
0001
0101
0000
,
1000
0000
0100
0010
0100
1000
0001
0000
,
0102
0000
0000
0000
0010
0000
0000
0000
2000
0000
0000
3003
0100
0000
0000
0000
,
1001
1001
2100
0010
,
0002
0000
0000
3003
2002
0000
0000
3003
0000
0000
1000
0000
0010
0000
1000
0000
,
0001
0010
0002
0000
0100
0000
0020
0000
,
0000
0000
0000
0033
0100
0000
1001
0000
,
1001
2010
0100
0040
,
0000
0000
0000
3030
1000
0000
0000
0000
0400
0000
0000
0000
0000
0000
0000
0000
,
0300
0000
0000
0000
0110
0000
0000
0000
1000
0000
0000
2000
0000
0000
0000
0000
,
3010
0010
1010
0011
,
1010
0000
0000
0000
0110
0000
0000
0000
0001
0000
0000
0002
0000
0000
0000
0000
,
0013
0000
0010
0000
0001
1000
0001
0000
,
0001
0000
0000
0000
0110
0000
0000
0000
1000
0000
0000
1000
0000
0000
0000
0000
,
0001
0010
1000
0100
,
0001
1000
1000
0001
,
0001
0000
0010
0100
0010
0100
0010
0100
,
0010
0000
0100
0000
0010
0000
0000
0000
0001
0000
0000
0001
0000
0000
0100
0000
,
0010
0000
0000
0000
1010
0000
0000
0000
1000
0000
0000
1000
0000
0000
0100
0000
,
0010
0000
0000
0000
0011
0000
0000
0000
0001
0000
0000
1000
0000
0000
1000
0000
,
0010
0000
0000
0000
0101
0000
0000
0000
1000
0000
0000
0001
0000
0000
0001
0000
,
0010
0000
0000
0000
1100
0000
0000
0000
0001
0000
0000
0010
0000
0000
0001
0000
,
1000
0000
0000
0000
1010
0000
0000
0000
1000
0000
0000
0010
0000
0000
1000
0000
,
0001
0000
0000
0000
0011
0000
0000
0000
0001
0000
0000
1000
0000
0000
0010
0000
,
0100
0004
0000
0000
,
0003
0000
0000
0000
0110
0000
0000
0000
1000
0000
0000
0010
0000
0000
1000
0000
,
0100
0000
0000
0000
0011
0000
0000
0000
0001
0000
0000
0010
0000
0000
0001
0000
,
0100
0000
0000
0000
1010
0000
0000
0000
0001
0000
0000
0010
0000
0000
0001
0000
,
0100
0000
0000
0000
1100
0000
0000
0000
1000
0000
0000
0010
0000
0000
1000
0000
,
0100
0000
0000
0000
0101
0000
0000
0000
1000
0000
0000
0100
0000
0000
1000
0000
,
0010
0000
0000
0000
1010
0000
0000
0000
0001
0000
0000
0100
0000
0000
0001
0000
,
0010
0000
0000
0000
0011
0000
0000
0000
1000
0000
0000
0010
0000
0000
0100
0000
,
0001
0000
1000
0100
0010
0000
0001
0100
,
0010
0000
1000
0000
0001
0000
0000
0000
1000
0000
0000
0200
0000
0000
0000
0000
,
0310
0000
0100
0000
1000
0000
0000
0000
0001
0000
0000
0200
0000
0000
0000
0000
,
0310
0000
0100
0000
0001
0000
0000
0000
1001
0000
0000
1001
0000
0000
0001
0000
,
0100
0000
0001
0000
0000
0000
1000
0000
0100
0000
0000
0020
0000
0000
0031
0000
,
0100
0000
0010
0000
1000
0000
0000
0000
0001
0000
0000
0020
0000
0000
0000
0000
,
0130
0000
1000
0000
0001
0000
0000
0000
1000
0000
0000
0020
0000
0000
0000
0000
,
0130
0000
0001
0000
1000
0000
0000
0000
0100
0000
0000
0100
0000
0000
1000
0000
,
0001
0400
0000
0000
,
0300
0000
0000
0000
0110
0000
0000
0000
1000
0000
0000
0010
0000
0000
1000
0000
,
0010
0000
1000
0000
0001
0000
0000
0000
0001
0000
0000
0010
0000
0000
0001
0000
,
0010
0000
0001
0000
1000
0000
0000
0000
0001
0000
0000
0100
0000
0000
0010
0000
,
0100
0000
0001
0000
1000
0000
0000
0000
1000
0000
0000
0100
0000
0000
0010
0000
,
0100
0000
1000
0000
0001
0000
0000
0000
0001
0000
0000
0100
0000
0000
0010
0000
,
0100
0000
0010
0000
1000
0000
0000
0000
0001
0000
0000
0010
0000
0000
0100
0000
,
0010
0000
0100
0000
1000
0000
0000
0000
0001
0000
0000
0100
0000
0000
0010
0000
,
1000
0001
0100
0010
1000
0010
1000
0001
,
0010
0011
0110
0011
,
1001
1010
0110
1010
,
1001
0000
2000
0000
3000
0001
0010
0001
,
0010
0001
1000
0000
0000
0001
0100
0001
,
0100
0001
1000
0000
1100
0000
0110
0000
,
1100
1001
0101
0110
,
0101
0002
0023
0230
,
2300
0000
3001
0000
1000
0010
0100
0001
,
1000
1001
0000
0000
;

//---------------dance-single - ----------------
#NOTEDATA:;
#CHARTNAME:;
#STEPSTYPE:dance-single;
#DESCRIPTION:;
#CHARTSTYLE:;
#DIFFICULTY:Easy;
#METER:6;
#RADARVALUES:0.357605,0.410445,0.362538,0.189901,0.000000,290.000000,248.000000,42.000000,22.000000,0.000000,0.000000,0.000000,0.000000,0.000000,0.357605,0.410445,0.362538,0.189901,0.000000,290.000000,248.000000,42.000000,22.000000,0.000000,0.000000,0.000000,0.000000,0.000000;
#CREDIT:;
#DISPLAYBPM:86.000000:172.000000;
#NOTES:
0000
0000
0000
0000
,
0000
0000
0000
0000
,
0000
0000
0000
0000
,
0000
0000
0000
0000
,
2000
3000
0010
1000
,
0001
0000
0001
1000
,
0200
0300
0010
0001
,
0100
0100
0010
0010
,
2002
3003
1000
0010
,
0001
0000
0001
0010
,
2020
3030
0001
0010
,
1000
0000
1000
0010
,
0022
0033
0001
0100
,
1000
0000
1000
0100
,
0002
0010
0010
0010
,
0013
0100
1000
0001
,
1002
0100
0000
0103
,
0001
1100
0000
1100
,
0001
0011
0000
0011
,
1000
1010
0000
1010
,
2001
0100
0000
3100
,
1000
0101
0000
1010
,
0100
0101
0000
0011
,
0100
1100
0000
1100
,
0001
0000
0000
0000
1000
0000
0000
0000
0002
0000
0000
0003
0000
0000
0000
0000
,
1000
0010
0100
0001
,
2000
0000
0000
3000
0000
0000
0000
0000
0000
0000
0000
0000
1000
0000
0000
0000
,
0100
1001
0100
0002
,
0000
0000
0000
0003
0000
0000
0001
0000
,
0100
1001
0100
2000
,
0000
3200
0000
0000
,
0300
0101
1100
0202
,
0000
0000
0303
0001
,
0010
1100
0101
2200
,
0000
0000
0000
0000
,
3300
0001
0001
0100
,
0100
0010
0010
1000
,
1000
0001
0010
0100
,
1000
0001
0100
0010
,
0100
0010
1000
0100
,
0001
0100
1000
0010
,
1000
0001
0010
1000
,
0010
0001
0100
0010
,
1000
0001
0100
1000
,
0100
0001
0010
0100
,
1000
0010
0001
0010
,
1000
0200
0000
0000
,
0300
1001
0001
0100
,
1000
0100
0010
1000
,
0100
0001
0100
0010
,
0001
1000
0010
0001
,
0010
1000
0100
0001
,
0100
1000
0001
0100
,
0010
0001
0010
1000
,
0001
0010
0010
0100
,
0010
0001
0101
0000
,
1010
1000
1100
0000
,
0011
0001
0101
0000
,
1001
1000
1100
0000
,
0011
0001
0101
0000
,
1100
1000
1010
0000
,
0011
0001
0101
0000
,
1001
0200
0000
0000
,
0300
1001
0001
1000
,
0100
0001
0000
0001
,
0100
1000
1000
0001
,
0100
1000
0000
1000
,
0100
0001
1000
0001
,
0010
1000
0000
1000
,
0010
0001
0001
1000
,
0010
0001
0000
0001
,
0010
1000
1000
0100
,
0100
1000
1000
0010
,
0010
1000
0000
1000
,
0100
0010
0000
0100
,
0010
0001
0001
0100
,
0100
0001
0001
0010
,
0010
0001
0100
0010
,
1000
0001
0010
0010
,
0010
1001
0000
0000
;

//---------------dance-single - ----------------
#NOTEDATA:;
#CHARTNAME:;
#STEPSTYPE:dance-single;
#DESCRIPTION:;
#CHARTSTYLE:;
#DIFFICULTY:Beginner;
#METER:3;
#RADARVALUES:0.221962,0.273630,0.069055,0.103582,0.000000,180.000000,172.000000,8.000000,12.000000,0.000000,0.000000,0.000000,0.000000,0.000000,0.221962,0.273630,0.069055,0.103582,0.000000,180.000000,172.000000,8.000000,12.000000,0.000000,0.000000,0.000000,0.000000,0.000000;
#CREDIT:;
#DISPLAYBPM:86.000000:172.000000;
#NOTES:
0000
0000
0000
0000
,
0000
0000
0000
0000
,
0000
0000
0000
0000
,
0000
0000
0000
0000
,
1000
0000
1000
0000
,
0001
0000
0001
0000
,
1000
0000
1000
0000
,
0001
0000
1000
0000
,
0100
0000
0010
0010
,
0010
0000
0001
0001
,
0001
0000
0100
0100
,
0100
0000
0010
0010
,
0010
0000
1000
1000
,
1000
0000
0001
0001
,
0002
0000
0003
0000
,
1000
1000
1000
0000
,
0001
0001
0000
0100
,
0000
0001
0000
0001
,
0000
0010
0000
0010
,
0000
0001
0000
1000
,
1000
1000
0000
0100
,
0000
1000
0000
1000
,
0000
0010
0000
0010
,
0000
1000
0000
0001
,
0002
0000
0003
0000
,
0000
0000
2000
0000
,
3000
0000
0000
0100
,
0100
0200
0000
0300
,
0000
0000
0000
0000
,
0000
0020
0000
0030
,
0000
0002
0000
0003
,
0000
1001
1001
2002
,
0000
0000
0000
3003
,
0000
0110
0110
0220
,
0000
0000
0000
0330
,
0000
1000
0000
0001
,
0000
1000
0000
0001
,
0000
0100
0000
0100
,
0000
0100
0100
0100
,
0100
0000
0001
0001
,
0001
0000
0010
0010
,
0010
0000
1000
1000
,
1000
0000
0100
0100
,
0100
0000
0001
0001
,
0001
0000
0010
0010
,
0010
0000
0100
0100
,
0100
0200
0000
0000
,
0300
0000
1000
1000
,
1000
0000
0010
0010
,
0010
0000
0001
0001
,
0001
0000
0100
0100
,
0100
0000
1000
1000
,
1000
0000
0010
0010
,
0010
0000
0100
0100
,
0100
0000
0001
0001
,
0001
0000
1000
0000
,
0100
0000
1000
0000
,
0010
0000
1000
0000
,
0100
0000
0010
0000
,
0100
0000
1000
0000
,
0010
0000
0100
0000
,
0001
0000
1000
0000
,
0100
0200
0000
0000
,
0300
0000
0000
1000
,
1000
1000
0000
0010
,
0010
0010
0000
0100
,
0100
0100
0000
0001
,
0001
0001
0000
0010
,
0010
0010
0000
0100
,
0100
0100
0000
1000
,
1000
1000
0000
0001
,
0000
1001
0000
1000
,
0000
1000
0000
1000
,
0000
0010
0000
0010
,
0000
0010
0000
0010
,
0000
1001
0000
0001
,
0000
0001
0000
0001
,
0000
0010
0000
0010
,
0000
0001
0000
0100
,
0100
0100
0000
0000
;
