#TITLE:Star Scat;
#SUBTITLE:;
#ARTIST:Caravan Palace;
#TITLETRANSLIT:;
#SUBTITLETRANSLIT:;
#ARTISTTRANSLIT:;
#GENRE:Electro Swing;
#CREDIT:;
#BANNER:Star Scat.png;
#BACKGROUND:Star Scat-bg.png;
#LYRICSPATH:;
#CDTITLE:cdtitle.png;
#MUSIC:Star Scat.ogg;
#OFFSET:-0.053412;
#SAMPLESTART:39.540897;
#SAMPLELENGTH:12.307693;
#SELECTABLE:YES;
#BPMS:0.000000=78.000000
;
#STOPS:48.000000=2.308000
;
#BGCHANGES:;
#KEYSOUNDS:;
#ATTACKS:;

//---------------dance-single - ----------------
#NOTES:
     dance-single:
     :
     Challenge:
     14:
     0.611565,0.557651,0.125174,0.342143,1.201672,513.000000,498.000000,15.000000,41.000000,7.000000,0.000000,0.611565,0.557651,0.125174,0.342143,1.201672,513.000000,498.000000,15.000000,41.000000,7.000000,0.000000:
// measure 0
0000
0000
0000
0000
,  // measure 1
0010
0000
1000
0001
0000
1000
0010
0000
1000
0001
0000
1000
0100
0000
0000
0000
0000
0011
0000
0000
0000
0000
0000
0000
,  // measure 2
0010
0000
0001
1000
0000
0001
0010
0000
0001
1000
0000
0001
0100
0000
0100
0000
0000
1010
0000
0000
1000
0001
0000
0000
,  // measure 3
0100
0000
0001
0010
0000
0001
0100
0000
0001
0010
0000
0001
1000
0000
1000
0001
0000
0011
0000
0000
0000
1000
0000
0000
,  // measure 4
0100
0000
1000
0010
0000
1000
0100
0000
1000
0010
0000
1000
0001
0000
0100
0000
0000
1010
0000
0000
0000
0000
0000
0000
,  // measure 5
1000
0001
1000
0010
0000
0100
0001
0000
1000
0001
0000
0010
0001
1000
0100
1000
0000
0001
1000
0000
0010
1000
0010
0100
,  // measure 6
0001
0000
0000
0000
0000
0000
0000
0000
0000
0000
0000
0000
0000
0000
0000
0000
0001
0000
0000
0000
0000
0000
0000
0000
0010
0000
0000
0000
0000
0000
0000
0000
0000
0000
0000
0000
0000
0000
0000
0000
0010
0000
0000
0000
0000
0000
0000
0000
0100
0000
0000
0000
0000
0000
0000
0000
0000
0000
0000
0000
0000
0000
0000
0000
0100
0000
0000
0000
0000
0000
0000
0000
1000
0000
0000
0000
0000
0000
0000
0000
0000
0000
0000
0000
0000
0000
0000
0000
0001
0000
0000
0000
0000
0000
0000
0000
0100
0000
0000
0000
0000
0000
0000
0000
0000
0000
0000
0000
0000
0000
0000
0000
0100
0000
0000
0000
0000
0000
0000
0000
0010
0000
0000
0000
0000
0000
0000
0000
0000
0000
0000
0000
0000
0000
0000
0000
0010
0000
0000
0000
0000
0000
0000
0000
1000
0000
0000
0000
0000
0000
0000
0000
0000
0000
0000
0000
0000
0000
0000
0000
0002
0000
M000
0000
0000
0000
0000
0000
0000
0000
0000
0000
0000
0000
0000
0000
0000
0000
0000
0000
0000
0000
0000
0000
0013
0000
0000
0000
0000
0000
0000
0000
,  // measure 7
0001
1000
0010
0100
0000
0010
1000
0000
0001
1000
0000
0100
0010
0001
1000
0001
0100
0010
0100
0000
0010
0100
0010
1000
,  // measure 8
0001
0000
0000
0000
0000
0000
0000
0000
0000
0000
0000
0000
0000
0000
0000
0000
0001
0000
0000
0000
0000
0000
0000
0000
0100
0000
0000
0000
0000
0000
0000
0000
0000
0000
0000
0000
0000
0000
0000
0000
0100
0000
0000
0000
0000
0000
0000
0000
1000
0000
0000
0000
0000
0000
0000
0000
0000
0000
0000
0000
0000
0000
0000
0000
1000
0000
0000
0000
0000
0000
0000
0000
0100
0000
0000
0000
0000
0000
0000
0000
0000
0000
0000
0000
0000
0000
0000
0000
0100
0000
0000
0000
0000
0000
0000
0000
0001
0000
0000
0000
0000
0000
0000
0000
0000
0000
0000
0000
0000
0000
0000
0000
0001
0000
0000
0000
0000
0000
0000
0000
0010
0000
0000
0000
0000
0000
0000
0000
0000
0000
0000
0000
0000
0000
0000
0000
0010
0000
0000
0000
0000
0000
0000
0000
0001
0000
0000
0000
0000
0000
0000
0000
0000
0000
0000
0000
0000
0000
0000
0000
2000
0000
000M
0000
0000
0000
0000
0000
0000
0000
0000
0000
0000
0000
0000
0000
0000
0000
0000
0000
0000
0000
0000
0000
0000
0000
0000
0000
0000
0000
0000
0000
,  // measure 9
3001
1000
0001
0010
0000
0100
1000
0000
0001
1000
0000
0010
1000
0010
0100
0001
0000
1000
0100
0000
0010
0100
0010
0001
,  // measure 10
1000
0000
0000
0000
0000
0000
0000
0000
0000
0000
0000
0000
0000
0000
0000
0000
1000
0000
0000
0000
0000
0000
0000
0000
0010
0000
0000
0000
0000
0000
0000
0000
0000
0000
0000
0000
0000
0000
0000
0000
0010
0000
0000
0000
0000
0000
0000
0000
0100
0000
0000
0000
0000
0000
0000
0000
0000
0000
0000
0000
0000
0000
0000
0000
0100
0000
0000
0000
0000
0000
0000
0000
0001
0000
0000
0000
0000
0000
0000
0000
0000
0000
0000
0000
0000
0000
0000
0000
0010
0000
0000
0000
0000
0000
0000
0000
0001
0000
0000
0000
0000
0000
0000
0000
0000
0000
0000
0000
0000
0000
0000
0000
0001
0000
0000
0000
0000
0000
0000
0000
0100
0000
0000
0000
0000
0000
0000
0000
0000
0000
0000
0000
0000
0000
0000
0000
0100
0000
0000
0000
0000
0000
0000
0000
0010
0000
0000
0000
0000
0000
0000
0000
0000
0000
0000
0000
0000
0000
0000
0000
2000
0000
0M00
0000
0000
0000
0000
0000
0000
0000
0000
0000
0000
0000
0000
0000
0000
0000
0000
0000
0000
0000
0000
0000
3001
0000
0000
0000
0000
0000
0000
0000
,  // measure 11
0010
0001
1000
0100
0000
1000
0001
0000
0100
0001
0000
0100
0010
1000
0001
1000
0100
1000
0001
0000
0100
0010
0100
0001
,  // measure 12
1000
0000
1000
0001
0000
0001
0010
0000
0010
0001
0000
0200
0000
0000
0301
0100
0000
0100
1000
0000
1000
0100
0000
0020
,  // measure 13
0000
0000
0130
0010
0000
2000
0000
0000
3010
1000
0000
1000
0100
0000
0100
0001
0000
0001
0100
0000
0100
0010
0000
0002
,  // measure 14
0000
0000
1003
0001
0000
0001
0010
0000
0010
0001
0000
0200
0000
0000
0310
1000
0000
0200
0000
0000
0000
0310
0000
0001
,  // measure 15
1000
0000
0001
1000
0000
0100
0010
0000
0200
0000
0000
0310
0001
0000
0001
0100
0000
0010
1000
0001
1000
0100
0000
0010
,  // measure 16
0001
0000
0010
0100
0000
0010
1000
0000
0010
0001
0000
0200
0000
0000
0301
0100
0000
0010
1000
0000
0001
0100
0000
2000
,  // measure 17
0000
0000
3100
0010
0000
0100
0002
0000
0000
1003
0000
0001
0010
0000
0001
0100
0000
0010
2000
0000
0000
3010
0000
1000
,  // measure 18
0100
0000
0010
0000
0000
2000
0000
0000
3010
0001
0000
0200
0000
0000
1300
0100
0000
0100
0001
0000
0001
0010
0000
0200
,  // measure 19
0000
0000
0310
0001
0000
2000
0000
0000
3010
1000
0000
0010
0001
0000
0001
0010
0000
1000
0010
0000
0010
0100
0000
0002
,  // measure 20
0000
0000
1003
0100
0000
0100
1000
0000
0020
0000
0000
0130
0010
0000
0100
0010
0000
0100
0001
0000
1000
0000
0000
0001
,  // measure 21
0000
0000
0010
0100
0000
1000
0000
0000
0000
0100
0000
1000
0000
0000
1000
0001
0000
1000
0010
0000
0010
0100
0000
0001
,  // measure 22
0010
0000
0010
0100
0000
0100
1000
0001
1000
0010
1000
0001
0010
0001
0010
2000
0000
3010
0100
0000
0010
0001
0000
0200
,  // measure 23
0000
0000
0320
0000
0000
1030
0001
0000
0010
0100
0000
2000
0000
0000
3001
0100
0000
0001
0020
0000
0000
0031
0000
0100
,  // measure 24
0010
0000
0100
0010
0000
1000
0001
1000
0100
1000
0001
0100
0001
0000
1000
0010
0000
1000
0001
0000
0010
0100
0000
0010
,  // measure 25
0001
0000
1000
0010
0100
0001
1000
0000
0010
1000
0000
1000
0100
0000
0010
0001
0000
0100
0010
0000
0200
0000
0000
0310
,  // measure 26
0100
0000
2000
0000
0000
0000
3100
0000
0000
0100
0000
0001
0010
0000
0001
0200
0000
0000
0310
0000
0010
1000
0000
1000
,  // measure 27
0100
0000
2001
0000
0000
3100
0010
0000
0010
0001
0000
0001
1000
0000
1000
0010
0100
0010
0001
0000
0001
0010
0000
2000
,  // measure 28
0000
3000
1002
0000
0000
0103
0010
0000
1000
0001
0000
1000
0010
0000
1000
0200
0000
0000
0310
0000
0010
0001
0000
0001
,  // measure 29
0100
0000
2010
0000
0000
3001
0000
0000
1000
0000
0000
0001
1000
0000
0100
0000
0000
0012
0000
0000
0000
1003
0000
0010
,  // measure 30
0000
0000
0210
0000
0000
0310
1000
0000
0100
0010
0000
0100
0010
0000
0001
0100
0001
0010
0100
0000
0100
1000
0000
1000
,  // measure 31
0010
0000
0000
0000
0201
0000
0000
0000
0000
000M
0310
0000
0000
0000
0000
0000
1000
0000
0000
0000
0000
0000
1000
0000
0100
0000
0000
0000
0100
0000
0001
0000
0100
0000
0010
0000
0001
0000
0000
0000
0001
0000
0100
0000
0000
0000
0100
0000
,  // measure 32
0010
0000
0000
0000
2010
0000
0000
0000
0000
00M0
3001
0000
0100
0000
0000
0000
0100
0000
0001
0000
0000
0000
0001
0000
1000
0000
0000
0000
1000
0000
0100
0000
1000
0000
0010
0000
0100
0000
0000
0000
0100
0000
0001
0000
0000
0000
0001
0000
,  // measure 33
0010
0000
0000
0000
1200
0000
0000
0000
0000
M000
0310
0000
0000
0000
0000
0000
0001
0000
0000
0000
0000
0000
0100
0000
0010
0000
0000
0000
0100
0000
1000
0000
0100
0000
0010
0000
1000
0000
0000
0000
1000
0000
0100
0000
0000
0000
0100
0000
,  // measure 34
0010
0000
0000
0000
1002
0000
0000
0000
0000
M000
0103
0000
0010
0000
1000
0000
0001
0000
0010
0000
0000
0000
0001
0000
1000
0000
0000
0000
0010
0000
0100
0000
0000
0000
0001
0000
0010
0000
0000
0000
0100
0000
0010
0000
0000
0000
1001
0000
,  // measure 35
0000
0000
0220
0000
0000
0000
0000
0000
0000
0000
0000
0000
,  // measure 36
0000
0000
0000
0000
,  // measure 37
0000
0330
0000
0000
0000
0000
0000
0000
;

//---------------dance-single - ----------------
#NOTES:
     dance-single:
     :
     Hard:
     12:
     0.461356,0.480200,0.050070,0.408902,0.755218,387.000000,381.000000,6.000000,49.000000,0.000000,0.000000,0.461356,0.480200,0.050070,0.408902,0.755218,387.000000,381.000000,6.000000,49.000000,0.000000,0.000000:
0000
0000
0000
0000
,
1000
0000
0000
0100
0000
0000
0001
0000
0000
0100
0000
0000
1000
0000
0000
0000
0000
2200
0000
0000
0000
3300
0000
0000
,
0001
0000
0000
0100
0000
0000
1000
0000
0000
0100
0000
0000
0001
0000
0100
0000
0000
0202
0000
0000
0000
0303
0000
0000
,
1000
0000
0000
0010
0000
0000
0001
0000
0000
0010
0000
0000
1000
0000
0000
0000
0000
2020
0000
0000
0000
3030
0000
0000
,
0001
0000
0000
0010
0000
0000
1000
0000
0000
0010
0000
0000
0001
0000
0100
0000
0000
0200
0000
0000
0000
0300
0000
0000
,
0001
0100
0001
0100
0000
0010
1000
0000
1000
0001
0000
0000
1000
0100
1000
0100
0000
0010
0001
0000
0001
1000
0000
0000
,
0010
0000
0010
0100
0000
0100
0001
0000
0001
1000
0000
0000
0001
0000
0001
0010
0000
0010
0100
0000
2000
0000
0000
3000
,
0010
0100
0010
0100
0000
0010
1000
0000
1000
0001
0000
0000
0010
0000
0000
0100
1000
0100
1000
0000
0000
0001
0000
0000
,
1000
0000
1000
0010
0000
0010
0100
0000
0100
0001
0000
0001
0010
0000
0010
0100
0000
0100
1000
0000
0002
0000
0000
0003
,
1000
0100
1000
0100
0000
0010
0001
0000
0001
0100
0000
0000
0001
0100
0001
0100
0000
0010
1000
0000
1000
0001
0000
0000
,
0010
0000
0010
0100
0000
0100
1000
0000
1000
0001
0000
0000
0100
0000
0100
0010
0000
0010
1000
0000
0002
0000
0000
0003
,
0010
0100
0010
0100
0000
0010
0001
0000
0001
1000
0000
0000
0010
0000
0000
0100
0001
0100
0001
0000
0000
1000
0000
0000
,
0100
0000
0000
0100
0000
0000
0010
0000
0001
1000
0000
0020
0000
0000
0000
0130
0000
0000
0010
0000
1000
0001
0000
0020
,
0000
0000
0000
0130
0000
2000
0000
0000
0000
3001
0000
0000
0100
0000
0001
1000
0000
0000
0100
0000
1000
0001
0000
0020
,
0000
0000
0000
0031
0000
0000
0100
0000
0001
1000
0000
0200
0000
0000
0000
0310
0000
0002
0000
0000
0000
1003
0000
0020
,
0000
0000
0000
0130
0000
0010
1000
0000
0002
0000
0003
1000
0001
0000
0001
0010
0000
0000
0100
1000
0100
1000
0000
0001
,
0100
0000
0010
1000
0000
0000
0001
0000
0010
0001
0000
0200
0000
0000
0000
0310
0000
0000
1000
0000
0100
0010
0000
0200
,
0000
0000
0000
1300
0000
0001
0200
0000
0000
0300
0000
0001
0100
0000
0010
1000
0000
0001
0020
0000
0000
0030
0000
0100
,
0010
0000
0002
0000
0000
0203
0000
0300
0010
1000
0000
0200
0000
0000
0000
0310
0000
0000
0001
0000
0100
0010
0000
0200
,
0000
0000
0000
0301
0000
2000
0000
0000
0000
3001
0000
0000
1000
0000
0100
0010
0000
0000
0001
0000
1000
0001
0000
0200
,
0000
0300
0001
0100
0000
0010
1000
0000
0002
0000
0003
0010
0001
0000
0001
1000
0000
1000
0010
0000
1000
0000
0000
0100
,
0000
0000
0010
0100
0000
1000
0000
0000
0000
0100
0000
1000
0000
0000
0001
0100
0000
0100
0010
0000
0010
1000
0000
1000
,
0001
0000
1000
0100
0000
0000
1000
0100
1000
0100
0000
0000
0010
0001
0010
0001
0000
0000
1000
0000
0010
0100
0000
0002
,
0000
0000
0023
0000
0030
0001
0100
0000
0100
0010
0000
2000
0000
0000
3010
1000
0000
0001
0010
0000
0000
0000
0000
0100
,
0010
0000
0010
0100
0000
0000
1000
0000
0000
0001
0100
0001
1000
0000
0100
0000
0000
0100
0010
0000
0010
0001
0000
0001
,
0100
0000
0000
0010
1000
0010
1000
0000
0001
1000
0000
0200
0000
0300
0010
0100
0000
0100
1000
0000
0002
0000
0003
0100
,
0010
0000
0200
0000
0000
0000
0301
0000
0000
0001
0000
0000
1000
0000
0000
1000
0000
0000
0100
0000
0010
0001
0000
1000
,
0010
0000
0200
0000
0000
0000
0301
0000
0000
0100
0000
0000
1000
0000
0000
0100
0000
0000
0001
0000
0010
0100
0000
1000
,
0000
0000
0002
0000
0000
0000
1003
0000
0000
1000
0000
0000
0001
0000
0000
0001
0000
0000
0100
0000
0010
1000
0000
0001
,
0010
0000
0200
0000
0000
1300
0000
0000
0001
0000
0000
1000
0001
0000
0100
0000
0000
0020
0000
0000
0000
0000
0000
0000
,
0000
0000
0000
0030
0000
0000
1001
0000
1000
0100
0000
0100
0010
0000
0000
0001
0010
0002
0000
0000
0000
0103
0000
0000
,
1000
0000
0200
0000
0000
0301
0000
0000
0010
0000
0000
0100
1000
0000
0010
0000
0000
0002
0000
0000
0000
0013
0000
0000
,
1000
0000
0200
0000
0000
0310
0000
0000
0001
0100
0000
0100
0010
0000
0000
1000
0100
2000
0000
0000
0000
3100
0000
0000
,
0001
0000
0200
0000
0000
1300
0000
0000
0010
0000
0000
0100
0001
0000
0010
0000
0000
2000
0000
0000
0000
3010
0000
0000
,
0001
0000
0200
0000
0000
0300
0010
1000
0010
1000
0000
0001
0010
0000
0001
1000
0000
0000
0010
0000
0100
0010
0000
1001
,
0000
0000
0220
0000
0000
0000
0000
0000
0000
0000
0000
0000
,
0000
0000
0000
0000
,
0000
0330
0000
0000
0000
0000
0000
0000
;

//---------------dance-single - ----------------
#NOTES:
     dance-single:
     :
     Medium:
     7:
     0.330221,0.325296,0.016690,0.250348,0.237831,277.000000,275.000000,2.000000,30.000000,0.000000,0.000000,0.330221,0.325296,0.016690,0.250348,0.237831,277.000000,275.000000,2.000000,30.000000,0.000000,0.000000:
0000
0000
0000
0000
,
1000
0000
0000
1000
0000
0000
0001
0000
0000
0001
0000
0000
0100
0000
0000
0000
0000
0200
0000
0000
0000
0300
0000
0000
,
0001
0000
0000
0001
0000
0000
1000
0000
0000
1000
0000
0000
0100
0000
0010
0000
0000
0200
0000
0000
0000
0300
0000
0000
,
1000
0000
0000
1000
0000
0000
0010
0000
0000
0010
0000
0000
0100
0000
0000
0000
0000
0200
0000
0000
0000
0300
0000
0000
,
0001
0000
0000
0001
0000
0000
0010
0000
0000
0010
0000
0000
0100
0000
0010
0000
0000
0200
0000
0000
0000
0300
0000
0000
,
1000
0010
0100
0001
1000
0100
0001
0100
,
0010
0000
0000
0001
0000
0000
0100
0000
0000
1000
0000
0000
0100
0000
0000
0010
0000
0000
1000
0000
0002
0000
0000
0000
,
0013
0100
1000
0010
0001
0010
1000
0100
,
0010
0000
0000
0010
0000
0000
0001
0000
0000
0001
0000
0000
0100
0000
0000
0100
0000
0000
0010
0000
2000
0000
0000
0000
,
3001
0010
0100
1000
0001
0100
1000
0100
,
0010
0000
0000
1000
0000
0000
0100
0000
0000
0001
0000
0000
0100
0000
0000
0010
0000
0000
0001
0000
2000
0010
0000
0000
,
3010
0000
0000
0100
0000
0000
0001
0000
0000
0010
0000
0000
1000
0000
0000
0010
0000
0000
0001
0000
0000
0100
0000
0001
,
1000
0000
0000
0010
0000
0000
1000
0000
0000
0001
0000
0020
0000
0000
0000
0031
0000
0000
1000
0000
0000
0001
0000
0200
,
0000
0000
0000
0310
0000
2000
0000
0000
0000
3010
0000
0000
1000
0000
0000
0001
0000
0000
1000
0000
0000
0100
0000
0020
,
0000
0000
0000
0130
0000
0000
1000
0000
0000
0001
0000
0200
0000
0000
0000
0301
0000
2000
0000
0000
0000
3100
0000
0020
,
0000
0000
0000
0130
0000
0000
0010
0000
0002
0000
0003
0010
0001
0000
0000
1000
0000
0000
0001
0000
0000
0100
0000
0000
,
1000
0000
0000
0001
0000
0000
0010
0000
0000
1000
0000
0200
0000
0000
0000
0310
0000
0000
0001
0000
0000
0100
0000
0020
,
0000
0000
0000
1030
0000
0000
0001
0000
0000
1000
0000
0000
0100
0000
0000
1000
0000
0000
0020
0000
0000
0000
0030
0100
,
0010
0000
1000
0000
0000
0002
0000
0000
0000
0013
0000
0200
0000
0000
0000
1300
0000
0000
0001
0000
0000
0100
0000
0020
,
0000
0000
0000
1030
0000
0000
0001
0000
0000
1000
0000
0000
0100
0000
0000
0001
0000
0000
0100
0000
0000
1000
0000
0002
,
0000
0000
0000
0103
0000
0000
0010
0000
2000
0000
0000
0000
3010
0000
0000
1000
0000
0000
0100
0000
0010
0000
0000
0100
,
0000
0000
0000
1000
0000
0000
0001
0000
0000
1000
0000
0000
0001
0000
0000
0100
0000
0000
0010
0000
0000
1000
0000
0001
,
0000
0000
0000
1000
0000
0000
0100
0000
0000
0001
0000
0000
1000
0000
0000
0010
0000
0000
0001
0000
0000
0100
0000
0010
,
0000
0000
2000
0000
0000
0000
3010
0000
0000
0100
0000
0000
0001
0000
0000
1000
0000
0000
0100
0000
0000
0000
0000
0000
,
0100
0000
0000
0100
0000
0000
0010
0000
0000
0001
0000
0000
0100
0000
0020
0000
0000
0000
1030
0000
0000
0010
0000
0000
,
0001
0000
0000
0010
0000
0000
1000
0000
0000
0100
0000
0020
0000
0000
0000
0130
0000
0000
1000
0000
0001
0000
0000
1000
,
0001
0000
2000
0000
0000
0000
3001
0000
0000
0001
0000
0000
1000
0000
0000
1000
0000
0000
0010
0000
0000
0001
0000
0000
,
1000
0100
0001
0001
1000
1000
0100
0001
,
1000
0010
0001
0001
0100
0100
0010
0001
,
0010
0000
0000
1000
0000
0100
0000
0000
0010
0000
0000
0100
0010
0000
0100
0000
0000
0020
0000
0000
0000
0000
0000
0000
,
0000
0000
0000
0030
0000
0000
1001
0000
0000
0001
0000
0000
0100
0000
0000
0001
0000
1000
0100
0000
0000
0010
0000
0000
,
0001
0000
0000
1000
0000
0001
0000
0000
0100
0000
0000
0001
0100
0000
0010
0000
0000
1000
0001
0000
0000
0010
0000
0000
,
0100
0000
0000
1000
0000
0000
0001
0000
0000
1000
0000
0000
0100
0000
0000
1000
0000
0001
0100
0000
0000
0010
0000
0000
,
1000
0000
0000
0001
0000
0010
0000
0000
0100
0000
0000
0010
0100
0000
0010
0000
0000
0001
1000
0000
0000
0010
0000
0000
,
0100
0000
0000
0001
0000
0000
1000
0000
0000
0100
0000
0000
0001
0000
0000
0100
0000
0000
1000
0000
0000
0010
0000
0100
,
0000
0000
0220
0000
0000
0000
0000
0000
0000
0000
0000
0000
,
0000
0000
0000
0000
,
0000
0330
0000
0000
0000
0000
0000
0000
;

//---------------dance-single - ----------------
#NOTES:
     dance-single:
     :
     Easy:
     4:
     0.199087,0.201374,0.000000,0.016690,0.008345,167.000000,167.000000,0.000000,2.000000,0.000000,0.000000,0.199087,0.201374,0.000000,0.016690,0.008345,167.000000,167.000000,0.000000,2.000000,0.000000,0.000000:
0000
0000
0000
0000
,
1000
0100
0001
0000
,
0001
0100
1000
0000
,
1000
0010
0001
0000
,
0001
0010
1000
0000
,
1000
0100
0010
0100
,
1000
0010
0100
0001
,
0010
0100
0010
0001
,
0100
0100
0010
0010
1000
0001
2000
0000
,
3001
0100
0010
0100
,
0001
0010
0100
1000
,
0010
0100
0010
1000
,
0001
0000
1000
1000
0100
0000
0001
0001
,
0010
0000
1000
0000
0010
0000
0100
0001
,
0010
0000
0001
0001
0100
0000
1000
0000
,
0010
0000
0001
0000
0001
0100
0010
1000
,
0001
0000
0010
0010
0100
0000
1000
1000
,
0001
0000
0100
0000
0010
0100
0001
0000
,
1000
0000
0001
0001
0010
0000
1000
1000
,
0100
0000
0001
0000
1000
0100
0010
0001
,
1000
0000
0010
0000
0010
0100
0001
0000
,
1000
0100
0100
1000
,
0010
0000
1000
0010
0100
0001
1000
0000
,
0001
0000
0010
0001
0100
0000
0010
0000
,
1000
1000
0001
1000
0001
0000
0010
0100
,
1000
0000
0010
0100
0001
0000
0010
0000
,
0100
1000
0100
0001
,
0100
1000
0010
0001
,
0010
1000
0100
0001
,
0100
0000
1000
0000
0001
1000
0001
0000
,
1000
0000
0001
0001
0100
0010
1000
0000
,
0001
0000
1000
0100
0010
0001
1000
0000
,
0010
0000
1000
1000
0100
0010
0001
0000
,
1000
0000
0001
0100
0010
1000
0001
0000
,
0010
0000
0000
0000
0000
0000
0001
0000
0000
0000
0000
0000
0100
0000
0000
0000
0000
0000
0010
0000
0000
0000
0000
1000
,
0000
0000
0002
0000
0000
0000
0000
0000
0000
0000
0000
0000
,
0000
0000
0000
0000
,
0000
0003
0000
0000
0000
0000
0000
0000
;

//---------------dance-single - ----------------
#NOTES:
     dance-single:
     :
     Beginner:
     1:
     0.089410,0.108432,0.000000,0.008345,0.004172,75.000000,75.000000,0.000000,1.000000,0.000000,0.000000,0.089410,0.108432,0.000000,0.008345,0.004172,75.000000,75.000000,0.000000,1.000000,0.000000,0.000000:
0000
0000
0000
0000
,
1000
0000
0100
0000
,
0001
0000
0100
0000
,
1000
0000
0010
0000
,
0001
0000
0010
0000
,
1000
0000
0100
0000
,
0010
0000
0001
0000
,
0100
0000
0010
0000
,
1000
0000
1000
0000
,
0001
0000
0010
0000
,
0100
0000
1000
0000
,
0010
0000
0100
0000
,
0001
1000
0000
0010
,
0000
0100
0000
0001
,
0000
0010
0000
0001
,
0000
0100
0000
0010
,
0000
1000
0000
0100
,
0000
0010
0000
0001
,
0000
0100
0000
0010
,
0000
1000
0000
0001
,
0000
1000
0000
0100
,
0000
0010
0000
0100
,
0000
1000
0000
0010
,
0000
0100
0000
0001
,
0000
0010
0000
0001
,
0000
0100
0000
0010
,
0000
1000
0000
1000
,
0000
0001
0000
0001
,
0000
1000
0000
1000
,
0000
0100
0100
0100
,
0000
1000
1000
1000
,
0000
0010
0010
0010
,
0000
0100
0100
0100
,
0000
0001
0001
0001
,
0000
1000
0000
0001
,
0000
0000
0020
0000
0000
0000
0000
0000
0000
0000
0000
0000
,
0000
0000
0000
0000
,
0000
0030
0000
0000
0000
0000
0000
0000
;
