#VERSION:0.83;
#TITLE:Something Good Can Work (The Twelves Remix);
#SUBTITLE:;
#ARTIST:Two Door Cinema Club;
#TITLETRANSLIT:;
#SUBTITLETRANSLIT:;
#ARTISTTRANSLIT:;
#GENRE:Indie Dance;
#ORIGIN:;
#CREDIT:;
#BANNER:Something Good Can Work (The Twelves Remix).png;
#BACKGROUND:Something Good Can Work (The Twelves Remix)-bg.png;
#PREVIEWVID:;
#JACKET:Something Good Can Work (The Twelves Remix)-jacket.png;
#CDIMAGE:;
#DISCIMAGE:;
#LYRICSPATH:;
#CDTITLE:cdtitle.png;
#MUSIC:Something Good Can Work (The Twelves Remix).ogg;
#OFFSET:-0.768196;
#SAMPLESTART:56.772861;
#SAMPLELENGTH:16.001331;
#SELECTABLE:YES;
#BPMS:0.000=119.990;
#STOPS:;
#DELAYS:;
#WARPS:;
#TIMESIGNATURES:0.000=4=4;
#TICKCOUNTS:0.000=4;
#COMBOS:0.000=1;
#SPEEDS:0.000=1.000=0.000=0;
#SCROLLS:0.000=1.000;
#FAKES:;
#LABELS:0.000=Song Start;
#BGCHANGES:;
#KEYSOUNDS:;
#ATTACKS:
;

//---------------dance-single - ----------------
#NOTEDATA:;
#CHARTNAME:;
#STEPSTYPE:dance-single;
#DESCRIPTION:;
#CHARTSTYLE:;
#DIFFICULTY:Challenge;
#METER:14;
#RADARVALUES:0.648845,0.653569,0.068080,0.204240,1.055242,467.000000,460.000000,7.000000,21.000000,28.000000,0.000000,0.000000,0.000000,0.000000,0.648845,0.653569,0.068080,0.204240,1.055242,467.000000,460.000000,7.000000,21.000000,28.000000,0.000000,0.000000,0.000000,0.000000;
#CREDIT:;
#NOTES:
// measure 0
0000
0000
0000
0000
,  // measure 1
0000
0000
0000
0000
,  // measure 2
0000
0000
0000
0000
,  // measure 3
0000
0000
0000
0000
0000
0000
0000
0000
0000
0000
1000
0010
0100
0001
0100
0010
,  // measure 4
1000
0000
0002
0000
MMM0
0000
0000
0000
0000
1003
0100
0010
0000
0010
0100
1000
,  // measure 5
0000
0000
1000
0100
0000
0100
1000
0001
0000
0001
1000
0010
0000
0010
1000
0001
,  // measure 6
0000
0000
0001
0100
0000
0100
0001
1000
0000
1000
0001
0010
0000
0010
0100
1000
,  // measure 7
0000
0000
1000
0001
0000
0001
0100
0010
1000
0000
0010
1000
0001
0010
0100
1000
,  // measure 8
0001
0000
2000
0000
0MMM
0000
0000
0000
0000
3001
0100
0010
0000
0100
0010
1000
,  // measure 9
0000
0000
0100
1000
0000
0100
1000
0001
0000
0100
0010
1000
0000
0001
0100
0010
,  // measure 10
0000
0000
0100
0001
0000
0100
0001
1000
0000
0100
0010
0001
0000
1000
0100
0010
,  // measure 11
0000
0000
0001
1000
0000
0010
1000
0001
0010
0000
0001
0010
0001
0010
0100
1000
,  // measure 12
0001
0100
0001
0100
0010
0000
1000
0100
0000
0010
0000
0100
0000
0010
0100
1000
,  // measure 13
0001
0100
0000
0100
0010
0000
0010
1000
0000
1000
0100
0010
0001
0000
0100
1000
,  // measure 14
0000
0200
0000
0000
0000
0301
0100
0001
0000
1000
0010
1000
0000
0001
0010
0001
,  // measure 15
0000
0000
1000
0010
0000
0100
0001
0100
0001
0000
1000
0100
1000
0100
0010
0001
,  // measure 16
0100
0000
0010
1000
0001
0000
0010
0100
0000
1000
0000
0100
0000
0010
0001
1000
,  // measure 17
0010
0100
0010
0100
0001
0000
0001
0100
0000
0100
0001
1000
0100
0000
0010
1000
,  // measure 18
0000
0020
0000
0000
0000
0031
0010
0001
0000
0010
0100
1000
0000
0001
1000
0002
,  // measure 19
0003
2000
3010
1000
0000
0010
1000
0010
0100
0000
000M
M000
000M
M000
000M
M100
,  // measure 20
0001
0100
0010
0100
0001
0000
0010
0100
0000
1000
0010
0100
0010
1000
0100
0010
,  // measure 21
0000
0010
0001
0100
0010
0000
0100
0001
0000
0001
1000
0100
0010
0001
0010
1000
,  // measure 22
0000
0020
0000
0000
0031
0000
0100
0000
0010
0000
0100
0000
0001
0000
0100
1000
,  // measure 23
0000
0200
0000
0000
0301
0000
0100
0000
0010
0000
1000
0100
0000
0010
0001
0100
,  // measure 24
0000
0100
0001
0100
0010
0000
1000
0100
0000
0100
0010
0100
1000
0001
0100
0010
,  // measure 25
0000
0100
0001
1000
0001
0000
0010
0100
0000
0010
0001
1000
0010
0100
0010
0001
,  // measure 26
0000
0020
0000
0000
1030
0000
0010
0000
0100
0000
0010
0000
1000
0000
0001
0010
,  // measure 27
0000
0000
1100
0000
MM00
0000
0011
0000
00MM
0000
0001
0100
0010
1000
0001
0100
,  // measure 28
0010
0000
1000
0000
0010
0000
0001
0000
0010
0000
1000
0100
0000
1000
0100
0010
,  // measure 29
0001
0100
0001
1000
0100
1000
0001
0100
0001
1000
0100
1000
0001
0000
0010
2000
,  // measure 30
0000
0000
3010
0000
0012
0000
0000
0000
1003
0000
0010
1000
0100
0010
0100
2000
,  // measure 31
0000
3010
1001
0000
1000
0001
0100
0010
,  // measure 32
0100
0000
0001
0000
0010
0000
1000
0000
0010
0000
0001
0100
0000
0001
0100
0010
,  // measure 33
1000
0001
0010
0001
1000
0010
1000
0001
0010
0000
0100
0010
0000
0000
1000
0020
,  // measure 34
0000
0000
0031
0000
0201
0000
0000
0000
0301
1000
0100
0010
0001
0100
0010
0200
,  // measure 35
0000
0000
0310
0000
1001
0000
0000
0000
1000
0010
0100
0010
1000
0100
1000
0100
,  // measure 36
0010
0000
0001
0000
0100
0000
1000
0000
0100
0000
0001
0010
0000
0001
0010
0001
,  // measure 37
1000
0100
1000
0001
0100
0001
1000
0100
1000
0001
0100
0001
1000
0000
0010
0002
,  // measure 38
0000
0000
0013
1000
0010
0100
0010
1000
0M00
0001
0000
0000
10M0
0000
0001
1000
,  // measure 39
0M00
0001
1000
0100
10M0
0001
1000
0010
0M00
1000
0001
0100
00M1
1000
0001
0010
,  // measure 40
0001
0000
0100
0000
1000
0000
0100
0000
0001
0000
0010
0100
0000
1000
0010
0100
,  // measure 41
0001
1000
0010
1000
0001
0010
0001
1000
0010
0000
0100
0010
0000
0000
0001
0020
,  // measure 42
0000
0000
1030
0001
1000
0100
0010
0001
0M00
1000
0000
0000
00M1
0000
1000
0001
,  // measure 43
0M00
1000
0001
0100
00M1
1000
0001
0010
0M00
0001
1000
0100
10M0
0001
1000
0010
,  // measure 44
2000
0010
0100
0010
,  // measure 45
3002
0010
0100
0010
,  // measure 46
0203
0001
0010
1000
,  // measure 47
0320
0001
0100
1030
,  // measure 48
1001
0000
0000
0000
;

//---------------dance-single - ----------------
#NOTEDATA:;
#CHARTNAME:;
#STEPSTYPE:dance-single;
#DESCRIPTION:;
#CHARTSTYLE:;
#DIFFICULTY:Hard;
#METER:10;
#RADARVALUES:0.377914,0.396810,0.029177,0.262595,0.228555,272.000000,269.000000,3.000000,27.000000,0.000000,0.000000,0.000000,0.000000,0.000000,0.377914,0.396810,0.029177,0.262595,0.228555,272.000000,269.000000,3.000000,27.000000,0.000000,0.000000,0.000000,0.000000,0.000000;
#CREDIT:;
#NOTES:
0000
0000
0000
0000
,
0000
0000
0000
0000
,
0000
0000
0000
0000
,
0000
0000
0000
0000
0000
0001
0010
0100
,
1000
0002
1000
0000
1000
0000
1003
0000
,
0001
0000
1000
0020
1000
0000
1030
0100
,
1000
0001
0100
0000
0100
0000
0100
0000
,
0001
0000
1000
0000
0001
0100
0010
1000
,
0001
2000
0001
0000
0001
0000
3001
0000
,
1000
0000
0001
0020
0001
0000
0031
0100
,
0001
1000
0100
0000
0100
0000
0100
0000
,
1000
0000
0001
0000
1000
0100
0010
0100
,
1000
0000
0010
0000
0100
0000
0000
0010
0000
1000
0000
0100
0000
0000
0010
0000
,
0001
0000
0100
0000
0010
0000
0000
1000
0000
0000
1000
0000
0001
0000
0000
0010
,
0000
0020
0000
0000
0031
0000
0000
0000
0001
0000
0000
0000
0010
0000
0000
0000
,
0100
0000
1000
0000
0010
0100
0010
1000
,
0001
0000
0010
0000
0100
0000
0000
0010
0000
0001
0000
0100
0000
0000
0010
0000
,
1000
0000
0100
0000
0010
0000
0000
0001
0000
0000
0001
0000
1000
0000
0000
0010
,
0000
0020
0000
0000
1030
0000
0000
0000
1000
0000
0000
0000
0010
0000
0000
0100
,
0000
0200
0000
0000
0301
0000
0000
0000
1001
0000
0000
0000
0000
0000
0000
0000
,
1000
0000
0100
0000
0010
0000
0000
0001
0000
0000
0100
0000
0010
0000
0000
1000
,
0000
0000
0100
0000
0010
0000
0000
0100
0000
0000
1000
0000
0001
0000
0000
0100
,
0000
0200
0000
0000
0310
0000
0000
0000
0100
0000
0000
0000
0010
0000
0000
1000
,
0000
2000
0000
0000
3001
0000
0000
0000
0001
0000
0100
0000
0010
0000
0000
1000
,
0000
0000
0010
0000
0100
0000
0000
0001
0000
0000
0010
0000
0100
0000
0000
0010
,
0000
0000
0001
0000
1000
0000
0000
0010
0000
0000
0100
0000
0001
0000
0000
1000
,
0000
2000
0000
0000
3100
0000
0000
0000
0100
0000
0000
0000
0010
0000
0000
0001
,
0000
0002
0000
0103
0010
1000
0100
0010
,
0001
0000
0100
0000
0010
0000
0100
0000
0001
0000
1000
0200
0000
0000
0310
0000
,
0001
0000
0100
0000
0001
0000
0010
0000
0001
0000
0100
0000
0010
0000
1000
0020
,
0000
0000
1030
0000
0002
0000
0000
0000
1003
0000
0100
0000
0001
0000
0000
0200
,
0000
1000
1300
0000
1000
0001
0001
0000
,
1000
0000
0010
0000
0100
0000
0010
0000
1000
0000
0001
0020
0000
0000
0130
0000
,
1000
0000
0010
0000
1000
0000
0100
0000
1000
0000
0010
2000
0000
3000
0010
0200
,
0000
0000
0301
0000
2000
0000
0000
0000
3100
0000
0010
0000
0001
0000
0100
0020
,
0000
1000
1030
0000
1000
0010
0100
0001
,
1000
0000
0100
0000
0010
0000
0100
0000
1000
0000
0001
0200
0000
0000
0310
0000
,
1000
0000
0100
0000
1000
0000
0010
0000
1000
0000
0100
0000
0010
0000
0001
0200
,
0000
0000
0310
0000
2000
0000
0000
0001
0000
0001
0000
0000
0010
0000
0000
0000
,
0001
0000
0000
0000
0100
0000
0000
0100
0000
0000
0001
0000
0001
0000
0000
3001
,
0000
0000
0010
0000
0100
0000
0010
0000
0001
0000
1000
0020
0000
0000
0130
0000
,
0001
0000
0010
0000
0001
0000
0100
0000
0001
0000
0010
0002
0000
0003
1000
0020
,
0000
0000
0130
0000
0002
0000
0000
1000
0000
1000
0000
0000
0010
0000
0000
0000
,
1000
0000
0000
0000
0100
0000
0000
0100
0000
0000
1000
0000
1003
0000
0000
0000
,
1001
1000
0010
0010
,
0100
0100
0001
0001
,
0010
0010
0100
0100
,
1000
1000
0010
0010
,
1001
0000
0000
0000
;

//---------------dance-single - ----------------
#NOTEDATA:;
#CHARTNAME:;
#STEPSTYPE:dance-single;
#DESCRIPTION:;
#CHARTSTYLE:;
#DIFFICULTY:Medium;
#METER:7;
#RADARVALUES:0.308445,0.326785,0.009726,0.272321,0.000000,222.000000,221.000000,1.000000,28.000000,0.000000,0.000000,0.000000,0.000000,0.000000,0.308445,0.326785,0.009726,0.272321,0.000000,222.000000,221.000000,1.000000,28.000000,0.000000,0.000000,0.000000,0.000000,0.000000;
#CREDIT:;
#NOTES:
0000
0000
0000
0000
,
0000
0000
0000
0000
,
0000
0000
0000
0000
,
0000
0000
0000
0000
0000
0001
1000
0001
,
2000
0001
0001
3001
,
1000
0010
0001
0100
,
1000
1000
0001
0001
,
0100
0000
0100
0000
0001
0100
0010
1000
,
0002
1000
1000
1003
,
0001
0010
1000
0100
,
0001
0001
1000
1000
,
0100
0000
0100
0000
1000
0100
0010
0001
,
1000
1000
0010
0100
,
0001
0010
0100
1000
,
0001
0100
0010
0000
0100
0000
0001
0000
,
0001
0000
1000
0000
0001
0010
0100
1000
,
0001
0001
0010
0100
,
1000
0010
1000
0100
,
0010
0001
1000
0000
0001
0000
0100
0000
,
0010
1000
0001
0000
1000
0000
0000
0000
,
0001
0100
0001
0000
1000
0010
1000
0000
,
0001
0010
0001
0000
1000
0000
0001
0000
,
0100
0001
0010
0000
0100
0000
1000
0000
,
0010
1000
0100
0000
0010
0000
0001
0000
,
1000
0010
1000
0000
0001
0010
0001
0000
,
1000
0100
1000
0000
0001
0000
0100
0000
,
0010
1000
0100
0000
0010
0000
0001
0000
,
0100
0020
0000
1030
0002
0000
1003
0000
,
0001
0010
0001
1000
0010
0000
0100
0000
,
0001
1000
0001
1000
0001
1000
0001
0000
,
0020
0000
0100
0000
0031
0100
0010
1000
,
0002
0000
1003
0000
0001
1000
0001
0000
,
1000
0010
1000
0001
0010
0000
0100
0000
,
1000
0001
1000
0001
1000
0000
0010
0000
,
0200
0000
0001
0000
0310
1000
0100
0000
,
0020
0000
0130
0000
0010
0100
1000
0000
,
0001
0100
0001
1000
0100
0000
0010
0000
,
0001
1000
0001
1000
0001
1000
0001
0000
,
2000
3200
0320
0032
,
0203
2300
3200
0302
,
1003
0010
1000
0001
0010
0000
0100
0000
,
1000
0001
1000
0001
1000
0000
0010
0000
,
0200
0320
2030
3002
,
0023
2030
3020
0032
,
2003
0010
0010
0010
,
3002
0100
0100
0100
,
2003
0100
0100
0100
,
3002
0010
0010
0013
,
1001
0000
0000
0000
;

//---------------dance-single - ----------------
#NOTEDATA:;
#CHARTNAME:;
#STEPSTYPE:dance-single;
#DESCRIPTION:;
#CHARTSTYLE:;
#DIFFICULTY:Easy;
#METER:4;
#RADARVALUES:0.193125,0.233418,0.029177,0.204240,0.000000,139.000000,136.000000,3.000000,21.000000,0.000000,0.000000,0.000000,0.000000,0.000000,0.193125,0.233418,0.029177,0.204240,0.000000,139.000000,136.000000,3.000000,21.000000,0.000000,0.000000,0.000000,0.000000,0.000000;
#CREDIT:;
#NOTES:
0000
0000
0000
0000
,
0000
0000
0000
0000
,
0000
0000
0000
0000
,
0000
0000
0000
0000
,
2002
0000
0000
3003
,
1000
0010
1000
0001
,
0010
0000
0010
0000
,
0010
0000
0010
0010
,
2002
0000
0000
3003
,
0001
0010
0001
1000
,
0010
0000
0010
0000
,
0010
0000
0010
0010
,
1000
0000
0001
0000
,
1000
0100
0010
0001
,
2000
0000
3001
0000
,
1000
0000
0001
1000
,
0001
0000
0010
0000
,
0100
1000
0010
0100
,
0001
0000
1000
0000
,
0010
1000
0001
0000
,
1000
1000
0100
0100
,
0010
0001
0100
0010
,
1000
0000
0001
0000
,
0010
0000
0001
1000
,
0001
0001
0100
0100
,
0010
1000
0100
0010
,
0001
0000
1000
0000
,
0020
0030
0020
0230
,
0301
1000
0001
1000
,
0100
0100
0100
0010
,
0002
0000
1003
0010
,
0200
0300
0020
0030
,
1000
0001
1000
0001
,
0010
0010
0001
1000
,
0020
0000
1030
0100
,
0020
0030
0100
0010
,
0001
1000
0001
1000
,
0010
0010
0010
0100
,
0002
0000
2003
0000
,
3002
0000
2003
0000
,
3100
0010
0100
0010
,
0001
0001
0100
0010
,
2000
0000
3002
0000
,
2003
0000
3002
0000
,
1003
1000
1000
1000
,
1000
1000
1000
1000
,
0001
0001
0001
0001
,
0001
0001
0001
0001
,
1001
0000
0000
0000
;

//---------------dance-single - ----------------
#NOTEDATA:;
#CHARTNAME:;
#STEPSTYPE:dance-single;
#DESCRIPTION:;
#CHARTSTYLE:;
#DIFFICULTY:Beginner;
#METER:1;
#RADARVALUES:0.079195,0.116709,0.019451,0.106983,0.000000,57.000000,55.000000,2.000000,11.000000,0.000000,0.000000,0.000000,0.000000,0.000000,0.079195,0.116709,0.019451,0.106983,0.000000,57.000000,55.000000,2.000000,11.000000,0.000000,0.000000,0.000000,0.000000,0.000000;
#CREDIT:;
#NOTES:
0000
0000
0000
0000
,
0000
0000
0000
0000
,
0000
0000
0000
0000
,
0000
0000
0000
0000
,
2002
0000
3003
0000
,
1000
0000
0000
0000
,
0001
0000
0000
0000
,
1000
0000
0000
0000
,
2002
0000
3003
0000
,
0001
0000
0000
0000
,
1000
0000
0000
0000
,
0001
0000
0000
0000
,
1000
0000
0000
0000
,
0100
0000
0000
0000
,
0010
0000
0000
0000
,
0001
0000
0000
0000
,
1000
0000
0000
0000
,
0010
0000
0000
0000
,
0100
0000
0000
0000
,
0001
0000
0000
0000
,
0001
0000
0000
0000
,
0010
0000
0000
0000
,
0100
0000
0000
0000
,
1000
0000
0000
0000
,
0001
0000
0000
0000
,
0100
0000
0000
0000
,
0010
0000
0000
0000
,
2000
0000
3000
0000
,
0001
0000
0001
0000
,
1000
0000
0100
0000
,
0020
0000
0030
0000
,
0002
0000
0003
0000
,
1000
0000
1000
0000
,
0001
0000
0100
0000
,
0020
0000
0030
0000
,
2000
0000
3000
0000
,
0001
0000
0001
0000
,
1000
0000
0100
0000
,
0020
0000
0000
0000
,
0000
0000
0030
0000
,
0100
0000
0100
0000
,
1000
0000
0001
0000
,
0200
0000
0000
0000
,
0000
0000
0300
0000
,
0100
0000
0100
0000
,
0100
0000
0100
0000
,
0100
0000
0100
0000
,
0100
0000
0100
0000
,
0100
0000
0000
0000
;
