#TITLE:Snake Eyes;
#SUBTITLE:;
#ARTIST:Savant;
#TITLETRANSLIT:;
#SUBTITLETRANSLIT:;
#ARTISTTRANSLIT:;
#GENRE:Glitch Hop;
#CREDIT:;
#BANNER:Snake Eyes.png;
#BACKGROUND:Snake Eyes-bg.png;
#LYRICSPATH:;
#CDTITLE:cdtitle.png;
#MUSIC:Snake Eyes.ogg;
#OFFSET:0.003780;
#SAMPLESTART:17.610897;
#SAMPLELENGTH:17.614677;
#SELECTABLE:YES;
#BPMS:0.000000=109.000000
;
#STOPS:
;
#BGCHANGES:;
#KEYSOUNDS:;
#ATTACKS:;

//---------------dance-single - ----------------
#NOTES:
     dance-single:
     :
     Challenge:
     15:
     0.782782,0.790852,0.314727,0.234028,1.032949,679.000000,640.000000,39.000000,29.000000,0.000000,0.000000,0.782782,0.790852,0.314727,0.234028,1.032949,679.000000,640.000000,39.000000,29.000000,0.000000,0.000000:
// measure 0
0000
0000
0000
0000
,  // measure 1
0000
0000
0000
0000
,  // measure 2
0000
0000
0000
0000
,  // measure 3
0000
0000
0000
0000
,  // measure 4
0001
0000
0000
0000
0100
0000
0000
0000
1000
0000
0100
0000
0000
0000
0100
0000
0010
0000
0000
0000
0100
0000
0100
0000
0001
1000
0001
0000
0010
0000
0100
0000
,  // measure 5
1000
0000
0000
0000
0100
0000
0000
0000
0001
0000
0100
0000
0000
0000
0100
0000
0010
0000
0000
0000
0001
0000
0001
0000
1000
0010
1000
0000
0001
0000
0010
0000
,  // measure 6
0100
0000
0000
0000
0100
0000
0000
0000
0010
0000
0001
0000
0000
0000
0001
0000
0100
0000
0000
0000
0100
0000
0010
0000
1000
0001
1000
0000
0100
0000
0010
0000
,  // measure 7
0002
0000
0000
0000
0000
0000
0000
0000
0000
0000
0000
0000
0000
0000
0000
0000
0000
0000
0000
0000
0000
0000
0000
0000
2003
0000
0000
0000
0000
0000
0000
0000
0000
0000
0000
0000
0000
0000
0000
0000
0000
0000
0000
0000
0000
0000
0000
0000
3002
0000
0000
0000
0000
0000
0000
0000
0000
0000
0000
0000
2003
0000
0000
0000
0000
0000
0000
0000
0000
0000
0000
0000
0000
0000
0000
0000
0000
0000
0000
0000
0000
0000
0000
0000
0000
0000
0000
0000
3020
0000
0000
0000
0000
0000
0000
0000
0000
0000
0000
0000
0000
0000
0000
0000
0000
0000
0000
0000
0000
0000
0000
0000
0000
0000
0000
0000
0000
0000
0000
0000
0032
0000
0000
0000
0000
0000
0000
0000
0000
0000
0000
0000
0000
0000
0000
0000
0000
0000
0000
0000
0000
0000
0000
0000
0023
0000
0000
0000
0000
0000
0000
0000
0000
0000
0000
0000
0000
0000
0000
0000
0000
0000
0000
0000
0000
0000
0000
0000
2030
0000
0000
0000
0000
0000
0000
0000
0000
0000
0000
0000
0000
0000
0000
0000
0000
0000
0000
0000
0000
3000
0000
0000
,  // measure 8
1100
0001
0101
1000
1001
0010
1001
0001
,  // measure 9
0010
0000
0000
0001
0000
0001
0100
0000
0010
1000
0000
0000
1010
0000
0000
0001
0000
0000
0011
0000
1000
0100
0000
0000
,  // measure 10
1200
0000
0000
0001
0000
0000
0310
0000
0000
0001
0000
0000
1001
0000
0000
0010
0000
0000
1001
0000
1000
0010
0000
1000
,  // measure 11
0100
0000
0000
0002
0000
0000
2003
0000
0000
3020
0000
0000
0031
0000
0000
0100
0000
0000
0001
0000
1000
0100
0000
0000
,  // measure 12
0022
0000
0000
0033
0000
0000
1001
0000
0000
0001
0000
0001
0100
0000
0000
0010
0000
0100
0001
0000
0001
1000
0000
1000
,  // measure 13
0100
0000
0000
0001
0000
0000
0100
0000
0100
1000
0000
1000
0010
0000
0000
0100
0000
0001
0010
0000
0100
1000
0000
0000
,  // measure 14
2002
0000
0000
3003
0000
0000
1000
0000
0000
0010
0000
0100
0001
0000
0000
0010
0000
0100
1000
0000
1000
0001
0000
0000
,  // measure 15
0110
0000
0000
2000
0000
0000
3002
0000
0103
0000
0000
0100
0010
0000
0000
1000
0000
0000
0001
0000
1000
0100
0000
0000
,  // measure 16
0220
0000
0000
0000
0330
0000
0000
0000
0010
0000
0001
0000
0000
0000
0001
0000
1000
0000
0000
0000
0001
0000
0100
0000
0001
0100
0001
0000
0100
0000
0010
0000
,  // measure 17
1000
0000
0000
0000
0001
0000
0000
0000
1000
0000
0100
0000
0000
0000
0100
0000
0001
0000
0000
0000
0100
0000
1000
0000
0100
1000
0100
0000
0010
0000
0001
0000
,  // measure 18
0100
0000
0000
0000
0100
0000
0000
0000
0010
0000
1000
0000
0000
0000
1000
0000
0001
0000
0000
0000
1000
0000
0100
0000
1000
0100
1000
0000
0100
0000
0010
0000
,  // measure 19
0001
0000
0000
0000
1000
0000
0000
0000
0001
0000
0100
0000
0000
0000
1000
0000
0100
0000
0001
0000
0000
0000
0001
0010
0100
0000
1000
0000
0010
0000
0000
0000
,  // measure 20
1000
0000
0000
0000
0000
0010
0000
0000
1000
0000
0000
0000
0000
0000
0000
0000
0010
0000
0000
0000
0000
1000
0000
0000
0010
0000
0000
0000
0000
1000
0000
0000
0001
0000
0000
0000
0000
0000
0000
0000
0010
0000
0000
0000
0000
0001
0000
0000
0010
0000
0000
0000
0000
0001
0000
0000
0010
0000
0000
0000
0000
0001
0000
0000
,  // measure 21
1000
0000
0000
0000
0000
0000
0000
0000
0010
0000
0000
0000
0000
0000
0000
0000
0010
0000
0000
0000
0000
0100
0000
0000
0010
0000
0000
0000
0000
0100
0000
0000
0001
0000
0000
0000
0000
0000
0000
0000
0010
0000
0000
0000
0000
0100
0000
0000
0010
0000
0000
0000
0000
0100
0000
0000
0010
0000
0000
0000
0000
0100
0000
0000
,  // measure 22
1000
0000
0000
0000
0000
0000
0000
0000
0001
0000
0000
0000
0000
0000
0000
0000
0100
0000
0000
0000
0000
0010
0000
0000
1000
0000
0000
0000
0000
1000
0000
0000
0100
0000
0000
0000
0000
0000
0000
0000
0010
0000
0000
0000
0000
0010
0000
0000
0001
0000
0000
0000
0000
0001
0000
0000
0100
0000
0000
0000
0000
0010
0000
0000
,  // measure 23
1000
0000
0000
0000
0000
0000
0000
0000
0000
0000
0000
0000
0000
0000
0000
0000
0000
0000
0000
0000
0000
0000
0000
0000
0001
0000
0000
0000
0000
0000
0000
0000
0000
0000
0000
0000
0000
0000
0000
0000
0000
0000
0000
0000
0000
0000
0000
0000
0010
0000
0000
0000
0000
0000
0000
0000
0000
0000
0000
0000
0000
0000
0000
0100
0000
0000
0000
0000
0000
0000
0000
0000
1000
0000
0000
0000
0000
0000
0000
0000
0000
0000
0000
0000
0000
0000
0000
0001
0000
0000
0000
0000
0000
0000
0000
0000
1000
0000
0000
0000
0000
0000
0000
0000
0000
0000
0000
0000
0000
0000
0000
0010
0000
0000
0000
0000
0000
0000
0000
0000
0100
0000
0000
0000
0000
0000
0000
0000
0000
0000
0000
0000
0000
0000
0000
0010
0000
0000
0000
0000
0000
0000
0000
0000
0100
0000
0000
0000
0000
0000
0000
0010
0000
0000
0000
0000
0000
0000
0000
0100
0000
0000
0000
0000
0000
0000
0000
0000
0010
0000
0000
0000
0000
0000
0000
0000
0000
0000
0000
0000
0000
0000
0000
0100
0000
0000
0000
0000
0000
0000
0000
0000
,  // measure 24
0001
0000
0000
0000
0000
0000
0000
0000
0000
0000
0000
0000
0000
0000
0000
0000
0000
0000
0000
0000
0000
0000
0000
0000
1000
0000
0000
0000
0000
0000
0000
0000
0000
0000
0000
0000
0000
0001
0000
0000
0000
0000
0000
0000
0000
0000
0000
0000
0000
0000
0000
0000
0000
0000
0000
0000
0000
0000
0000
0000
0000
0000
0001
0000
0000
0000
0000
0000
0000
0000
0000
0000
0100
0000
0000
0000
0000
0000
0000
0000
0000
0000
0000
0000
0000
0000
0010
0000
0000
0000
0000
0000
0000
0000
0000
0000
1000
0000
0000
0000
0000
0000
0000
0000
0000
0000
0000
0000
0000
0000
1000
0000
0000
0000
0000
0000
0000
0000
0000
0000
0100
0000
0000
0000
0000
0000
0000
0000
0000
0000
0000
0000
0000
0001
0000
0000
0000
0000
0000
0000
0000
0000
0000
0000
0000
0000
0000
0000
0000
0000
0000
0000
0000
0000
0000
0000
0000
0000
0001
0000
0000
0000
0000
0000
0000
0000
0000
0000
0100
0000
0000
0000
0000
0000
0000
0000
0000
0000
0000
0000
0000
0000
0100
0000
0000
0000
0000
0000
0000
0000
0000
0000
,  // measure 25
1000
0000
0000
0000
0000
0000
0000
0000
0000
0000
0000
0000
0000
0000
0000
0000
0000
0000
0000
0000
0000
0000
0000
0000
1000
0000
0000
0000
0000
0000
0000
0000
0000
0000
0000
0000
0000
0010
0000
0000
0000
0000
0000
0000
0000
0000
0000
0000
0000
0000
0000
0000
0000
0000
0000
0000
0000
0000
0000
0000
0000
0000
0100
0000
0000
0000
0000
0000
0000
0000
0000
0000
0001
0000
0000
0000
0000
0000
0000
0000
0000
0000
0000
0000
0000
0000
0001
0000
0000
0000
0000
0000
0000
0000
0000
0000
0010
0000
0000
0000
0000
0000
0000
0000
0000
0000
0000
0000
0000
0000
0010
0000
0000
0000
0000
0000
0000
0000
0000
0000
1000
0000
0000
0000
0000
0000
0000
0000
0000
0000
0000
0000
0000
0000
1000
0000
0000
0000
0000
0000
0000
0000
0000
0000
0010
0000
0000
0000
0000
0000
0000
0000
0000
0000
0000
0000
0000
0000
0010
0000
0000
0000
0000
0000
0000
0000
0000
0000
0001
0000
0000
0000
0000
0000
0000
0000
0000
0000
0000
0000
0000
0000
0001
0000
0000
0000
0000
0000
0000
0000
0000
0000
,  // measure 26
1000
0000
0000
0000
0000
0000
0000
0000
0000
0000
0000
0000
0000
0000
0000
0000
0000
0000
0000
0000
0000
0000
0000
0000
0001
0000
0000
0000
0000
0000
0000
0000
0000
0000
0000
0000
0000
1000
0000
0000
0000
0000
0000
0000
0000
0000
0000
0000
0000
0000
0000
0000
0000
0000
0000
0000
0000
0000
0000
0000
0000
0000
1000
0000
0000
0000
0000
0000
0000
0000
0000
0000
0100
0000
0000
0000
0000
0000
0000
0000
0000
0000
0000
0000
0000
0000
0010
0000
0000
0000
0000
0000
0000
0000
0000
0000
0001
0000
0000
0000
0000
0000
0000
0000
0000
0000
0000
0000
0000
0000
0001
0000
0000
0000
0000
0000
0000
0000
0000
0000
0100
0000
0000
0000
0000
0000
0000
0000
0000
0000
0000
0000
0000
1000
0000
0000
0000
0000
0000
0000
0000
0000
0000
0000
0000
0000
0000
0000
0000
0000
0000
0000
0000
0000
0000
0000
0000
0000
1000
0000
0000
0000
0000
0000
0000
0000
0000
0000
0100
0000
0000
0000
0000
0000
0000
0000
0000
0000
0000
0000
0000
0000
0100
0000
0000
0000
0000
0000
0000
0000
0000
0000
,  // measure 27
0010
0000
0000
0000
0000
0000
0000
0000
0000
0000
0000
0000
0000
0000
0000
0000
0000
0000
0000
0000
0000
0000
0000
0000
1000
0000
0000
0000
0000
0000
0000
0000
0000
0000
0000
0000
0000
0100
0000
0000
0000
0000
0000
0000
0000
0000
0000
0000
0010
0000
0000
0000
0000
0000
0000
0000
0000
0000
0000
0000
0000
0000
0000
0000
0000
0000
0000
0000
0000
0000
0000
0000
0001
0000
0000
0000
0000
0000
0000
0000
0000
0000
0000
0000
0000
0100
0000
0000
0000
0000
0000
0000
0000
0000
0000
0000
0010
0000
0000
0000
0000
0000
0000
0000
0000
0000
0000
0000
0000
0000
0000
0000
0000
0000
0000
0000
0000
0000
0000
0000
0100
0000
0000
0000
0000
0000
0000
0000
0000
0000
0000
0000
0000
0000
0010
0000
0000
0000
0000
0000
0000
0000
0000
0000
0100
0000
0000
0000
0000
0000
0000
0000
0000
0000
0000
0000
0000
0000
0010
0000
0000
0000
0000
0000
0000
0000
0000
0000
1000
0000
0000
0000
0000
0000
0000
0000
0000
0000
0000
0000
0000
0000
0001
0000
0000
0000
0000
0000
0000
0000
0000
0000
,  // measure 28
0010
0000
0000
0000
0010
0000
0000
0000
0001
0000
0010
0000
0001
0000
0010
0000
1100
0000
0000
0000
0100
0000
1000
0000
0010
1000
0010
0000
1000
0000
0010
0000
,  // measure 29
0101
0000
0000
0000
1000
0000
0000
0000
0100
0000
1000
0000
0100
0000
1000
0000
0011
0000
0000
0000
0010
0000
0001
0000
0100
0001
0100
0000
0001
0000
0100
0000
,  // measure 30
1010
0000
0000
0000
0101
0000
0000
0000
1001
0000
0000
0000
1000
0000
0100
0000
0010
0000
0001
0000
0100
0000
0010
0000
1000
0100
0010
0000
0001
0000
0100
0000
,  // measure 31
1000
0000
0000
0000
0000
0000
0000
0000
0000
0000
0000
0000
0100
0000
0000
0000
0000
0000
0000
0000
0000
0000
0000
0000
0001
0000
0000
0000
0000
0000
0000
0000
0000
0000
0000
0000
0010
0000
0000
0000
0000
0000
0000
0000
0000
0000
0000
0000
1000
0000
0000
0000
0000
0000
0000
0000
0000
0000
0000
0000
0010
0000
0000
0000
0000
0000
0000
0000
0000
0000
0000
0000
0001
0000
0000
0000
0000
0000
0000
0000
0000
0000
0000
0000
0100
0000
0000
0000
0000
0000
0000
0000
0000
0000
0000
0000
0010
0000
0000
0000
0000
0000
0000
0000
0000
0000
0000
0000
0000
0000
0000
0100
0000
0000
0000
0000
0000
0000
0000
0000
0010
0000
0000
0000
0000
0000
0000
0000
0000
0000
0000
0000
0000
0000
0000
0100
0000
0000
0000
0000
0000
0000
0000
0000
0010
0000
0000
0000
0000
0000
0000
0100
0000
0000
0000
0000
0000
0000
0000
0010
0000
0000
0000
0000
0000
0000
0000
0000
0100
0000
0000
0000
0000
0000
0000
0000
0000
0000
0000
0000
0000
0000
0000
0010
0000
0000
0000
0000
0000
0000
0000
0000
,  // measure 32
1000
0000
0000
0000
0001
0000
0000
0000
0010
0000
0000
0000
0001
0000
0010
0000
0000
0000
0010
0000
0001
0000
1000
0000
0000
0000
1000
0001
0100
0000
0010
0000
,  // measure 33
0110
0000
0000
0000
0000
0000
1000
0000
0000
0000
0000
0000
0001
0000
0000
0000
0000
0000
1000
0000
0000
0100
0000
0000
0000
0000
0000
0100
0000
0000
1000
0000
0001
0000
1000
0000
0001
0000
0000
0100
0000
0000
0000
0000
0000
0100
0000
0000
,  // measure 34
0110
0000
1000
0000
0001
0000
1000
0100
0000
0100
1000
0010
0000
0010
1000
0100
,  // measure 35
0110
0000
0001
0000
1000
0000
0001
0100
1000
0000
1000
0000
0100
0000
0001
0000
,  // measure 36
1001
0000
0000
0000
1000
0000
0000
0000
0100
0000
0000
0000
0010
0000
0001
0000
0000
0000
0001
0000
0100
0000
1000
0000
0000
0000
1000
0100
0010
0000
0100
0000
,  // measure 37
0001
0100
0001
0000
1000
0000
0000
0000
0100
0000
0000
0000
0100
0000
1000
0000
0000
0000
1000
0000
0010
0000
0001
0000
0010
0000
1000
0000
0000
0000
1000
0000
,  // measure 38
0100
0000
0000
0000
0000
0000
0010
0000
0000
0000
0000
0000
0100
0000
0000
0000
0000
0000
0000
0000
0000
0000
0000
0000
1000
0000
0000
0000
0000
0000
0000
0000
0000
0000
0000
0000
0000
0000
0000
0000
0000
0000
0000
0000
0000
0000
0000
0000
0001
0000
0000
0000
0000
0000
0000
0000
0000
0000
0000
0000
0000
0000
0000
0000
0000
0000
0000
0000
0000
0000
0000
0000
0001
0000
0000
0000
0000
0000
0000
0000
0000
0000
0000
0000
0100
0000
0000
0000
0000
0000
0000
0000
0000
0000
0000
0000
0010
0000
0000
0000
0000
0000
0000
0000
1000
0000
0000
0000
0000
0000
0000
0000
0010
0000
0000
0000
0000
0000
0000
0000
1000
0000
0000
0000
0000
0000
0000
0000
0000
0000
0000
0000
0100
0000
0000
0000
0000
0000
0000
0000
0000
0000
0000
0000
0000
0000
0000
0000
0000
0000
0000
0000
0000
0000
0000
0000
0010
0000
0000
0000
0000
0000
0000
0000
0000
0000
0000
0000
0001
0000
0000
0000
0000
0000
0000
0000
0000
0000
0000
0000
0000
0000
0000
0000
0000
0000
0000
0000
0000
0000
0000
0000
,  // measure 39
1100
0000
0000
0000
0000
0000
0000
0000
0000
0000
0000
0000
0000
0000
0000
0000
0000
0000
0000
0000
0000
0000
0000
0000
0001
0000
0000
0000
0000
0000
0000
0000
0000
0000
0000
0000
0000
0000
0000
0000
0000
0000
0000
0000
0000
0000
0000
0000
0101
0000
0000
0000
0000
0000
0000
0000
0000
0000
0000
0000
0000
0000
0000
0000
0000
0000
0000
0000
0000
0000
0000
0000
1000
0000
0000
0000
0000
0000
0000
0000
0000
0000
0000
0000
0100
0000
0000
0000
0000
0000
0000
0000
0000
0000
0000
0000
0010
0000
0000
0000
0000
0000
0000
0000
0000
0000
0000
0000
0000
0000
0000
0100
0000
0000
0000
0000
0000
0000
0000
0000
0010
0000
0000
0000
0000
0000
0000
0000
0000
0000
0000
0000
0000
0000
0000
0100
0000
0000
0000
0000
0000
0000
0000
0000
0010
0000
0000
0000
0000
0000
0000
0100
0000
0000
0000
0000
0000
0000
0000
0010
0000
0000
0000
0000
0000
0000
0000
0000
0100
0000
0000
0000
0000
0000
0000
0000
0000
0000
0000
0000
0000
0000
0000
0010
0000
0000
0000
0000
0000
0000
0000
0000
,  // measure 40
0001
0000
0000
0000
0100
0000
0000
0000
0001
0000
0100
0000
1000
0000
0100
0000
0001
0000
0100
0000
1000
0000
0100
0000
0001
0000
0010
0100
1000
0000
0010
0000
,  // measure 41
0110
0000
0000
0000
0000
0000
0001
0000
0000
0000
0000
0000
1000
0000
0000
0100
0000
0000
0001
0000
0000
0100
0000
0000
1000
0000
0000
0100
0000
0000
0010
0000
0001
0000
1000
0000
0010
0000
0000
0100
0000
0000
0001
0000
0000
0010
0000
0000
,  // measure 42
0110
0000
1000
0000
0001
0100
1000
0100
0001
0100
1000
0001
0010
1000
0100
0010
,  // measure 43
0011
0000
0000
0000
0000
0000
0000
0000
0000
0000
0000
0000
0000
0000
0000
0000
0000
0000
0000
0000
0000
0000
0000
0000
0001
0000
0000
0000
0000
0000
0000
0000
0000
0000
0000
0000
0000
0000
0000
0000
0000
0000
0000
0000
0000
0000
0000
0000
0100
0000
0000
0000
0000
0000
0000
0000
0000
0000
0000
0000
1000
0000
0000
0000
0000
0000
0000
0000
0000
0000
0000
0000
0100
0000
0000
0000
0000
0000
0000
0000
0000
0000
0000
0000
0001
0000
0000
0000
0000
0000
0000
0000
0000
0000
0000
0000
0010
0000
0000
0000
0000
0000
0000
0000
0000
0000
0000
0000
0000
0000
0000
0100
0000
0000
0000
0000
0000
0000
0000
0000
0010
0000
0000
0000
0000
0000
0000
0000
0000
0000
0000
0000
0000
0000
0000
0100
0000
0000
0000
0000
0000
0000
0000
0000
0010
0000
0000
0000
0000
0000
0000
0100
0000
0000
0000
0000
0000
0000
0000
0010
0000
0000
0000
0000
0000
0000
0000
0000
0100
0000
0000
0000
0000
0000
0000
0000
0000
0000
0000
0000
0000
0000
0000
0010
0000
0000
0000
0000
0000
0000
0000
0000
,  // measure 44
0001
0000
0000
0000
0010
0000
0000
0000
1000
0000
0010
0000
0001
0000
0100
0000
1000
0000
0100
0000
0001
0000
0010
0000
1000
0000
0010
0100
0010
0000
0001
0000
,  // measure 45
1000
0010
1000
0000
0001
0000
0000
0000
0001
0000
0100
0000
1000
0000
0100
0000
0001
0000
0010
0000
1000
0000
0001
0000
0100
0000
1000
0000
0001
0000
0100
0000
,  // measure 46
0010
1000
0010
0000
1000
0000
0000
0000
1000
0000
0100
0000
0001
0000
1000
0000
0001
0000
0100
0000
1000
0000
0010
0000
0001
0000
1000
0000
0001
0000
0010
0000
,  // measure 47
0110
0002
2000
3003
0000
0200
0020
0330
,  // measure 48
1001
0000
0000
0001
0000
0000
0101
0000
0000
1000
0000
1000
0100
0000
0000
0010
0000
0000
0011
0000
0001
1000
0000
0001
,  // measure 49
0100
0000
0000
0100
0000
0000
1010
0000
1000
0100
0000
0100
0010
0000
0000
0001
0000
0000
1001
0000
1000
0010
0000
0000
,  // measure 50
0201
0000
0000
1000
0000
0000
0310
0000
0000
0100
0000
0100
0001
0000
0000
0010
0000
0000
0110
0000
1000
0001
0000
1000
,  // measure 51
0010
0000
0000
0002
0000
0000
2003
0000
0000
3200
0000
0000
0301
0000
0000
0010
0000
0000
0100
0000
1000
0001
0000
0000
,  // measure 52
1000
0000
0000
0010
0000
0000
0001
0000
0000
0010
0000
0000
1000
0010
1000
0100
0000
0000
0010
0000
0000
0010
0000
0000
,  // measure 53
0001
0000
0000
0100
0000
1000
0100
0000
0100
0001
0000
0000
0010
0001
0100
0001
0000
0000
0100
0000
0010
1000
0000
0000
,  // measure 54
0001
0000
0000
0010
0000
0000
1000
0000
0000
0010
0000
0000
0001
0100
0001
0010
0000
0000
0100
0000
0000
1000
0000
0000
,  // measure 55
2001
0000
0000
0010
0000
0000
3001
0000
0001
0010
0000
0010
0100
0000
0000
1000
0000
0000
0001
0000
0100
0010
0000
0000
,  // measure 56
1001
0000
0000
0000
;

//---------------dance-single - ----------------
#NOTES:
     dance-single:
     :
     Hard:
     11:
     0.521086,0.497107,0.201748,0.137189,0.359111,452.000000,427.000000,25.000000,17.000000,0.000000,0.000000,0.521086,0.497107,0.201748,0.137189,0.359111,452.000000,427.000000,25.000000,17.000000,0.000000,0.000000:
0000
0000
0000
0000
,
0000
0000
0000
0000
,
0000
0000
0000
0000
,
0000
0000
0000
0000
,
1000
0000
0100
0000
0010
0001
0000
0001
0100
0000
0010
0000
1000
0000
1000
0000
,
0001
0000
0100
0000
0010
1000
0000
1000
0100
0000
0010
0000
0001
0000
0001
0000
,
1000
0000
0001
0000
0100
0010
0000
0100
0001
0000
1000
0000
0100
0010
0000
0100
,
2000
0000
0000
3002
0000
0000
0203
0000
0000
0000
0000
2300
0000
0000
0000
3100
0000
0000
0001
0000
0000
0010
0000
0000
,
0220
0330
1000
1000
0100
0001
0100
1000
,
0001
0000
0000
0100
0000
0000
0010
0000
0000
0010
0000
0000
0100
0000
0000
1000
0000
0000
0100
0000
0010
0100
0000
0000
,
0001
0010
0100
0100
0010
1000
0010
0001
,
0100
0000
0000
1000
0000
0000
0001
0000
0000
0010
0000
0000
1000
0000
0000
0100
0000
0000
0010
0000
0100
0010
0000
0000
,
2002
3003
0001
0001
0100
1000
0100
0010
,
1000
0000
0000
0001
0000
0000
0010
0000
0000
0010
0000
0000
0100
0000
0000
0001
0000
0000
0100
0000
0010
0100
0000
0000
,
1000
0010
0100
0100
0010
0001
0010
1000
,
0100
0000
0000
0100
0000
0000
0010
0000
0001
0000
0000
0001
1000
0000
0000
0010
0000
0000
0100
0000
0010
0100
0000
0000
,
2001
0000
0000
0000
3001
0100
0000
0100
0000
0000
0001
0000
0100
0000
0001
0000
,
1000
0000
0100
0000
1000
0100
0000
0100
0000
0000
1000
0000
0100
0000
1000
0000
,
0010
0000
0100
0000
0001
0100
0000
0100
0000
0000
0001
0000
0100
0000
0001
0000
,
1000
0000
0100
0000
0010
0001
0000
0100
0000
0010
0000
1000
0010
1000
0001
0000
,
1001
0000
0001
0100
1010
0000
1000
0100
,
0011
0000
0001
0100
1001
0000
1000
0100
,
0010
0001
0100
0001
0010
0001
0100
0001
,
0010
1000
0010
0001
0200
0000
0000
0300
,
0110
0000
0000
0000
0000
0000
0000
0000
0000
0000
0000
0000
0000
0000
0000
0000
0000
0000
0000
0000
0000
0000
0000
0000
1001
0000
0000
0000
0000
0000
0000
0000
0000
0000
0000
0000
0000
0000
0000
0000
0000
0000
0000
0000
0000
0000
0000
0000
0000
0000
0000
0000
0000
0000
0000
0000
0000
0000
0000
0000
0000
0000
0000
0000
0000
0000
0000
0000
0000
0000
0000
0000
1000
0000
0000
0000
0000
0000
0000
0000
0000
0000
0000
0000
0000
0000
0000
0000
0000
0000
0000
0000
0000
0000
0000
0000
0010
0000
0000
0000
0000
0000
0000
0000
0000
0000
0000
0000
0000
0000
0000
0000
0000
0000
0000
0000
0000
0000
0000
0000
1000
0000
0000
0000
0000
0000
0000
0000
0000
0000
0000
0000
0000
0100
0000
0000
0000
0000
0000
0000
0000
0000
0000
0000
0000
0000
0000
0000
0000
0000
0000
0000
0000
0000
0000
0000
0000
0000
0000
0000
0000
0000
0000
0000
0000
0000
0000
0000
1100
0000
0000
0000
0000
0000
0000
0000
0000
0000
0000
0000
0000
0000
0000
0000
0000
0000
0000
0000
0000
0000
0000
0000
,
0011
0000
0000
0000
0000
0000
0000
0000
0000
0000
0000
0000
0000
0000
0000
0000
0000
0000
0000
0000
0000
0000
0000
0000
0001
0000
0000
0000
0000
0000
0000
0000
0000
0000
0000
0000
0000
0100
0000
0000
0000
0000
0000
0000
0000
0000
0000
0000
0000
0000
0000
0000
0000
0000
0000
0000
0000
0000
0000
0000
0000
0000
0000
0000
0000
0000
0000
0000
0000
0000
0000
0000
0001
0000
0000
0000
0000
0000
0000
0000
0000
0000
0000
0000
0000
0000
0000
0000
0000
0000
0000
0000
0000
0000
0000
0000
0100
0000
0000
0000
0000
0000
0000
0000
0000
0000
0000
0000
0000
0000
0000
0000
0000
0000
0000
0000
0000
0000
0000
0000
0010
0000
0000
0000
0000
0000
0000
0000
0000
0000
0000
0000
0000
0000
0000
0000
0000
0000
0000
0000
0000
0000
0000
0000
1000
0000
0000
0000
0000
0000
0000
0000
0000
0000
0000
0000
0000
0000
0000
0000
0000
0000
0000
0000
0000
0000
0000
0000
0001
0000
0000
0000
0000
0000
0000
0000
0000
0000
0000
0000
0000
0000
0000
0000
0000
0000
0000
0000
0000
0000
0000
0000
,
0110
0000
0000
0000
0000
0000
0000
0000
0000
0000
0000
0000
0000
0000
0000
0000
0000
0000
0000
0000
0000
0000
0000
0000
1001
0000
0000
0000
0000
0000
0000
0000
0000
0000
0000
0000
0000
0000
0000
0000
0000
0000
0000
0000
0000
0000
0000
0000
0000
0000
0000
0000
0000
0000
0000
0000
0000
0000
0000
0000
0000
0000
0000
0000
0000
0000
0000
0000
0000
0000
0000
0000
0001
0000
0000
0000
0000
0000
0000
0000
0000
0000
0000
0000
0000
0000
0000
0000
0000
0000
0000
0000
0000
0000
0000
0000
0010
0000
0000
0000
0000
0000
0000
0000
0000
0000
0000
0000
0000
0000
0000
0000
0000
0000
0000
0000
0000
0000
0000
0000
0001
0000
0000
0000
0000
0000
0000
0000
0000
0000
0000
0000
0000
0100
0000
0000
0000
0000
0000
0000
0000
0000
0000
0000
0000
0000
0000
0000
0000
0000
0000
0000
0000
0000
0000
0000
0000
0000
0000
0000
0000
0000
0000
0000
0000
0000
0000
0000
0110
0000
0000
0000
0000
0000
0000
0000
0000
0000
0000
0000
0000
0000
0000
0000
0000
0000
0000
0000
0000
0000
0000
0000
,
1001
1000
0100
0100
0010
0010
0001
0001
,
1001
0000
0001
0100
1010
0000
1000
0100
,
0011
0000
0001
0100
1010
0000
0010
1000
,
0100
0001
0100
1000
0010
0001
0010
1000
,
0100
0010
0100
0010
0001
1000
0001
1000
0020
0000
0000
0000
0000
0000
0030
0000
,
1000
0000
0001
0000
0100
0000
0010
1000
0000
0010
0000
1000
0000
0100
0010
0000
,
0001
0000
0100
0000
0010
0000
1000
0100
0000
0010
0000
0100
1000
0001
0000
1000
,
0001
0000
0100
0000
0010
0000
1000
0001
0000
1000
0000
0001
0000
0010
0100
0000
,
1000
0010
0100
0001
0010
0010
0100
1000
,
0001
0000
0100
0000
1000
0000
0100
0001
0000
0010
0000
0100
0000
1000
0010
0000
,
1000
0000
0100
0000
0001
0000
0100
1000
0000
0010
0000
1000
0001
1000
0000
0001
,
0010
0000
0001
0000
0100
0000
1000
0100
0000
0010
0000
0100
0000
0001
0010
0000
,
1000
0010
0001
0100
1001
0000
1000
0001
,
0010
0000
1000
0000
0010
0000
0001
0100
0000
0001
0100
0001
0000
0100
0001
0000
,
1000
0000
0100
0000
0001
0000
0100
0010
0000
0100
0010
0100
0000
0010
0100
0000
,
1000
0000
0010
0000
0001
0000
0010
1000
0000
0010
1000
0010
0000
1000
0010
0000
,
0100
0000
0001
0000
1000
0001
1000
0001
0010
0000
0010
0000
0100
0000
1000
0000
,
0001
0000
0100
0000
1000
0000
0100
0001
0000
1000
0010
1000
0000
0001
0010
0000
,
1000
0000
0010
0000
0001
0000
1000
0010
0000
0100
0001
0100
0000
0001
1000
0000
,
0100
0000
0001
0000
0100
0000
1000
0001
0000
1000
0010
1000
0000
0001
0010
0000
,
0220
0000
0000
0330
,
2001
0000
3100
0100
0010
1000
0010
0100
,
1000
0000
0000
0010
0000
0000
0100
0000
0000
0100
0000
0000
0010
0000
0000
0001
0000
0000
0010
0000
0100
0010
0000
0000
,
1000
0100
0010
0010
0100
0001
0100
1000
,
0010
0000
0000
0001
0000
0000
1000
0000
0000
0100
0000
0000
0001
0000
0000
0010
0000
0000
0100
0000
0010
0100
0000
0000
,
1002
0000
0103
0100
0010
0001
0010
1000
,
0100
0000
0000
0100
0000
0000
0010
0000
0000
0001
0000
0000
0100
0000
0000
1000
0000
0000
0100
0000
0010
0100
0000
0000
,
0001
0010
0100
0100
0010
1000
0010
0001
,
2002
0000
0000
3003
0000
0000
0001
0000
0000
0100
0000
0000
0010
0000
0000
1000
0000
0000
0100
0000
0010
0100
0000
0000
,
1001
0000
0000
0000
;

//---------------dance-single - ----------------
#NOTES:
     dance-single:
     :
     Medium:
     8:
     0.378133,0.406724,0.145259,0.169468,0.064559,328.000000,310.000000,18.000000,21.000000,0.000000,0.000000,0.378133,0.406724,0.145259,0.169468,0.064559,328.000000,310.000000,18.000000,21.000000,0.000000,0.000000:
0000
0000
0000
0000
,
0000
0000
0000
0000
,
0000
0000
0000
0000
,
0000
0000
0000
0000
,
0001
0000
0100
0000
0010
0000
0000
0100
0000
0000
0010
0000
1000
0000
0001
0000
,
1000
0000
0100
0000
0010
0000
0000
0100
0000
0000
0010
0000
0001
0000
1000
0000
,
0001
0100
1000
0000
1000
0100
0001
0000
,
1000
0000
0000
1000
0000
0000
1000
0000
0000
0000
0000
0100
0000
0000
0000
0010
0000
0000
0001
0000
0000
0100
0000
0000
,
2002
3003
1000
0000
0001
0010
0001
0000
,
1000
0000
0001
0000
1000
0100
0001
0100
,
2000
0000
3001
0000
1000
0010
1000
0000
,
0100
0100
0020
0000
0130
0010
0001
1000
,
2002
3003
0001
0000
0100
0001
1000
0000
,
0100
0000
0010
0000
0001
0100
1000
0100
,
0002
0000
0013
0000
0100
1000
0001
0000
,
1000
1000
0020
0030
1000
0100
0010
0001
,
0200
0000
0000
0000
0310
0000
0000
0010
0000
0000
0000
0000
0010
0000
0000
0000
,
1000
0000
0000
0000
0001
0000
0000
0001
0000
0000
0000
0000
1000
0000
0000
0000
,
0100
0000
0000
0000
0010
0000
0000
0010
0000
0000
0000
0000
0001
0000
0000
0000
,
1000
0000
0000
0000
0010
0000
0000
1000
0000
0001
0000
0000
0010
0000
0001
0000
,
0100
0000
0010
1000
0100
0000
0010
0001
,
0100
0000
0010
1000
0100
0000
0010
0001
,
0100
1000
0010
0001
,
0100
1000
0010
0001
0200
0000
0000
0300
,
0001
0000
0000
0000
0000
0000
0000
0000
0000
0000
0000
0000
0000
0000
0000
0000
0000
0000
0000
0000
0000
0000
0000
0000
1000
0000
0000
0000
0000
0000
0000
0000
0000
0000
0000
0000
0000
0000
0000
0000
0000
0000
0000
0000
0000
0000
0000
0000
0000
0000
0000
0000
0000
0000
0000
0000
0000
0000
0000
0000
0000
0000
0000
0000
0000
0000
0000
0000
0000
0000
0000
0000
1000
0000
0000
0000
0000
0000
0000
0000
0000
0000
0000
0000
0000
0000
0000
0000
0000
0000
0000
0000
0000
0000
0000
0000
0100
0000
0000
0000
0000
0000
0000
0000
0000
0000
0000
0000
0000
0000
0000
0000
0000
0000
0000
0000
0000
0000
0000
0000
0000
0000
0000
0000
0000
0000
0000
0000
0000
0000
0000
0000
0000
0100
0000
0000
0000
0000
0000
0000
0000
0000
0000
0000
0000
0000
0000
0000
0000
0000
0000
0000
0000
0000
0000
0000
0000
0000
0000
0000
0000
0000
0000
0000
0000
0000
0000
0000
0100
0000
0000
0000
0000
0000
0000
0000
0000
0000
0000
0000
0000
0000
0000
0000
0000
0000
0000
0000
0000
0000
0000
0000
,
1000
0010
0000
0010
1000
0001
1000
0100
,
1000
0000
0000
0000
0000
0000
0000
0000
0000
0000
0000
0000
0000
0000
0000
0000
0000
0000
0000
0000
0000
0000
0000
0000
0001
0000
0000
0000
0000
0000
0000
0000
0000
0000
0000
0000
0000
0000
0000
0000
0000
0000
0000
0000
0000
0000
0000
0000
0000
0000
0000
0000
0000
0000
0000
0000
0000
0000
0000
0000
0000
0000
0000
0000
0000
0000
0000
0000
0000
0000
0000
0000
0001
0000
0000
0000
0000
0000
0000
0000
0000
0000
0000
0000
0000
0000
0000
0000
0000
0000
0000
0000
0000
0000
0000
0000
0100
0000
0000
0000
0000
0000
0000
0000
0000
0000
0000
0000
0000
0000
0000
0000
0000
0000
0000
0000
0000
0000
0000
0000
0000
0000
0000
0000
0000
0000
0000
0000
0000
0000
0000
0000
0000
0100
0000
0000
0000
0000
0000
0000
0000
0000
0000
0000
0000
0000
0000
0000
0000
0000
0000
0000
0000
0000
0000
0000
0000
0000
0000
0000
0000
0000
0000
0000
0000
0000
0000
0000
0100
0000
0000
0000
0000
0000
0000
0000
0000
0000
0000
0000
0000
0000
0000
0000
0000
0000
0000
0000
0000
0000
0000
0000
,
0110
1001
0110
1001
,
1000
0100
1000
0000
0001
0010
0001
0000
,
0100
0001
0100
0000
0010
1000
0010
0000
,
1000
0100
1000
0100
0010
0001
0010
0001
,
1000
0100
0001
0010
2000
0000
0000
3000
,
1001
0000
0000
0000
0001
0000
0000
0010
0000
0000
0010
0000
0001
0000
1000
0000
,
1001
0000
0000
0000
1000
0000
0000
0010
0000
0000
0010
0000
1000
0000
0001
0000
,
1001
0000
0000
0000
1000
0000
0000
0100
0000
0000
0100
0000
1000
0000
0001
0000
,
1001
0000
0001
0000
1000
0010
0100
0001
,
1001
0000
0000
0000
0001
0000
0000
0010
0000
0000
0100
0000
1000
0000
0001
0000
,
1001
0000
0000
0000
1000
0000
0000
0010
0000
0000
0100
0000
0001
0000
1000
0000
,
1001
0000
0000
0000
0001
0000
0000
0010
0000
0000
0100
0000
1000
0000
0001
0000
,
1001
0000
0001
0000
0100
0100
0010
0010
,
1000
0001
1000
0001
0010
0001
1000
0010
,
1000
0001
1000
0001
1000
0100
0001
0100
,
1000
0010
1000
0100
1000
0010
0100
0001
,
1000
0100
0010
0001
0100
0100
0010
0100
,
0001
1000
0001
1000
0010
1000
0100
0010
,
0001
1000
0001
1000
0001
0100
1000
0100
,
0001
0010
0001
1000
0001
0100
0010
1000
,
2002
0000
0000
3003
,
2002
3003
0001
0000
0100
0001
0010
0000
,
0100
0000
1000
0000
0001
0100
1000
0100
,
0002
0000
0013
0000
0100
1000
0010
0000
,
0100
0100
0002
0000
0013
0100
1000
0001
,
2002
3003
1000
0000
0010
1000
0100
0000
,
0010
0000
0001
0000
1000
0010
0001
0010
,
2000
0000
3100
0000
0010
0001
0100
0000
,
0020
0000
0000
0000
1030
0100
0010
0001
,
1001
0000
0000
0000
;

//---------------dance-single - ----------------
#NOTES:
     dance-single:
     :
     Easy:
     5:
     0.287059,0.384128,0.468055,0.072629,0.000000,249.000000,191.000000,58.000000,9.000000,0.000000,0.000000,0.287059,0.384128,0.468055,0.072629,0.000000,249.000000,191.000000,58.000000,9.000000,0.000000,0.000000:
0000
0000
0000
0000
,
0000
0000
0000
0000
,
0000
0000
0000
0000
,
0000
0000
0000
0000
,
1001
1000
1100
0100
,
0110
0010
0011
0001
,
0101
1010
1100
0011
,
2002
0000
0000
0000
0000
0000
0000
0000
0000
0000
0000
3003
0000
0000
0000
0000
0000
0000
0000
0000
0000
0000
0000
0000
,
0001
0100
1000
0100
,
0001
0010
0100
0100
,
1000
0100
0001
0100
,
1000
0010
0100
0100
,
0001
0010
1000
0010
,
0001
0100
1000
1000
,
0100
0001
0010
0001
,
2002
3003
1000
0001
,
0100
0000
0100
0000
,
0010
0000
0010
0000
,
1000
0000
1000
0000
,
0001
0000
0001
0000
,
1001
0100
1001
0010
,
0110
1000
0110
0001
,
1001
0110
1001
0110
,
1001
1001
1001
0000
,
1001
0001
1000
0100
,
0110
0100
1000
0001
,
1001
0001
0100
0001
,
1001
0110
1001
0110
,
1001
0001
0011
0010
,
0110
0100
1100
1000
,
1001
0101
0110
1010
,
1001
0110
1001
0000
,
1001
0010
0100
0010
,
1001
0100
0010
0100
,
1001
0010
1000
0100
,
1001
0010
0002
0103
,
0101
0010
1000
0100
,
1100
0010
0001
0100
,
0110
0001
1000
0100
,
0110
1001
0100
0100
,
1001
0001
0100
1000
,
1100
1000
0100
0001
,
0101
0001
0010
0100
,
0110
1000
0001
0001
,
1001
1000
0100
0001
,
0101
0001
0100
1000
,
1100
1000
0010
0100
,
0220
0000
0000
0330
,
1000
0100
0001
0100
,
1000
0010
0100
0100
,
0001
0100
1000
0100
,
0001
0010
0100
0100
,
1000
0010
0001
0010
,
1000
0100
0001
0001
,
0100
1000
0010
1000
,
2002
3003
0100
0010
,
1001
0000
0000
0000
;

//---------------dance-single - ----------------
#NOTES:
     dance-single:
     :
     Beginner:
     2:
     0.136036,0.180766,0.040350,0.000000,0.000000,118.000000,113.000000,5.000000,0.000000,0.000000,0.000000,0.136036,0.180766,0.040350,0.000000,0.000000,118.000000,113.000000,5.000000,0.000000,0.000000,0.000000:
0000
0000
0000
0000
,
0000
0000
0000
0000
,
0000
0000
0000
0000
,
0000
0000
0000
0000
,
1000
0000
1000
0000
,
0001
0000
0001
0000
,
0100
0100
0100
0100
,
0100
0000
0000
0000
,
0001
0000
0010
0000
,
0001
0000
1000
1000
,
1000
0000
0010
0000
,
1000
0000
0100
0100
,
0100
0000
0010
0000
,
0001
0000
1000
1000
,
1000
0000
0010
0000
,
0110
0000
0000
0000
,
1001
0000
0000
0000
,
0001
0000
0000
0000
,
0100
0000
0000
0000
,
0010
0000
0000
0000
,
1000
0000
1000
0000
,
0001
0000
0001
0000
,
0100
0100
0100
0100
,
0100
0100
0100
0000
,
0001
0000
0001
0000
,
0010
0000
0010
0000
,
0100
0000
0100
0000
,
1000
1000
1000
1000
,
1000
0000
1000
0000
,
0001
0000
0001
0000
,
0100
0100
0100
0100
,
0100
0100
0100
0000
,
0010
0000
0010
0000
,
1000
0000
1000
0000
,
0001
0000
0001
0000
,
0010
0000
0100
0000
,
1000
0000
1000
0000
,
0010
0000
0010
0000
,
0100
0000
0100
0000
,
0001
0000
1000
0000
,
0001
0000
0010
0000
,
0001
0000
1000
0000
,
0001
0000
0100
0000
,
0010
0000
0010
0000
,
1000
0000
0010
0000
,
1000
0000
0001
0000
,
1000
0000
0100
0000
,
0110
0000
0000
0000
,
1000
0000
0010
0000
,
1000
0000
0001
0001
,
0001
0000
0010
0000
,
0001
0000
0100
0100
,
0100
0000
0010
0000
,
1000
0000
0001
0001
,
0001
0000
0010
0000
,
0110
0000
0000
0000
,
1001
0000
0000
0000
;
