#TITLE:Shock Fist Fight;
#SUBTITLE:;
#ARTIST:Rotator;
#TITLETRANSLIT:;
#SUBTITLETRANSLIT:;
#ARTISTTRANSLIT:;
#GENRE:Heavy Breakcore;
#CREDIT:;
#BANNER:Shock Fist Fight.png;
#BACKGROUND:Shock Fist Fight-bg.png;
#LYRICSPATH:;
#CDTITLE:cdtitle.png;
#MUSIC:Shock Fist Fight.ogg;
#OFFSET:-0.008429;
#SAMPLESTART:15.368429;
#SAMPLELENGTH:15.360003;
#SELECTABLE:YES;
#BPMS:0.000000=249.999985
,56.000000=124.999992
,60.000000=249.999985
,138.000000=124.999992
,139.000000=249.999985
,169.000000=124.999992
,170.000000=249.999985
,246.000000=124.999992
,248.000000=249.999985
,312.000000=124.999992
,328.000000=249.999985
,366.000000=124.999992
,367.000000=249.999985
,391.000000=124.999992
,395.000000=249.999985
;
#STOPS:
;
#BGCHANGES:;
#KEYSOUNDS:;
#ATTACKS:;

//---------------dance-single - ----------------
#NOTES:
     dance-single:
     :
     Hard:
     15:
     0.744903,0.852590,0.542484,0.388645,0.016194,644.000000,577.000000,67.000000,48.000000,0.000000,0.000000,0.744903,0.852590,0.542484,0.388645,0.016194,644.000000,577.000000,67.000000,48.000000,0.000000,0.000000:
0000
0000
0000
0000
,
0000
0000
0000
0000
,
0000
0000
0000
0000
,
0000
0000
0000
0000
,
0000
0000
0000
0000
,
0000
0000
0000
0000
,
0000
0000
0000
0000
,
0000
0000
0000
0000
,
1000
0000
0001
0010
0000
0001
0100
0001
,
1000
0000
0010
1000
0000
0001
2000
0000
,
3001
0000
0010
0001
0000
1000
0100
1000
,
0001
0000
1000
0010
0000
0100
0002
0000
,
1003
0000
0100
0010
0000
0001
0100
0010
,
1000
0000
0100
0010
0000
0001
2000
0000
,
0002
0000
0000
0000
0000
0000
0000
0000
3003
0000
1000
0000
0001
0100
0010
1000
,
2002
3003
0220
0330
,
0001
1000
0001
1000
0100
0000
0010
0000
,
0022
0033
2200
3300
,
1000
0100
0001
0100
1000
0000
1000
0000
,
2002
3003
0220
0330
,
1000
0001
1000
0001
0100
0000
0010
0000
,
1010
1010
0202
0303
,
0001
1000
0100
1000
0010
0100
0001
0010
,
0022
0033
2002
3003
,
0001
0100
0001
0100
0010
0000
1000
0000
,
2020
3030
2002
3003
,
0001
0100
1000
0100
0001
0000
0001
0000
,
0202
0303
2002
3003
,
0001
0010
0001
0010
0100
0000
0100
0000
,
1100
1100
2002
3003
,
0001
0100
0010
1000
0001
0010
0100
1000
,
0001
0100
0001
0100
0010
0000
0010
0000
,
0100
0001
0100
0001
0010
0001
0100
0010
,
1000
0100
1000
0100
0010
0000
0010
0000
,
0100
1000
0010
1000
2002
3003
1000
0100
,
1000
0100
0010
0000
0010
0000
0100
1000
,
0100
1000
0010
0100
0001
0010
0001
0100
,
0001
0100
0010
0000
0010
0000
0100
0001
,
0010
0100
1000
0100
0001
0100
1000
0010
,
1000
0010
0100
0000
0100
0000
0010
1000
,
0010
1000
0100
0010
0100
1000
0001
0010
,
0001
0010
0100
0000
0100
0000
1000
0001
,
0100
0001
2002
3003
0001
0010
0001
0010
,
0100
0000
0100
0000
0010
0001
0010
0001
,
0100
0010
0100
0001
1000
0010
1000
0001
,
0010
0001
0100
0010
1000
0000
1000
0100
,
0000
0010
0000
0100
1001
0000
0000
1010
,
0000
0000
1001
0000
0011
0000
0000
1010
,
0000
0000
0011
0000
1001
0000
0000
0101
,
0000
0000
1001
0000
1000
0100
0000
0010
,
0001
0000
0100
0000
1001
0000
0000
0011
,
0000
0000
1001
0000
1010
0000
0000
0011
,
0000
0000
1010
0000
1001
0000
0000
1100
,
0000
0000
1001
0000
0001
0100
0000
0010
,
2010
0000
3001
0000
1001
0000
0000
1100
,
0000
0000
0011
0000
0101
0000
0000
1100
,
0000
0000
0101
0000
1001
0000
0000
0101
,
0000
0000
1010
0000
1000
0100
0000
0010
,
0012
0000
1003
0000
0001
0000
0100
0010
,
0000
0100
0001
1000
0001
0010
0000
0001
,
0010
0000
0100
0000
1000
0100
0010
0001
,
0100
0010
1000
0001
0020
0000
0000
0130
,
1001
0000
0001
0010
0001
0000
1000
0100
,
1000
0001
1000
0100
0010
0000
0011
0000
,
1001
0000
1000
0010
1000
0000
0001
0100
,
0001
0000
1000
0100
0010
0000
0001
1000
,
1001
0000
1000
0100
1000
0000
0001
0010
,
0001
1000
0001
0100
0010
0000
1010
0000
,
1001
0000
0001
0100
0001
0000
1000
0010
,
1000
0000
0001
0010
0100
0000
0010
0001
,
0100
0000
0001
0100
0010
0000
0100
0010
,
1000
0100
0010
0001
1000
0000
1001
0000
,
0011
0000
0010
0100
1000
0000
0010
0100
,
0001
0000
0010
0100
1000
0000
0001
1000
,
1001
0000
1000
0010
0100
0000
0010
0100
,
0001
0010
0100
1000
0001
0000
1001
0000
,
1000
0010
1000
0001
0010
0001
0100
0010
,
1000
0100
1000
0001
0100
0001
0010
0100
,
2002
0000
0000
0000
,
0000
0000
0000
0000
0000
0000
0000
3003
0000
0000
0000
0000
0000
0000
0000
0000
,
0000
0000
0000
0000
,
0000
0000
0000
0000
,
1000
0010
1000
0001
0010
0001
0100
0010
,
1000
0100
1000
0001
0100
0001
0010
0100
,
1000
0010
1000
0010
0100
0001
0100
0001
,
1000
0100
1000
0100
0010
0001
0010
0001
,
1000
0000
1001
0000
0001
0100
0010
0000
,
0100
0001
0100
0001
1000
0100
0010
0000
,
0001
0010
0001
0010
0100
1000
0100
1000
,
0001
0100
0001
0100
0010
1000
0010
1000
,
0100
0100
0100
0100
,
0100
0000
0100
0000
0100
0000
1000
0100
,
0010
0100
0001
0100
0010
0100
1000
0100
,
0010
0100
0001
0100
0010
0100
1000
0100
,
0010
0100
0001
0100
0010
0100
1000
0100
,
0010
0001
0100
0010
0000
1000
0001
0100
,
0001
0100
1000
0100
1000
0100
0001
0010
,
0001
0010
1000
0010
1000
0010
0002
0000
,
0000
0000
0000
0000
0000
0000
0000
0000
1003
0100
0010
0001
1001
0000
0000
0000
,
1000
0010
0100
0000
0000
0010
0100
0001
,
1000
0100
0010
0000
0000
0010
0001
0000
,
0001
0100
0010
0000
0010
0100
1000
0000
,
1000
0100
0001
0000
1000
0001
1000
0000
,
0100
0010
0001
0000
0010
0001
0100
0010
,
1000
0100
0010
0001
0000
0000
0001
0000
,
0100
0010
1000
0000
1000
0100
0001
0000
,
0001
0100
1000
0100
0000
0000
0220
0000
,
0330
0000
1001
0000
0001
0100
0010
1000
,
0100
0010
0001
0000
0000
0001
0100
0000
,
0010
1000
0100
0000
0010
0001
0100
0000
,
1000
0100
0001
0010
0100
0000
0220
0000
,
0330
0000
1001
0000
1000
0010
0100
0010
,
0001
0010
1000
0000
0100
0010
2002
0000
,
0000
0000
0000
0000
,
0000
0000
0000
0000
,
0000
0000
0000
0000
,
0000
0000
0000
0000
,
3003
0000
0000
0000
;

//---------------dance-single - ----------------
#NOTES:
     dance-single:
     :
     Challenge:
     18:
     0.988963,1.184153,1.004000,0.364355,0.437226,855.000000,731.000000,124.000000,45.000000,0.000000,0.000000,0.988963,1.184153,1.004000,0.364355,0.437226,855.000000,731.000000,124.000000,45.000000,0.000000,0.000000:
// measure 0
0000
0000
0000
0000
,  // measure 1
0000
0000
0000
0000
,  // measure 2
0000
0000
0000
0000
,  // measure 3
0000
0000
0000
0000
,  // measure 4
0000
0000
0000
0000
,  // measure 5
0000
0000
0000
0000
,  // measure 6
0000
0000
0000
0000
,  // measure 7
0000
0000
0000
0000
,  // measure 8
1010
0000
0001
0021
0000
0000
0031
0010
,  // measure 9
0011
0000
1000
2010
0000
0000
3001
0000
,  // measure 10
0101
0000
1000
1200
0000
0000
1300
0100
,  // measure 11
1100
0000
0001
0102
0000
0000
0013
0000
,  // measure 12
1001
0000
0001
0102
0000
0000
1003
0001
,  // measure 13
1001
0000
1000
1200
0000
0000
0310
0000
,  // measure 14
2002
0000
0000
0000
0000
0000
0000
0000
0000
0000
0000
0000
0000
0000
0000
0000
3003
0000
0000
0000
1000
0000
0000
0000
0100
0000
0010
0000
0100
1000
0001
0000
,  // measure 15
1002
0000
0013
0001
2001
0000
3010
1000
,  // measure 16
0100
0100
0010
0001
1001
0000
0101
0000
,  // measure 17
2010
0000
3100
0010
0012
0000
0103
0010
,  // measure 18
1000
0100
1000
0100
0011
0000
0011
0000
,  // measure 19
2001
0000
3010
1000
1002
0000
0013
0001
,  // measure 20
0100
0100
0010
1000
1010
0000
1001
0000
,  // measure 21
0101
0000
0011
0000
2001
0000
3010
1000
,  // measure 22
0100
0000
0010
0000
0001
1000
0001
0000
0100
0000
0010
1000
0001
1000
0001
1000
,  // measure 23
0200
0000
0310
0001
1002
0000
1003
0001
,  // measure 24
0100
0100
0010
1000
1010
0000
0101
0000
,  // measure 25
0012
0000
0103
0010
2010
0000
3100
0010
,  // measure 26
0001
0100
0001
0100
1010
0000
1010
0000
,  // measure 27
1002
0000
0013
0001
2001
0000
3010
1000
,  // measure 28
0100
0100
0010
0001
0011
0000
0110
0000
,  // measure 29
1100
0000
1001
0000
2010
0000
3001
0100
,  // measure 30
0010
0000
1000
0001
1000
0000
0100
0000
0010
0000
0001
1000
0010
1000
0010
1000
,  // measure 31
0001
0100
0001
0100
1000
0001
1000
0001
,  // measure 32
0010
1000
0010
1000
0010
0001
0010
1000
,  // measure 33
0100
0010
0100
0010
1000
0001
1000
0001
,  // measure 34
0100
0010
0001
0100
2002
3003
1000
0100
,  // measure 35
1000
0100
0001
1000
0001
1000
0010
0001
,  // measure 36
0010
0001
0010
1000
0010
0001
0100
0010
,  // measure 37
0100
0010
0001
1000
0001
1000
0100
0010
,  // measure 38
0100
0001
1000
0100
1000
1000
0001
0010
,  // measure 39
0001
0010
1000
0001
1000
0001
0100
1000
,  // measure 40
0100
1000
0100
0001
0100
1000
0010
0100
,  // measure 41
0010
0100
1000
0001
1000
0001
0010
1000
,  // measure 42
0001
0100
2002
3003
1000
0010
1000
0010
,  // measure 43
0001
1000
0001
1000
0100
0001
0100
0001
,  // measure 44
0100
0000
1000
0000
0100
0000
0001
0000
0010
0000
0001
0000
1000
0000
0010
1000
,  // measure 45
0010
1000
0001
0000
0010
0001
0010
0001
1000
0000
0000
0000
0010
0000
0100
0000
,  // measure 46
0000
0101
0000
1001
1001
0000
1000
1100
,  // measure 47
0000
0010
0001
0100
1020
0000
1030
0201
,  // measure 48
0000
0000
0301
0000
1000
0000
0001
1000
0001
0000
0000
0000
0010
0000
0110
0000
,  // measure 49
0000
1000
0100
0010
0011
0000
0001
0101
,  // measure 50
0000
0100
0110
0000
1010
0000
0100
0101
,  // measure 51
0000
0010
1000
0100
0021
0000
0031
1200
,  // measure 52
0000
0000
1300
0000
0001
0000
1000
0001
1000
0000
0000
0000
0010
0000
0110
0000
,  // measure 53
0000
0001
1000
0100
0110
0100
0000
0010
,  // measure 54
2001
0000
0000
0000
3010
0100
0010
0100
0001
0000
0000
0000
0010
0000
0110
0000
,  // measure 55
0000
1000
0001
0100
1020
0000
1030
0201
,  // measure 56
0000
0000
0301
0000
1000
0000
0001
1000
0001
0000
0000
0000
0100
0000
0110
0000
,  // measure 57
0000
1000
1001
0000
1100
0100
0000
0010
,  // measure 58
0012
0000
0000
0000
1003
0010
1000
0010
0100
0000
0000
0000
0100
0000
0110
0000
,  // measure 59
0000
0010
1000
0001
1001
0001
0000
1001
,  // measure 60
0200
0000
0000
0000
0300
0000
0000
0000
0001
0000
0100
0010
0100
0010
1000
0000
,  // measure 61
0010
0100
0010
0100
0001
0000
1000
0001
2000
0000
0000
0000
0000
0000
3001
0000
,  // measure 62
1001
0000
0001
0100
1010
0000
1000
0010
,  // measure 63
0100
0000
0001
1000
0001
1000
0100
0000
1100
0000
0000
0000
0011
0000
0000
0000
,  // measure 64
1001
0000
1000
0100
0011
0000
0001
0100
,  // measure 65
1000
0000
0000
1000
0100
0000
0001
0000
0101
0000
0000
0000
0001
0000
1000
0000
,  // measure 66
1001
0000
1000
0010
0101
0000
0001
0010
,  // measure 67
0100
0000
1000
0001
1000
0001
0100
0000
0101
0000
0000
0000
1010
0000
0000
0000
,  // measure 68
1001
0000
0001
0010
1100
0000
1000
0010
,  // measure 69
0001
0000
0000
0001
0010
0000
1000
0000
1010
0000
0000
0000
1000
0000
0100
0000
,  // measure 70
0110
0000
0001
0100
1010
0000
1000
0100
,  // measure 71
0010
0000
0100
1000
0100
1000
0001
0000
0101
0000
0000
0000
1010
0000
0000
0000
,  // measure 72
1001
0000
0001
0010
1100
0000
0001
0100
,  // measure 73
1000
0000
0000
1000
0100
0000
0001
0000
0101
0000
0000
0000
1000
0000
0001
0000
,  // measure 74
1001
0000
1000
0010
0101
0000
0001
0100
,  // measure 75
0010
0000
0100
0001
0100
0001
1000
0000
1100
0000
0000
0000
0011
0000
0000
0000
,  // measure 76
0001
0000
1000
0000
0010
0000
1000
0001
1000
0001
0010
0000
0001
1000
0001
1000
,  // measure 77
0010
0000
0100
0000
0001
0000
1000
0100
1000
0100
0010
0000
0001
0000
0100
0000
,  // measure 78
2002
0000
0000
0000
,  // measure 79
0000
0000
0000
0000
0000
0000
0000
3003
0000
0000
0000
0000
0000
0000
0000
0000
,  // measure 80
0000
0000
0000
0000
,  // measure 81
0000
0000
0000
0000
,  // measure 82
1000
0000
0010
0000
1000
0001
1000
0000
0100
0000
0010
0001
1000
0001
1000
0001
,  // measure 83
0010
0000
0001
0000
0100
0010
0100
0000
0010
0000
1000
0001
0100
0001
0100
0001
,  // measure 84
1000
0010
0001
0010
1000
0100
0001
0100
,  // measure 85
1000
0010
0001
0010
1000
0100
0001
0100
,  // measure 86
1000
0001
1000
0001
0100
0100
0010
0000
,  // measure 87
1000
1000
0001
0001
1000
0000
1000
0000
,  // measure 88
0001
0010
1000
0010
0001
0100
1000
0100
,  // measure 89
0001
0010
1000
0010
0001
0100
0010
1000
,  // measure 90
1010
0110
0101
1001
,  // measure 91
1100
0000
0000
0101
0000
0000
1100
0000
0000
1000
0100
0010
,  // measure 92
0001
0100
0010
1000
0100
0010
0001
0100
0010
1000
0001
0100
,  // measure 93
0001
1000
0100
1000
0001
0010
0001
1000
0010
1000
0100
0010
,  // measure 94
0001
0100
0001
0010
0100
1000
0010
1000
0100
0010
0001
0100
,  // measure 95
0001
0000
0010
0000
0100
0000
1000
0000
0000
0001
0000
0000
1000
0000
0000
0001
0000
0000
0010
0000
0100
0000
1000
0000
,  // measure 96
0010
0100
0001
0010
0001
0100
0010
1000
0100
0010
0100
1000
,  // measure 97
0010
0100
0001
0010
0001
0100
0010
1000
0001
0020
0000
0000
,  // measure 98
0000
0000
0000
0000
0000
0000
0000
0000
0000
0000
0000
0000
0000
0000
0000
0000
0031
0000
1000
0010
1000
0000
0001
0000
1001
0000
0000
0000
0000
0000
0000
0000
,  // measure 99
1000
0000
0100
0000
0011
0000
0000
0000
0001
0000
0100
0000
0010
0000
1000
0001
,  // measure 100
1000
0001
0010
0000
0110
0000
0000
0000
0100
0000
0010
0000
0001
0000
0000
0000
,  // measure 101
0001
0000
0100
0000
1010
0000
0000
0000
1000
0000
0100
0000
0001
0000
0000
0001
,  // measure 102
0100
1000
1100
0000
0100
0010
0011
0000
,  // measure 103
1000
0010
0101
0000
0001
0100
1000
0001
,  // measure 104
0010
1000
1010
0000
0000
0000
1001
0000
,  // measure 105
0001
0000
0010
0000
1100
0000
0000
0000
1000
0000
0010
0000
0001
0000
0000
0001
,  // measure 106
0010
1000
1010
1000
0000
0001
0012
0000
,  // measure 107
0103
0000
0010
0000
2010
0000
0000
0000
3100
0000
0010
0000
0001
0000
0100
0010
,  // measure 108
0100
0010
1000
0000
1010
0000
0000
0000
0000
0000
0100
0000
0101
0000
0000
0000
,  // measure 109
1000
0000
0100
0000
0011
0000
0000
0000
0001
0000
0100
0000
1000
0000
0000
1000
,  // measure 110
0100
0000
0001
0000
0010
0000
0100
0000
0010
0001
1000
0000
2010
0000
0000
0000
,  // measure 111
3100
0010
0012
0000
0103
1000
0001
0010
,  // measure 112
1000
0000
0100
0000
0110
0000
0000
0000
1000
0001
1000
0000
2002
0000
0000
0000
,  // measure 113
0000
0000
0000
0000
,  // measure 114
0000
0000
0000
0000
,  // measure 115
0000
0000
0000
0000
,  // measure 116
0000
0000
0000
0000
,  // measure 117
3003
0000
0000
0000
;

//---------------dance-single - This Is Not A Drill----------------
#NOTES:
     dance-single:
     :
     Edit:
     19:
     1.014410,1.563082,1.004000,0.364355,0.437226,877.000000,753.000000,124.000000,45.000000,0.000000,0.000000,1.014410,1.563082,1.004000,0.364355,0.437226,877.000000,753.000000,124.000000,45.000000,0.000000,0.000000:
0000
0000
0000
0000
,
0000
0000
0000
0000
,
0000
0000
0000
0000
,
0000
0000
0000
0000
,
0000
0000
0000
0000
,
0000
0000
0000
0000
,
0000
0000
0000
0000
,
0000
0000
0000
0000
,
1010
0000
0001
0021
0000
0000
0031
0010
,
0011
0000
1000
2010
0000
0000
3001
0000
,
0101
0000
1000
1200
0000
0000
1300
0100
,
1100
0000
0001
0102
0000
0000
0013
0000
,
1001
0000
0001
0102
0000
0000
1003
0001
,
1001
0000
1000
1200
0000
0000
0310
0000
,
2002
0000
0000
0000
0000
0000
0000
0000
0000
0000
0000
0000
0000
0000
0000
0000
3003
0000
0000
0000
1000
0000
0000
0000
0100
0000
0010
0000
0100
1000
0001
0000
,
1002
0000
0013
0001
2001
0000
3010
1000
,
0100
0100
0010
0001
1001
0000
0101
0000
,
2010
0000
3100
0010
0012
0000
0103
0010
,
1000
0100
1000
0100
0011
0000
0011
0000
,
2001
0000
3010
1000
1002
0000
0013
0001
,
0100
0100
0010
1000
1010
0000
1001
0000
,
0101
0000
0011
0000
2001
0000
3010
1000
,
0100
0000
0010
0000
0001
1000
0001
0000
0100
0000
0010
1000
0001
1000
0001
1000
,
0200
0000
0310
0001
1002
0000
1003
0001
,
0100
0100
0010
1000
1010
0000
0101
0000
,
0012
0000
0103
0010
2010
0000
3100
0010
,
0001
0100
0001
0100
1010
0000
1010
0000
,
1002
0000
0013
0001
2001
0000
3010
1000
,
0100
0100
0010
0001
0011
0000
0110
0000
,
1100
0000
1001
0000
2010
0000
3001
0100
,
0010
0000
1000
0001
1000
0000
0100
0000
0010
0000
0001
1000
0010
1000
0010
1000
,
0001
0100
0001
0100
1000
0001
1000
0001
,
0010
1000
0010
1000
0010
0001
0010
1000
,
0100
0010
0100
0010
1000
0001
1000
0001
,
0100
0010
0001
0100
2002
3003
1000
0100
,
1000
0100
0001
1000
0001
1000
0010
0001
,
0010
0001
0010
1000
0010
0001
0100
0010
,
0100
0010
0001
1000
0001
1000
0100
0010
,
0100
0001
1000
0100
1000
1000
0001
0010
,
0001
0010
1000
0001
1000
0001
0100
1000
,
0100
1000
0100
0001
0100
1000
0010
0100
,
0010
0100
1000
0001
1000
0001
0010
1000
,
0001
0100
2002
3003
1000
0010
1000
0010
,
0001
1000
0001
1000
0100
0001
0100
0001
,
0100
0000
1000
0000
0100
0000
0001
0000
0010
0000
0001
0000
1000
0000
0010
1000
,
0010
1000
0001
0000
0010
0001
0010
0001
1000
0000
0000
0000
0010
0000
0100
0000
,
0000
0101
0000
1001
1001
0000
1000
1100
,
0000
0010
0001
0100
1020
0000
1030
0201
,
0000
0000
0301
0000
1000
0000
0001
1000
0001
0000
0000
0000
0010
0000
0110
0000
,
0000
1000
0100
0010
0011
0000
0001
0101
,
0000
0100
0110
0000
1010
0000
0100
0101
,
0000
0010
1000
0100
0021
0000
0031
1200
,
0000
0000
1300
0000
0001
0000
1000
0001
1000
0000
0000
0000
0010
0000
0110
0000
,
0000
0001
1000
0100
0110
0100
0000
0010
,
2001
0000
0000
0000
3010
0100
0010
0100
0001
0000
0000
0000
0010
0000
0110
0000
,
0000
1000
0001
0100
1020
0000
1030
0201
,
0000
0000
0301
0000
1000
0000
0001
1000
0001
0000
0000
0000
0100
0000
0110
0000
,
0000
1000
1001
0000
1100
0100
0000
0010
,
0012
0000
0000
0000
1003
0010
1000
0010
0100
0000
0000
0000
0100
0000
0110
0000
,
0000
0010
1000
0001
1001
0001
0000
1001
,
0200
0000
0000
0000
0300
0000
0000
0000
0001
0000
0100
0010
0100
0010
1000
0000
,
0010
0100
0010
0100
0001
0000
1000
0001
2000
0000
0000
0000
0000
0000
3001
0000
,
1001
0000
0001
0100
1010
0000
1000
0010
,
0100
0000
0001
1000
0001
1000
0100
0000
1100
0000
0000
0000
0011
0000
0000
0000
,
1001
0000
1000
0100
0011
0000
0001
0100
,
1000
0000
0000
1000
0100
0000
0001
0000
0101
0000
0000
0000
0001
0000
1000
0000
,
1001
0000
1000
0010
0101
0000
0001
0010
,
0100
0000
1000
0001
1000
0001
0100
0000
0101
0000
0000
0000
1010
0000
0000
0000
,
1001
0000
0001
0010
1100
0000
1000
0010
,
0001
0000
0000
0001
0010
0000
1000
0000
1010
0000
0000
0000
1000
0000
0100
0000
,
0110
0000
0001
0100
1010
0000
1000
0100
,
0010
0000
0100
1000
0100
1000
0001
0000
0101
0000
0000
0000
1010
0000
0000
0000
,
1001
0000
0001
0010
1100
0000
0001
0100
,
1000
0000
0000
1000
0100
0000
0001
0000
0101
0000
0000
0000
1000
0000
0001
0000
,
1001
0000
1000
0010
0101
0000
0001
0100
,
0010
0000
0100
0001
0100
0001
1000
0000
1100
0000
0000
0000
0011
0000
0000
0000
,
0001
0000
1000
0000
0010
0000
1000
0001
1000
0001
0010
0000
0001
1000
0001
1000
,
0010
0000
0100
0000
0001
0000
1000
0100
1000
0100
0010
0000
0001
0000
0100
0000
,
2002
0000
0000
0000
,
0000
0000
0000
0000
0000
0000
0000
3003
0000
0000
0000
0000
0000
0000
0000
0000
,
0000
0000
0000
0000
,
0000
0000
0000
0000
,
1000
0000
0010
0000
1000
0001
1000
0000
0100
0000
0010
0001
1000
0001
1000
0001
,
0010
0000
0001
0000
0100
0010
0100
0000
0010
0000
1000
0001
0100
0001
0100
0001
,
1000
0010
0001
0010
1000
0100
0001
0100
,
1000
0010
0001
0010
1000
0100
0001
0100
,
1000
0001
1000
0001
0100
0100
0010
0000
,
1000
1000
0001
0001
1000
0000
1000
0000
,
0001
0010
1000
0010
0001
0100
1000
0100
,
0001
0010
1000
0010
0001
0100
0010
1000
,
1010
0110
0101
1001
,
1100
0000
0000
0000
0101
0000
0000
0000
1100
0000
0000
0000
1000
0100
1000
0100
,
1000
0100
1000
0100
0010
0001
0010
0001
0010
0001
0010
0001
1000
0010
1000
0010
,
1000
0010
1000
0010
0100
0001
0100
0001
0100
0001
0100
0001
1000
0100
1000
0100
,
1000
0100
1000
0100
0010
0001
0010
0001
0010
0001
0010
0001
1000
0010
1000
0010
,
1000
0010
1000
0010
0100
0000
0001
0000
1000
0000
0001
0000
0010
0100
0010
0100
,
0010
0100
0010
0100
1000
0001
1000
0001
1000
0001
1000
0001
0100
0010
0100
0010
,
0100
0010
0100
0010
1000
0001
1000
0001
1000
0001
1000
0001
0020
0000
0000
0000
,
0000
0000
0000
0000
0000
0000
0000
0000
0000
0000
0000
0000
0000
0000
0000
0000
0031
0000
1000
0010
1000
0000
0001
0000
1001
0000
0000
0000
0000
0000
0000
0000
,
1000
0000
0100
0000
0011
0000
0000
0000
0001
0000
0100
0000
0010
0000
1000
0001
,
1000
0001
0010
0000
0110
0000
0000
0000
0100
0000
0010
0000
0001
0000
0000
0000
,
0001
0000
0100
0000
1010
0000
0000
0000
1000
0000
0100
0000
0001
0000
0000
0001
,
0100
1000
1100
0000
0100
0010
0011
0000
,
1000
0010
0101
0000
0001
0100
1000
0001
,
0010
1000
1010
0000
0000
0000
1001
0000
,
0001
0000
0010
0000
1100
0000
0000
0000
1000
0000
0010
0000
0001
0000
0000
0001
,
0010
1000
1010
1000
0000
0001
0012
0000
,
0103
0000
0010
0000
2010
0000
0000
0000
3100
0000
0010
0000
0001
0000
0100
0010
,
0100
0010
1000
0000
1010
0000
0000
0000
0000
0000
0100
0000
0101
0000
0000
0000
,
1000
0000
0100
0000
0011
0000
0000
0000
0001
0000
0100
0000
1000
0000
0000
1000
,
0100
0000
0001
0000
0010
0000
0100
0000
0010
0001
1000
0000
2010
0000
0000
0000
,
3100
0010
0012
0000
0103
1000
0001
0010
,
1000
0000
0100
0000
0110
0000
0000
0000
1000
0001
1000
0000
2002
0000
0000
0000
,
0000
0000
0000
0000
,
0000
0000
0000
0000
,
0000
0000
0000
0000
,
0000
0000
0000
0000
,
3003
0000
0000
0000
;

//---------------dance-single - ----------------
#NOTES:
     dance-single:
     :
     Medium:
     12:
     0.545954,0.805224,0.526290,0.388645,0.000000,472.000000,407.000000,65.000000,48.000000,0.000000,0.000000,0.545954,0.805224,0.526290,0.388645,0.000000,472.000000,407.000000,65.000000,48.000000,0.000000,0.000000:
0000
0000
0000
0000
,
0000
0000
0000
0000
,
0000
0000
0000
0000
,
0000
0000
0000
0000
,
0000
0000
0000
0000
,
0000
0000
0000
0000
,
0000
0000
0000
0000
,
0000
0000
0000
0000
,
1001
0000
0000
0110
0000
0000
0001
1000
,
0001
0000
0000
1001
0000
0000
0001
0000
,
0101
0000
0000
1010
0000
0000
1000
0001
,
1000
0000
0000
1100
0000
0000
0010
0000
,
0011
0000
0000
1100
0000
0000
1000
0010
,
1000
0000
0000
0101
0000
0000
0002
0000
,
2000
0000
0003
3100
,
0220
0330
2002
3003
,
0001
1000
0100
0000
,
0220
0330
2002
3003
,
0001
0100
0010
1000
,
0220
0330
2002
3003
,
1000
0001
0100
0000
,
0110
0110
2002
3003
,
1000
0100
0010
0001
,
0022
0033
2200
3300
,
1000
0001
0100
0000
,
2020
3030
0202
0303
,
0001
0100
0010
1000
,
0202
0303
2020
3030
,
1000
0001
0010
0000
,
0110
0110
2002
3003
,
0001
0010
0100
1000
,
0001
0100
0010
0010
,
0100
0001
1000
0100
,
1000
0010
0100
0100
,
0001
0000
1000
0000
2002
3003
1000
0000
,
0100
0010
0010
0100
,
1000
0010
0100
0001
,
0010
0001
0001
0100
,
1000
0100
0001
1000
,
0100
0010
0010
0100
,
0001
0100
0010
0001
,
0100
0010
0010
1000
,
0001
0000
2002
3003
0001
0000
0100
0000
,
0010
0010
0100
1000
,
0100
0000
0001
0000
1000
0000
0001
1000
,
0000
0001
1000
0000
0100
0000
0010
0001
,
0000
0100
0000
0000
1001
0000
0000
1100
,
0000
0000
1000
0000
1001
0000
0000
0101
,
0000
0000
0001
0000
1001
0000
0000
1010
,
0000
0000
1000
0000
0100
0000
0000
0010
,
0000
0000
0011
0000
1001
0000
0000
0011
,
0000
0000
0001
0000
1001
0000
0000
1010
,
0000
0000
1000
0000
1001
0000
0000
0101
,
0000
0000
0001
0000
1000
0001
0000
0000
,
0220
0000
0330
0000
1001
0000
0000
1100
,
0000
0000
1000
0000
1001
0000
0000
1010
,
0000
0000
1000
0000
1001
0000
0000
0011
,
0000
0000
0001
0000
1000
0001
0000
0000
,
0220
0000
0330
0000
0001
0000
0000
0001
,
0000
0000
1000
0010
1000
0001
0000
1000
,
0001
1000
0100
0010
,
0001
0000
0100
0000
0020
0000
0000
1030
,
0001
0000
1000
0000
1010
0000
0000
0010
,
1000
0001
1000
0100
,
0010
0000
0001
0000
0011
0000
0000
0001
,
0010
0000
0001
0000
0100
0000
0010
1000
,
0001
0000
1000
0000
1001
0000
0000
1000
,
0100
0010
0001
1000
,
0010
0000
0100
0000
0101
0000
0000
0001
,
0100
0010
1000
0100
,
0010
0000
0001
0000
1001
0000
0000
1000
,
0010
1000
0100
0010
,
0001
0000
0100
0000
0110
0000
0000
0010
,
1000
0000
0010
0000
0100
0000
0001
1000
,
0001
0000
1000
0000
1100
0000
0000
0100
,
0010
0001
0100
0010
,
1000
0000
0010
0100
0000
0010
0100
0000
,
0001
0000
0010
0100
0000
0010
0100
0000
,
2002
0000
0000
0000
,
0000
0000
0000
0000
0000
0000
0000
3003
0000
0000
0000
0000
0000
0000
0000
0000
,
0000
0000
0000
0000
,
0000
0000
0000
0000
,
1000
0010
0001
0010
,
1000
0100
0001
0100
,
0010
0100
0010
0000
0001
1000
0001
0000
,
0001
0010
0001
0000
0001
1000
0001
0000
,
1000
0000
0001
0000
0100
0010
0100
0000
,
0001
1000
0001
1000
0001
0000
0010
0000
,
0001
0010
0001
0000
0100
1000
0100
0000
,
0100
0001
0100
0000
0100
1000
0100
0000
,
0001
1000
0001
1000
,
0001
0000
1000
0000
0001
0000
0010
0100
,
0010
0100
1000
0001
1000
0001
0010
0100
,
0010
0100
1000
0001
1000
0001
0100
0001
,
0100
0001
1000
0001
1000
0001
1000
0100
,
1000
0100
0010
0001
0000
0001
1000
0001
,
1000
0001
0100
0010
0100
0010
1000
0001
,
1000
0001
0010
0100
0010
0100
2000
0000
,
0000
0000
0000
0000
3010
1000
0001
0000
,
0010
0000
0011
0000
0000
0001
0010
0000
,
0100
0000
1100
0000
0000
1000
0010
0000
,
0100
0001
0100
1000
,
0100
0000
0110
0000
0000
0010
1000
0000
,
0001
0000
0011
0000
0000
0001
0010
0000
,
0100
1100
0000
1000
,
0010
0001
0010
1000
,
0100
0000
0010
0001
0000
0001
0200
0000
,
0300
0020
1030
0010
,
0100
0000
0101
0000
0000
0001
1000
0000
,
0100
0010
0001
0100
,
0010
1001
0000
2000
,
3000
0002
1003
0100
,
0010
0000
0001
0000
1000
0002
2000
0000
,
0000
0000
0000
0000
,
0000
0000
0000
0000
,
0000
0000
0000
0000
,
0000
0000
0000
0000
,
3003
0000
0000
0000
;

//---------------dance-single - ----------------
#NOTES:
     dance-single:
     :
     Easy:
     9:
     0.389802,0.473661,0.331968,0.153839,0.000000,337.000000,296.000000,41.000000,19.000000,0.000000,0.000000,0.389802,0.473661,0.331968,0.153839,0.000000,337.000000,296.000000,41.000000,19.000000,0.000000,0.000000:
0000
0000
0000
0000
,
0000
0000
0000
0000
,
0000
0000
0000
0000
,
0000
0000
0000
0000
,
0000
0000
0000
0000
,
0000
0000
0000
0000
,
0000
0000
0000
0000
,
0000
0000
0000
0000
,
1000
0000
0000
0001
0000
0000
1000
0000
,
0100
0000
0000
0010
0000
0000
0001
0000
,
0100
0000
0000
0010
0000
0000
0100
0000
,
0001
0000
0000
1000
0000
0000
0100
0000
,
0010
0000
0000
0100
0000
0000
1000
0000
,
0001
0000
0000
0100
0000
0000
0010
0000
,
0220
0000
0000
0330
,
1001
0000
1001
0000
,
0001
1000
0100
0000
,
0110
0000
0110
0000
,
0010
0001
1000
0000
,
1001
0000
1001
0000
,
0001
1000
0010
0000
,
0100
0010
1001
0000
,
1000
0100
0010
0000
,
0011
0000
1100
0000
,
0010
0001
0100
0000
,
1010
0000
0101
0000
,
0001
0100
0010
0000
,
1001
0000
0110
0000
,
1000
0001
1000
0000
,
0100
0010
1001
0000
,
0001
0010
0100
0000
,
1000
0000
0010
0100
,
0010
0000
1000
0000
,
0001
0000
0010
0100
,
0010
0000
0000
0000
2002
3003
1000
0000
,
0000
0100
0010
0100
,
0000
1000
0000
0001
,
0000
0100
0010
0100
,
0000
1000
0100
0001
,
0000
0010
0100
0010
,
0000
0001
0000
1000
,
0000
0010
0100
0010
,
0000
0000
2002
3003
1000
0000
0000
0000
,
0010
0100
0010
0000
,
1000
0000
0000
0000
0001
0000
0000
1000
,
0000
0100
0010
0001
,
0000
1000
0000
0000
0001
0000
0000
0010
,
0000
0000
0001
0000
1000
0000
0000
0010
,
0000
0000
1000
0000
0001
0000
0000
0010
,
0000
0000
0001
0000
0100
0000
0000
0100
,
0000
0000
0010
0000
1000
0000
0000
0010
,
0000
0000
1000
0000
0001
0000
0000
0010
,
0000
0000
0001
0000
1000
0000
0000
0010
,
0000
1000
0100
0000
,
0220
0000
0330
0000
0001
0000
0000
0100
,
0000
0000
0001
0000
1000
0000
0000
0100
,
0000
0000
1000
0000
0001
0000
0000
0100
,
0000
0001
0010
0000
,
0220
0000
0330
0000
1000
0000
0000
1000
,
0000
0000
0001
0000
0001
0000
0000
0001
,
0000
0000
1000
0100
,
0010
0001
2000
0000
,
3001
0000
1001
0000
,
0001
0100
0010
1000
,
0001
0000
1001
0000
,
1000
0100
0001
0100
,
1000
0000
1001
0000
,
1000
0010
0100
0001
,
1000
0000
1001
0000
,
0001
0100
0010
1000
,
0001
0000
0011
0000
,
0001
0010
0100
1000
,
0010
0000
1010
0000
,
1000
0010
0001
0010
,
1000
0000
1010
0000
,
1000
0010
0100
0001
,
1000
0000
0000
0001
0000
0000
0010
0000
,
0100
0000
0000
1000
0000
0000
0001
0000
,
2002
0000
0000
0000
,
0000
0000
0000
0000
0000
0000
0000
3003
0000
0000
0000
0000
0000
0000
0000
0000
,
0000
0000
0000
0000
,
0000
0000
0000
0000
,
1000
0010
1000
0010
,
0100
0001
0100
0001
,
1000
0001
1000
0001
,
1000
0001
1000
0001
,
1000
0100
1000
0000
,
0001
0010
0001
0000
,
0100
0010
0100
0010
,
0100
0010
0100
0010
,
2000
0000
3002
0000
,
2003
0000
3001
1000
,
0100
0010
0001
0100
,
0010
1000
0100
0010
,
0001
0100
0010
1000
,
0100
1000
0000
0001
,
0100
0010
1000
0100
,
0010
0001
0100
0020
,
0000
0000
0000
1030
,
0000
1001
0000
0001
,
1000
1100
0000
1000
,
0010
0100
0001
0010
,
0001
1001
0000
1000
,
0000
1001
0000
0001
,
0100
0110
0000
0001
,
0100
0010
1000
0100
,
1000
1001
0000
1100
,
0000
0011
0000
0001
,
1000
1001
0000
0001
,
0010
0100
0010
0001
,
1000
1001
0000
0101
,
0000
1010
0000
1000
,
0100
0110
0000
2002
,
0000
0000
0000
0000
,
0000
0000
0000
0000
,
0000
0000
0000
0000
,
0000
0000
0000
0000
,
3003
0000
0000
0000
;

//---------------dance-single - ----------------
#NOTES:
     dance-single:
     :
     Beginner:
     6:
     0.326184,0.426295,0.259097,0.089065,0.000000,282.000000,250.000000,32.000000,11.000000,0.000000,0.000000,0.326184,0.426295,0.259097,0.089065,0.000000,282.000000,250.000000,32.000000,11.000000,0.000000,0.000000:
0000
0000
0000
0000
,
0000
0000
0000
0000
,
0000
0000
0000
0000
,
0000
0000
0000
0000
,
0000
0000
0000
0000
,
0000
0000
0000
0000
,
0000
0000
0000
0000
,
0000
0000
0000
0000
,
1000
0000
0000
1000
0000
0000
0000
0000
,
0001
0000
0000
0001
0000
0000
0000
0000
,
0100
0000
0000
0100
0000
0000
0000
0000
,
0010
0000
0000
0010
0000
0000
0000
0000
,
1000
0000
0000
1000
0000
0000
0000
0000
,
0001
0000
0000
0001
0000
0000
0000
0000
,
2002
0000
0000
3003
,
1001
0000
1001
0000
,
1000
0001
0100
0000
,
1001
0000
1001
0000
,
0010
0100
0010
0000
,
1001
0000
1001
0000
,
0001
1000
0100
0000
,
1000
0001
1000
0000
,
0001
0100
0010
0000
,
1001
0000
1001
0000
,
0001
1000
0010
0000
,
1001
0000
1001
0000
,
0100
0010
0100
0000
,
1001
0000
1001
0000
,
1000
0001
0010
0000
,
0001
1000
0001
0000
,
0100
0010
1000
0000
,
0001
0000
0010
0000
,
0001
0000
0100
0000
,
0001
0000
0010
0000
,
0001
0000
1001
1000
,
0000
0010
0000
1000
,
0000
0100
0000
1000
,
0000
0010
0000
1000
,
0000
0001
1000
0001
,
0000
0010
0000
0001
,
0000
0100
0000
0001
,
0000
0010
0000
0001
,
0000
1001
1000
0000
,
0010
0000
0100
0000
,
0010
0000
0000
0000
1000
0000
0000
1000
,
0000
1000
0000
0001
,
0000
1000
0000
0000
0001
0000
0000
0001
,
0000
0000
0000
0000
0010
0000
0000
0010
,
0000
0000
0000
0000
0100
0000
0000
0100
,
0000
0000
0000
0000
1000
0000
0000
0001
,
0000
0000
1000
0000
0010
0000
0000
0010
,
0000
0000
0000
0000
0100
0000
0000
0100
,
0000
0000
0000
0000
0001
0000
0000
0001
,
0000
1000
0001
0000
,
1001
0000
0000
0000
0001
0000
0000
0001
,
0000
0000
0000
0000
1000
0000
0000
1000
,
0000
0000
0000
0000
0100
0000
0000
0100
,
0000
1000
0001
0000
,
1001
0000
0000
0000
1000
0000
0000
1000
,
0000
0000
0001
0000
0001
0000
0000
0001
,
0000
0000
1000
0000
,
0001
0000
0200
0000
,
0310
0000
1001
0000
,
1000
0001
1000
0000
,
0100
0000
1001
0000
,
1000
0010
0100
0000
,
0001
0000
1001
0000
,
1000
0001
1000
0000
,
0100
0000
1001
0000
,
0001
0100
0010
0000
,
1000
0000
1001
0000
,
0001
0010
0100
0000
,
0010
0000
1001
0000
,
1000
0010
0100
0000
,
0010
0000
1001
0000
,
1000
0100
0010
0000
,
0001
0000
0000
0001
0000
0000
0001
0000
,
1000
0000
0000
1000
0000
0000
0000
0000
,
2002
0000
0000
0000
,
0000
0000
0000
0000
0000
0000
0000
3003
0000
0000
0000
0000
0000
0000
0000
0000
,
0000
0000
0000
0000
,
0000
0000
0000
0000
,
1000
0000
0100
0000
,
0010
0000
0001
0000
,
1000
0000
0001
0000
,
1000
0000
0001
0000
,
1000
1000
1000
0000
,
0001
0001
0001
0000
,
0100
0000
0010
0000
,
0100
0000
0010
0000
,
2000
0000
3002
0000
,
2003
0000
3010
1000
,
0001
1000
0001
1000
,
0001
1000
0001
1000
,
0001
1000
0001
1000
,
0001
1000
0000
0001
,
1000
0001
1000
0001
,
1000
0001
1000
0002
,
0000
0000
0000
1003
,
0000
1001
0000
0001
,
1000
0100
0000
1000
,
0010
0100
0000
0010
,
1000
0001
0000
1000
,
0000
1001
0000
0001
,
0010
0100
0000
0010
,
0001
1000
0000
0010
,
1000
0001
0000
1001
,
0000
1001
0000
0001
,
1000
0010
0000
0100
,
0010
1000
0000
0100
,
0010
0001
0000
1001
,
0000
1001
0000
0100
,
0010
0100
0000
2002
,
0000
0000
0000
0000
,
0000
0000
0000
0000
,
0000
0000
0000
0000
,
0000
0000
0000
0000
,
3003
0000
0000
0000
;
