#TITLE:疾風迅雷;
#SUBTITLE:;
#ARTIST:KUMOKIRI;
#TITLETRANSLIT:Shippuujinrai;
#SUBTITLETRANSLIT:;
#ARTISTTRANSLIT:;
#GENRE:Eastern Speedcore;
#CREDIT:;
#BANNER:Shippuujinrai.png;
#BACKGROUND:Shippuujinrai-bg.png;
#LYRICSPATH:;
#CDTITLE:cdtitle.png;
#MUSIC:Shippuujinrai.ogg;
#OFFSET:-2.278048;
#SAMPLESTART:80.945045;
#SAMPLELENGTH:10.666672;
#SELECTABLE:YES;
#BPMS:0.000000=360.000000
,256.000000=180.000000
,312.000000=90.000000
,316.000000=360.000000
;
#STOPS:395.666656=0.667000
;
#BGCHANGES:;
#KEYSOUNDS:;
#ATTACKS:;

//---------------dance-single - ----------------
#NOTES:
     dance-single:
     :
     Challenge:
     19:
     1.122607,1.444356,0.517660,0.483715,0.148509,926.000000,865.000000,61.000000,57.000000,0.000000,0.000000,1.122607,1.444356,0.517660,0.483715,0.148509,926.000000,865.000000,61.000000,57.000000,0.000000,0.000000:
// measure 0
0000
0000
0000
0000
,  // measure 1
0000
0000
0000
0000
,  // measure 2
0000
0000
0000
0000
,  // measure 3
0000
0000
0000
0000
,  // measure 4
0000
0000
0000
0000
,  // measure 5
0000
0000
0000
0000
,  // measure 6
0000
0000
0000
0000
,  // measure 7
0000
0000
0000
0000
,  // measure 8
1001
0000
0100
1002
,  // measure 9
0000
0000
0103
0000
0010
0000
1000
0100
,  // measure 10
1000
0100
0010
0000
0000
0000
0011
0000
,  // measure 11
0100
0000
1000
0000
1000
0000
0001
0100
,  // measure 12
0020
0000
1030
0101
,  // measure 13
0010
1000
0002
0000
1003
0100
0010
0001
,  // measure 14
1000
0000
1200
0000
0000
0000
0310
0001
,  // measure 15
0200
0000
0000
0000
0310
0100
0001
1000
,  // measure 16
2001
3100
1002
0103
,  // measure 17
0000
0001
0020
0030
,  // measure 18
2001
3010
1002
0013
,  // measure 19
0000
0000
0001
0000
0200
0301
0100
0000
,  // measure 20
0201
0310
0102
1003
,  // measure 21
0000
0001
0020
0030
,  // measure 22
1200
0310
2100
3001
,  // measure 23
0000
0000
0100
0000
0120
0000
1030
0001
,  // measure 24
2001
3100
0210
1300
,  // measure 25
0000
0010
0002
0003
,  // measure 26
1002
0103
0210
0301
,  // measure 27
0000
0000
0001
0000
2000
3100
1000
0000
,  // measure 28
2100
3001
0102
1003
,  // measure 29
0000
0010
0200
0300
,  // measure 30
2010
0000
3001
0000
0010
0001
0010
0100
,  // measure 31
1000
0001
0100
0010
1000
0001
0010
0100
,  // measure 32
1100
0000
1000
0010
0100
0000
0000
0000
,  // measure 33
0100
0000
0010
0100
0001
1000
0001
1000
,  // measure 34
0100
0000
0000
0000
0010
0100
0010
0100
,  // measure 35
1000
0000
0001
0100
0010
1000
0001
0000
,  // measure 36
1000
0100
1000
0100
0010
0001
0010
0100
,  // measure 37
1000
0000
0001
0100
0010
1000
0010
0100
,  // measure 38
0001
0000
0010
0001
0100
0000
0010
1000
,  // measure 39
0100
0000
0000
0000
0100
0010
0100
0010
,  // measure 40
0001
1000
0001
1000
0001
0100
0010
0000
,  // measure 41
1000
0001
1000
0001
0010
0001
0100
0010
,  // measure 42
1000
0001
1000
0100
1000
0001
0100
0000
,  // measure 43
0010
1000
0100
0100
,  // measure 44
0010
0000
0100
1000
0001
0100
0001
0100
,  // measure 45
0010
1000
0001
0100
0010
1000
0001
1000
,  // measure 46
0001
0010
0000
0000
0001
0010
0001
0010
,  // measure 47
1000
0000
0001
0100
1000
0010
0100
0001
,  // measure 48
1000
0000
0010
0000
0100
0001
0010
0000
,  // measure 49
0100
0000
0010
0001
0100
0000
1000
0000
,  // measure 50
0100
0001
0010
0001
0100
0000
0010
1000
,  // measure 51
0001
0010
0100
1000
0001
1000
0100
0010
,  // measure 52
0001
0000
0100
0000
0010
1000
0100
0000
,  // measure 53
0010
0000
0100
1000
0010
0000
0001
0000
,  // measure 54
0010
1000
0100
1000
0010
0000
0100
0001
,  // measure 55
1000
0010
1000
0010
0100
0000
0001
0000
,  // measure 56
0010
0000
1000
0000
0010
0001
0100
0000
,  // measure 57
1000
0000
0100
0001
0102
0000
1003
0000
,  // measure 58
0001
0010
0001
0100
0010
0000
1000
0010
,  // measure 59
0100
0001
1000
0100
2100
0000
3010
1000
,  // measure 60
0100
0000
0001
0000
0100
1000
0010
0000
,  // measure 61
0100
0000
0001
0010
0012
0000
1003
0000
,  // measure 62
0001
1000
0100
0010
0001
1000
0100
0010
,  // measure 63
0002
0000
0100
0103
,  // measure 64
1001
1000
0010
0010
0000
1000
0010
0100
,  // measure 65
0002
0000
0013
1000
0010
0001
0100
0010
,  // measure 66
0100
1000
0001
0010
1000
0010
0001
1000
,  // measure 67
0100
0001
0010
1000
0001
0100
1000
0010
,  // measure 68
1020
0000
0032
0023
,  // measure 69
2030
0000
0000
0000
3100
0000
0010
0000
0001
1000
0001
1000
0010
0000
0100
0000
,  // measure 70
0101
0001
1000
1100
0100
0100
0010
0100
,  // measure 71
1000
0001
0001
0001
0001
0001
0001
0001
,  // measure 72
1001
1000
0100
0010
0011
0001
0100
0010
,  // measure 73
1002
0000
0103
0001
0101
1000
0010
1010
,  // measure 74
1010
1000
0001
1000
1100
1000
0001
0100
,  // measure 75
0010
1000
1001
0001
0011
0100
1000
0001
,  // measure 76
0202
0000
0000
0000
0303
0000
0000
0000
1010
0000
0000
0000
1001
0000
0001
1000
,  // measure 77
0100
0000
0000
0100
0010
0000
0001
0000
1001
0000
0100
0000
0010
0000
0100
0000
,  // measure 78
2002
0000
0000
0000
0000
0000
3003
0000
0001
0100
1000
0100
0001
0010
1000
0010
,  // measure 79
0001
0100
0001
0100
0001
1000
0001
0100
,  // measure 80
0001
0010
0001
0100
0001
1000
0001
0010
,  // measure 81
0100
1000
0010
1000
0010
0100
0001
0100
,  // measure 82
0010
1000
0001
0010
0100
1000
0001
0100
,  // measure 83
0001
1000
0100
0010
0100
1000
0001
1000
,  // measure 84
0010
0100
0001
1000
0001
0010
0100
1000
,  // measure 85
0001
0100
0001
1000
0100
1000
0001
0010
,  // measure 86
0001
1000
0100
1000
0010
1000
0001
1000
,  // measure 87
0010
0100
0001
1000
0001
0010
0001
1000
,  // measure 88
0100
0010
0001
1000
0001
0100
0010
1000
,  // measure 89
0001
0100
0001
0100
0010
0100
0001
0100
,  // measure 90
0010
0100
1000
0100
0010
1000
0001
0100
,  // measure 91
0001
0010
0100
0010
0001
0010
0100
0010
,  // measure 92
1000
0010
0001
0010
0100
1000
0001
0100
,  // measure 93
0010
1000
0010
0100
0010
1000
0010
0001
,  // measure 94
1000
0100
0010
0100
0001
0100
1000
0100
,  // measure 95
0001
0010
0001
1000
0100
0010
0100
0001
,  // measure 96
0100
0010
0001
0010
0100
1000
0010
0100
,  // measure 97
0001
1000
0100
0001
0100
0010
0001
0100
,  // measure 98
0010
0100
1000
0100
0010
1000
0001
1000
,  // measure 99
2001
0001
0001
3001
,  // measure 100
1001
0000
1000
0100
0010
0001
0100
0010
,  // measure 101
2000
0000
3010
1000
0100
1000
0002
0000
,  // measure 102
0103
0000
0000
0010
0000
0000
0100
0000
0000
0001
0000
0000
0010
0000
0100
0000
0010
0000
0100
0000
0000
1000
0000
0000
,  // measure 103
0001
0100
0010
0100
0001
0100
0010
0100
,  // measure 104
2000
0000
0000
3100
1000
0000
1000
0100
,  // measure 105
0002
0000
0013
0100
0010
0001
0200
0000
,  // measure 106
0310
1000
0100
1000
0010
0100
0001
1000
,  // measure 107
0100
0000
0010
0000
0100
0000
0010
0000
0000
0001
0000
0000
0100
0000
0010
0000
0100
0000
0010
0000
0000
1000
0000
0000
,  // measure 108
0002
0000
0000
0013
0001
0000
0001
0100
,  // measure 109
2000
0000
3100
0010
0100
0001
1000
0000
,  // measure 110
0010
1000
0020
0000
0031
0000
0010
1000
,  // measure 111
0010
0100
0001
1000
0200
0000
0310
0001
,  // measure 112
0200
0000
1300
0100
0010
0100
0001
1000
,  // measure 113
0200
0000
0000
0310
0001
0010
0002
0000
0000
1003
0010
1000
,  // measure 114
0020
0000
0030
0100
0010
0000
0010
0000
,  // measure 115
1000
0100
0010
0001
0100
0010
1000
0001
,  // measure 116
1001
0000
0001
0000
0010
0001
0100
0000
,  // measure 117
1000
0000
0100
1000
0100
0001
0101
0000
,  // measure 118
1001
0000
1000
0000
0010
1000
0100
0010
,  // measure 119
0100
0000
0001
0100
0010
0100
1000
0010
,  // measure 120
1010
0000
0100
0000
0001
0000
0010
0001
,  // measure 121
0011
0000
0000
1010
0000
0010
0100
0001
,  // measure 122
1001
0000
1000
0010
0100
0000
0001
0010
,  // measure 123
0100
0000
0000
0000
0100
0000
0000
0000
1000
0000
0000
0000
0100
0000
0000
0010
0000
0000
0001
0000
1000
0000
0001
0000
,  // measure 124
1000
0000
0010
0000
0100
0010
1000
0010
,  // measure 125
0001
0000
0010
0000
1000
0000
1000
0000
0100
0000
0010
0000
,  // measure 126
0001
0000
0001
0000
0100
0000
0110
0000
0000
0000
1000
0000
,  // measure 127
1001
0000
0000
0000
1100
0000
0000
0000
0011
0000
0000
0000
,  // measure 128
1001
0000
0001
0010
0100
0010
0100
0010
,  // measure 129
0001
0010
0100
0010
0001
0100
0010
1000
,  // measure 130
0001
0010
1000
0010
0001
0010
1000
0010
,  // measure 131
0001
0010
1000
0010
0001
0010
1000
0010
,  // measure 132
0001
0010
1000
0001
0100
1000
0001
0010
,  // measure 133
1000
0001
0100
1000
0001
0010
0100
1000
,  // measure 134
0001
1000
0001
1000
0010
1000
0010
1000
,  // measure 135
0010
0100
0010
0100
1000
0100
1000
0100
,  // measure 136
0001
0100
0001
0100
0001
1000
0001
1000
,  // measure 137
0001
0010
0001
0100
0010
0100
0010
1000
,  // measure 138
0001
0010
0100
0010
0001
0100
0010
0100
,  // measure 139
1000
0100
0010
1000
0010
0001
0010
1000
,  // measure 140
0100
0010
0001
0010
0100
0001
0100
1000
,  // measure 141
0010
0000
0000
1000
0000
0000
0100
0000
0000
0010
0000
0000
0001
0000
1000
0000
0001
0000
1000
0000
0001
0000
1000
0000
,  // measure 142
0001
0000
0000
0000
0000
0000
1000
0001
,  // measure 143
1001
0000
0000
1001
0000
0000
0110
0000
,  // measure 144
0000
2002
0000
0000
,  // measure 145
0000
0000
0000
0000
,  // measure 146
0000
0000
0000
0000
,  // measure 147
0000
0000
0000
0000
,  // measure 148
3003
0000
0000
0000
;

//---------------dance-single - ----------------
#NOTES:
     dance-single:
     :
     Hard:
     16:
     0.887417,1.193164,0.297018,0.424311,0.084862,732.000000,697.000000,35.000000,50.000000,0.000000,0.000000,0.887417,1.193164,0.297018,0.424311,0.084862,732.000000,697.000000,35.000000,50.000000,0.000000,0.000000:
0000
0000
0000
0000
,
0000
0000
0000
0000
,
0000
0000
0000
0000
,
0000
0000
0000
0000
,
0000
0000
0000
0000
,
0000
0000
0000
0000
,
0000
0000
0000
0000
,
0000
0000
0000
0000
,
1000
0001
2000
0000
0000
0000
0002
0000
,
0000
0000
0000
0000
3003
0000
1000
0100
,
1000
0100
0010
0000
0000
0000
0001
0000
,
0100
0000
0010
0000
0010
0000
1000
0001
,
2000
3002
0000
1003
,
0001
1000
0002
0000
1003
0010
1000
0010
,
0100
0000
0002
0000
0000
0000
0013
0100
,
2000
0000
0000
0000
3001
1000
0001
1000
,
0001
0000
0102
1003
,
0000
0010
2000
3000
,
1100
0000
2100
3001
,
0000
0010
0002
0003
,
0101
0000
2010
3001
,
0000
1000
0200
0300
,
1100
0000
0012
1003
,
0000
0000
0001
0000
0200
0000
0310
0100
,
0010
0000
2001
3100
,
0000
0010
0002
0003
,
1001
0000
1002
0103
,
0000
0010
2000
3000
,
1001
0000
2100
3001
,
0000
0100
0020
0030
,
1001
0000
0000
0000
0001
0010
0001
0010
,
0100
0010
0100
0010
0100
1000
0100
1000
,
0001
0000
1000
0010
1000
0000
0000
0000
,
1000
0000
0010
0100
0001
1000
0001
1000
,
0100
0000
0000
0000
0010
0100
0010
0100
,
0010
0000
0001
0010
0100
1000
0001
0000
,
1000
0010
1000
0010
0100
0000
0001
0000
,
1000
0000
0001
0000
0010
0001
0010
0100
,
1000
0000
0010
1000
0010
0000
0100
0001
,
0100
0000
0000
0000
0100
0010
0100
0010
,
1000
0001
1000
0001
1000
0001
0010
0000
,
0001
1000
0001
1000
0001
1000
0010
0000
,
1000
0100
1000
0100
1000
0001
0100
0000
,
0010
1000
0100
0010
,
0001
0000
0100
0000
0001
0100
0001
0100
,
0010
1000
0010
1000
0001
0010
0001
0010
,
0100
0000
0000
0000
0010
0100
0010
0100
,
1000
0000
0001
0100
0010
1000
0001
1000
,
0100
0010
0100
1000
,
0100
0010
0100
1000
,
0001
0100
0010
0100
,
1000
0001
0010
1000
,
0001
0100
0010
0100
,
0001
0100
0010
0100
,
0001
1000
0100
0010
,
0001
1000
0001
1000
0001
0000
0100
0000
,
0010
1000
0010
0001
,
0010
1000
2200
3300
,
0010
0001
0010
1000
,
0010
0000
0001
0000
0102
0000
0103
0010
,
1000
0100
0001
0100
,
1000
0010
0220
0330
,
0001
0100
0010
1000
,
0200
0000
0010
0310
,
1001
1000
0001
0100
0000
0100
0001
1000
,
0200
0000
0310
0001
0100
1000
0100
0001
,
0010
0100
1000
0100
0010
0100
0001
0100
,
0010
0001
0010
0100
1000
0001
0100
0010
,
1020
0000
0032
0023
,
2030
0000
0000
0000
3100
0000
0010
0000
0001
1000
0001
1000
0001
0000
0000
0000
,
1010
1000
0001
0101
0000
0100
0010
1000
,
0001
0010
0100
0010
0100
0010
0100
0010
,
1001
0001
0100
0010
0000
0010
1000
0100
,
0020
0000
0130
0010
1000
0010
0001
0100
,
1000
0100
0010
0100
0001
0100
1000
0100
,
0001
0010
0001
0100
0010
1000
0100
0010
,
0022
0000
0000
0000
0033
0000
0000
0000
0011
0000
0000
0000
1001
0000
0001
1000
,
0001
0000
0000
1000
0010
0000
0100
0000
0001
0000
0010
0000
0100
0000
1000
0000
,
2002
0000
0000
0000
0000
0000
3003
0000
0001
0100
1000
0100
0001
0010
1000
0010
,
0001
0010
0100
1000
,
0001
0000
0100
0000
0010
1000
0010
0000
,
1000
0001
1000
0000
0001
0010
0100
0010
,
0001
0000
0100
0000
0010
0000
1000
0001
,
0100
0001
1000
0000
0100
0000
1000
0100
,
0010
0001
0010
0000
0001
0000
0100
0000
,
0010
0000
0100
0000
0001
1000
0001
0000
,
1000
0001
1000
0000
0010
0100
0001
0100
,
0010
1000
0100
0010
,
0001
1000
0001
0000
0010
0100
0010
0000
,
0001
0100
0010
0100
0001
1000
0100
0000
,
0001
0000
0100
0000
1000
0100
0010
0001
,
1000
0010
1000
0000
0001
0100
0010
0100
,
0001
0000
0010
0000
1000
0000
0010
0001
,
0010
0100
1000
0000
0001
0100
0010
0000
,
1000
0100
0010
0100
1000
0000
0100
0000
,
0001
0000
0100
0000
1000
0010
0100
0000
,
0001
0010
0100
0000
1000
0010
0100
0010
,
1000
0000
0001
0010
0100
1000
0001
0000
,
1000
0010
0100
0001
1000
0100
0010
0001
,
2002
0000
0000
3003
,
0001
0000
0100
0000
1000
0100
1000
0000
,
0100
0000
0001
0000
0010
0001
0010
0000
,
0100
0000
1000
0010
0100
0001
1000
0000
,
0100
0010
0001
0000
1000
0100
0010
0000
,
0002
0000
0000
0013
0001
0000
1000
0010
,
1000
0000
0010
0000
0001
0010
0001
0000
,
0010
1000
0010
1000
0001
0000
1000
0000
,
0001
0010
0100
0000
0010
0100
1000
0000
,
0002
0000
0000
0013
0001
0000
0100
0000
,
1000
0000
0100
0000
0001
0100
0001
0000
,
1000
0001
1000
0000
0100
0000
0010
0000
,
0001
0100
0001
0100
0010
0000
1000
0000
,
0001
0000
1000
0100
1000
0100
0010
0000
,
0001
0000
0100
0010
1000
0000
0001
0000
,
0020
0000
0000
0031
1000
0000
1000
0000
,
0001
0010
0100
1000
0001
0100
0010
2000
,
0002
0000
0000
0000
,
0000
0000
3003
1100
,
0022
0000
0000
0000
,
0000
0000
0000
0000
0033
0000
0001
0100
,
0020
0000
0000
0000
0030
0000
1000
0100
,
0010
0000
0000
0110
0000
0000
0010
0001
,
0200
0000
0000
0300
,
0001
0000
0100
0000
1000
0000
0100
0000
0001
0000
0010
0000
,
0100
0000
1000
0000
0010
0100
0001
0000
,
1000
0000
0100
0000
0010
0000
0001
0000
0000
0000
1000
0000
,
0010
0000
0001
0000
0010
0000
1000
0000
0000
0000
1000
0000
,
0100
0000
0000
0000
1100
0000
0000
0000
0011
0000
0000
0000
,
1001
0000
0001
0100
0001
0100
0001
0100
,
0010
0000
1000
0100
0010
0000
0001
1000
,
0010
0100
0010
0100
0010
0100
0010
0100
,
0010
0100
0010
0100
0010
0100
0010
0100
,
0001
1000
0010
1000
0001
1000
0010
1000
,
0001
1000
0010
1000
0001
1000
0010
1000
,
0001
1000
0100
0010
,
0001
0010
0100
1000
,
0001
0000
0100
0000
0010
0000
1000
0001
,
1000
0001
1000
0000
0001
1000
0001
0000
,
0100
0010
0100
0010
0100
0001
0100
0001
,
1000
0001
1000
0001
0010
0001
0010
0001
,
1000
0001
1000
0001
1000
0010
1000
0010
,
1000
0001
1000
0100
0010
0001
0100
0010
,
1000
0000
0000
0000
0000
0000
0001
1000
,
0001
0000
0000
1001
0000
0000
0110
0000
,
0000
2002
0000
0000
,
0000
0000
0000
0000
,
0000
0000
0000
0000
,
0000
0000
0000
0000
,
3003
0000
0000
0000
;

//---------------dance-single - ----------------
#NOTES:
     dance-single:
     :
     Medium:
     14:
     0.683747,1.130365,0.347935,0.288532,0.067890,564.000000,523.000000,41.000000,34.000000,0.000000,0.000000,0.683747,1.130365,0.347935,0.288532,0.067890,564.000000,523.000000,41.000000,34.000000,0.000000,0.000000:
0000
0000
0000
0000
,
0000
0000
0000
0000
,
0000
0000
0000
0000
,
0000
0000
0000
0000
,
0000
0000
0000
0000
,
0000
0000
0000
0000
,
0000
0000
0000
0000
,
0000
0000
0000
0000
,
1002
0000
0000
2000
,
0000
0000
3003
1000
,
0100
0001
0000
0001
,
0100
0010
0010
0001
,
0200
0320
0000
2030
,
3002
0023
0031
0100
,
1000
0100
0000
0001
,
0020
0000
0130
1000
,
1100
0000
1100
0000
,
0000
0001
0100
0000
,
0101
0000
0101
0000
,
0000
1000
0010
0000
,
0101
0000
1010
0000
,
0000
1000
0100
0000
,
0011
0000
1100
0000
,
0000
0001
0100
0010
,
1010
0000
1001
0000
,
0000
1000
0100
0000
,
0011
0000
1001
0000
,
0000
0001
0100
0000
,
0110
0000
1001
0000
,
0000
0100
0010
0000
,
1001
0000
0001
0010
,
0100
1000
0001
0100
,
0010
1000
0100
0000
,
0100
1000
0010
1000
,
0001
0000
0010
0001
,
0100
1000
0100
0010
,
1000
0100
0010
0100
,
1000
0100
0001
0100
,
0010
0001
1000
0010
,
0100
0000
0100
0010
,
1000
0001
0010
0001
,
1000
0001
0100
0001
,
1000
0100
0010
0001
,
0100
0010
1000
0001
,
1000
0100
0010
0001
,
0100
0010
1000
0100
,
0010
0000
0001
0010
,
1000
0010
0001
1000
,
0001
0100
0001
0100
,
0010
1000
0010
1000
,
0001
0100
0010
1000
,
0001
0010
0100
1000
,
0001
0010
0001
0010
,
0100
1000
0100
1000
,
0001
0010
0100
1000
,
0010
0100
0001
1000
,
0100
0010
0100
1000
,
0100
0010
0022
0033
,
0010
0001
1000
0010
,
0100
0010
2020
3030
,
0010
1000
0100
0010
,
0001
0100
0220
0330
,
0010
1000
0100
0010
,
0002
0000
1000
1003
,
1001
0001
1000
0100
0000
0100
1000
0001
,
0200
0000
0310
1000
0100
0001
0100
1000
,
0010
0100
0001
0100
0010
0100
1000
0100
,
0010
0100
0001
0100
0010
1000
0100
0010
,
0021
0000
2030
3020
,
0032
0000
0103
0010
1000
0100
0100
0000
,
0011
0000
1000
1010
0000
0001
0100
0000
,
0010
1000
0001
1000
0001
1000
0001
1000
,
0001
0100
0010
1000
0000
0010
1000
0100
,
0020
0000
0130
0010
1000
0010
0001
0100
,
1000
0100
0010
0100
0001
0100
1000
0100
,
0001
0010
0001
0100
0010
1000
0100
0010
,
0022
0033
0011
1001
,
1010
0000
1000
0010
0001
0010
1000
0100
,
0020
0000
0000
0000
0000
0000
0000
0000
0031
0010
0001
0010
0100
1000
0100
1000
,
0001
0100
0010
1000
,
0001
1000
0100
0010
,
0001
0100
0001
0010
,
0100
1000
0010
1000
,
0100
0010
0001
0100
,
0010
1000
0010
0100
,
0001
0010
0001
1000
,
0100
1000
0010
0100
,
0001
0010
0100
1000
,
0001
1000
0100
0010
,
0001
0100
0010
0100
,
0001
1000
0100
0001
,
0100
0010
0001
0100
,
1000
0100
0010
1000
,
0001
0010
0100
0010
,
1000
0010
0001
0100
,
0010
1000
0010
0001
,
0010
1000
0100
0010
,
0001
0100
1000
0100
,
0001
1000
0100
0010
,
2002
0000
0000
3003
,
0001
0100
0010
0100
,
1000
0000
0000
1000
0100
0000
0001
0000
,
1000
0100
0010
0100
,
0001
0100
0010
0100
,
1000
0000
0000
1000
0010
0000
0001
0000
,
0010
1000
0010
0001
,
1000
0100
0010
0100
,
0001
0010
1000
0010
,
0001
0000
0000
0001
0010
0000
0100
0000
,
1000
0010
0100
0001
,
1000
0100
0010
0001
,
0100
1000
0100
0001
,
0010
0100
1000
0010
,
0001
0010
1000
0100
,
0020
0000
0030
0001
0010
0000
0100
0000
,
1000
0010
0100
0001
,
2002
0000
0000
0000
,
0000
0000
3003
0110
,
0220
0000
0000
0000
,
0000
0000
0000
0000
0330
0000
0001
1000
,
0001
0000
0000
0000
0000
0000
1000
0001
,
1000
0000
0000
1001
0000
0000
0001
1000
,
0002
0000
0000
0003
,
1000
0000
0100
0000
0010
0000
0001
0000
0010
0000
0100
0000
,
1000
0001
0100
0010
,
1000
0000
0100
0000
0010
0000
0001
0000
0000
0000
1000
0000
,
0010
0000
0100
0000
0001
0000
0010
0000
0000
0000
0001
0000
,
1000
0000
0000
0000
1001
0000
0000
0000
0110
0000
0000
0000
,
1001
0000
0000
0000
1001
0000
0001
1000
,
0001
0000
0000
0000
1001
0000
0000
1000
,
0100
0001
0100
1000
,
0100
0001
0100
1000
,
0010
0001
1000
0100
,
0001
1000
0010
0100
,
0001
1000
0001
1000
,
0001
0010
0001
1000
,
0001
0100
0001
0100
,
0010
0100
0001
1000
,
0100
0010
0001
0100
,
0010
0001
0010
1000
,
0100
0001
0100
0010
,
0001
0100
0010
1000
,
1001
0000
0000
0000
0000
0000
0001
1000
,
0001
0000
0000
1001
0000
0000
0110
0000
,
0000
2002
0000
0000
,
0000
0000
0000
0000
,
0000
0000
0000
0000
,
0000
0000
0000
0000
,
3003
0000
0000
0000
;

//---------------dance-single - ----------------
#NOTES:
     dance-single:
     :
     Easy:
     10:
     0.463106,0.941971,0.373394,0.500687,0.000000,382.000000,338.000000,44.000000,59.000000,0.000000,0.000000,0.463106,0.941971,0.373394,0.500687,0.000000,382.000000,338.000000,44.000000,59.000000,0.000000,0.000000:
0000
0000
0000
0000
,
0000
0000
0000
0000
,
0000
0000
0000
0000
,
0000
0000
0000
0000
,
0000
0000
0000
0000
,
0000
0000
0000
0000
,
0000
0000
0000
0000
,
0000
0000
0000
0000
,
1002
0000
0000
2000
,
0000
0000
3003
0000
,
1000
0000
0000
0100
,
0000
0010
0001
0000
,
2000
0000
0000
3002
,
0000
0000
1003
0000
,
0010
0100
0000
0000
,
0002
0000
1003
0000
,
1001
0000
1001
0000
,
0000
0000
0010
0000
,
1001
0000
1001
0000
,
0000
0000
0100
0000
,
1001
0000
1001
0000
,
0000
0000
1000
0000
,
1001
0000
1001
0000
,
0000
0000
0001
0010
,
0001
0000
0011
0000
,
0000
0000
1000
0000
,
1100
0000
1100
0000
,
0000
0000
0001
0000
,
0101
0000
0101
0000
,
0000
0000
1000
0000
,
1010
0000
0010
1000
,
0001
0100
0010
0000
,
1000
0000
0001
0000
,
0000
0001
0010
0000
,
0100
0000
1000
0000
,
0001
1000
0100
0000
,
0010
0000
0001
0000
,
0100
0000
0010
0000
,
1000
0000
1000
0001
,
1000
0000
1000
0000
,
0010
0000
0100
0000
,
0001
0000
0010
0000
,
0100
0000
1000
0000
,
0100
0010
0001
1000
,
0001
0000
0100
0000
,
0010
0000
1000
0000
,
0110
0000
0000
0000
,
1001
0000
0001
0100
,
0010
0000
1000
0000
,
0010
1000
0001
0000
,
1000
0000
0010
0000
,
0010
1000
0001
0000
,
0010
0000
0001
0000
,
0010
0001
1000
0000
,
0001
0000
0010
0000
,
0010
0001
1000
0000
,
0001
0000
0100
0001
,
0100
0000
0202
0303
,
1000
0000
0010
1000
,
0010
0000
2020
3030
,
0001
0000
0010
0001
,
0010
0000
0022
0033
,
0001
0000
0100
0000
,
0010
0000
1000
0001
,
2000
0000
0000
3001
0000
0000
0200
0000
,
0320
2030
3200
0320
,
0032
0203
0320
0230
,
2300
3200
0320
2030
,
3200
0000
0302
0203
,
2300
3020
0230
0302
,
1003
0000
0000
0110
0000
0000
0001
0000
,
1000
0001
1000
0001
1000
0001
1000
0000
,
1001
0000
0101
0000
,
1010
0000
1010
0000
1001
0000
0001
1000
,
0100
1000
0100
0000
0011
0000
0001
0000
,
0100
0001
0100
0000
0010
1000
0010
0000
,
1001
0000
0000
0000
0110
0000
1000
0001
,
1000
0000
0100
0010
0001
0000
0100
0000
,
0020
0000
0000
0000
1030
1000
0001
0001
,
1000
0000
0100
0000
,
0010
0000
0001
0000
,
0100
0000
0010
0000
,
1000
0000
0001
0000
,
1000
0000
0100
0000
,
1000
0000
0010
0000
,
0100
0000
0001
0000
,
0010
0000
0001
0000
,
0100
0000
0010
0000
,
1000
0000
0001
0000
,
1000
0100
1000
0000
,
0001
0010
0001
0000
,
1000
0010
1000
0000
,
0001
0100
0001
0000
,
1000
0010
1000
0000
,
0001
0010
0001
0000
,
1000
0100
1000
0000
,
0001
0100
0001
0000
,
1000
0100
0010
0000
,
0001
0100
0010
1000
,
2002
0000
0000
3003
,
1001
0000
0001
1000
,
0100
0000
0100
1000
,
0001
0000
0100
0000
,
0010
0100
0010
0000
,
2002
0000
3003
0001
,
0010
0000
0010
0001
,
1000
0000
0010
0000
,
0010
0100
0010
0000
,
2002
0000
3003
1000
,
0010
0000
1000
0000
,
0100
0000
0010
0000
,
0001
0010
0100
0000
,
1000
0000
0001
0000
,
0100
0010
1000
0000
,
0002
0000
0003
0000
,
1000
0100
0010
0001
,
2000
0000
0000
0000
,
3000
0000
0000
0002
,
2000
0000
0000
0000
,
3003
0000
0000
2000
,
0002
0000
3003
0001
,
1000
0000
0000
0001
0000
0000
2000
0000
,
0002
0000
0000
3003
,
1000
0000
0100
0000
,
0011
0000
1001
0000
,
0101
0000
0110
0000
,
1010
0000
1100
0000
,
2002
0000
0000
0000
0000
0000
0000
3003
0000
0000
0000
0000
,
1001
0000
0000
0000
,
0110
0000
1001
0000
,
0001
1000
0001
1000
,
0001
1000
0001
1000
,
0100
0010
0100
0010
,
0100
0010
0100
0010
,
0002
0000
0203
0000
,
0320
0000
2030
0000
,
3002
0000
0023
0000
,
0230
0000
2300
0000
,
3001
0100
0001
0000
,
1000
0010
1000
0000
,
0001
0010
0001
0000
,
1000
0100
0010
0001
,
1000
0000
0000
0001
,
1000
0000
0000
0001
0000
0000
1000
0000
,
0000
2002
0000
0000
,
0000
0000
0000
0000
,
0000
0000
0000
0000
,
0000
0000
0000
0000
,
3003
0000
0000
0000
;

//---------------dance-single - ----------------
#NOTES:
     dance-single:
     :
     Beginner:
     7:
     0.360058,0.627981,0.347935,0.347935,0.000000,297.000000,256.000000,41.000000,41.000000,0.000000,0.000000,0.360058,0.627981,0.347935,0.347935,0.000000,297.000000,256.000000,41.000000,41.000000,0.000000,0.000000:
0000
0000
0000
0000
,
0000
0000
0000
0000
,
0000
0000
0000
0000
,
0000
0000
0000
0000
,
0000
0000
0000
0000
,
0000
0000
0000
0000
,
0000
0000
0000
0000
,
0000
0000
0000
0000
,
1000
0000
0000
2000
,
0000
0000
3000
0000
,
0100
0000
0000
0100
,
0000
0000
0010
0000
,
0001
0000
0000
0002
,
0000
0000
1003
0000
,
0001
0000
0000
0000
,
0200
0000
0310
0000
,
1001
0000
1001
0000
,
0000
0000
0010
0000
,
1001
0000
1001
0000
,
0000
0000
0100
0000
,
1001
0000
1001
0000
,
0000
0000
1000
0000
,
1001
0000
1001
0000
,
0000
0000
0001
0000
,
0110
0000
0110
0000
,
0000
0000
1000
0000
,
0110
0000
0110
0000
,
0000
0000
0100
0000
,
1001
0000
1001
0000
,
0000
0000
0010
0000
,
1001
0000
1000
0000
,
0100
0000
0010
0000
,
0001
0000
1000
0000
,
0000
0000
0001
0000
,
0100
0000
0010
0000
,
1000
0000
0001
0000
,
1000
0000
0100
0000
,
0010
0000
0001
0000
,
0100
0000
0010
0000
,
0100
0000
0100
0000
,
0010
0000
1000
0000
,
0001
0000
1000
0000
,
0100
0000
0010
0000
,
0001
0000
0100
0000
,
0010
0000
1000
0000
,
0001
0000
0010
0000
,
0110
0000
0000
0000
,
1001
0000
0001
0000
,
1000
0000
0100
0000
,
1000
0000
0100
0000
,
1000
0000
0100
0000
,
1000
0001
1000
0000
,
0001
0000
0100
0000
,
0001
0000
0100
0000
,
0001
0000
0100
0000
,
0001
1000
0001
0000
,
1000
0000
0100
0000
,
0010
0000
0011
0000
,
0001
0000
0100
0000
,
0010
0000
1010
0000
,
1000
0000
0001
0000
,
0010
0000
0110
0000
,
0100
0000
1000
0000
,
0001
0000
1000
0001
,
2000
0000
0000
0000
,
3020
0000
0230
0000
,
0302
0000
2003
0000
,
3200
0000
0320
0000
,
0032
0000
0203
0000
,
0320
0000
2030
0000
,
3001
0000
0000
0001
0000
0000
0000
0000
,
0010
0010
0010
0010
,
0001
0000
1001
0000
,
0100
0100
1001
0000
,
1000
1000
0110
0000
,
0001
0001
0110
0000
,
1000
0000
1001
0100
,
0010
0000
0110
1000
,
0002
0000
0000
0000
2000
0000
0000
3003
,
0001
0000
0100
0000
,
0001
0000
0100
0000
,
0010
0000
1000
0000
,
0010
0000
1000
0000
,
0001
0000
0010
0000
,
0001
0000
0010
0000
,
0100
0000
1000
0000
,
0100
0000
1000
0000
,
0001
0000
0100
0000
,
0010
0000
1000
0000
,
0001
0000
0010
0000
,
0001
0010
0001
0000
,
1000
0000
0010
0000
,
1000
0010
1000
0000
,
0001
0000
0100
0000
,
0001
0100
0001
0000
,
1000
0000
0100
0000
,
1000
0100
1000
0000
,
0001
0000
1000
0000
,
0001
1000
0001
1000
,
0000
0000
0000
0000
,
1000
0000
0100
0000
,
0010
0000
0001
1000
,
0001
0000
0100
0000
,
0010
0000
1000
0001
,
2000
0000
3000
0000
,
0110
0000
1001
0000
,
0001
0000
1000
0000
,
0001
1000
0001
0000
,
2002
0000
3003
0000
,
1000
0000
0100
0000
,
0010
0000
0001
0000
,
0100
0010
0100
0000
,
0010
0000
1000
0000
,
0001
1000
0001
0000
,
2000
0000
3000
0000
,
0220
0000
0330
0000
,
2002
0000
0000
0000
,
3003
0000
0000
0000
,
0220
0000
0000
0000
,
0330
0000
0000
0000
,
2002
0000
3003
0000
,
0220
0000
0330
0000
,
2002
0000
3003
0000
,
0200
0000
0300
0000
,
1000
0000
0001
0000
,
0100
0000
0001
0000
,
1000
0000
0100
0000
,
0020
0000
0000
0000
0000
0000
0000
0000
0030
0000
0000
0000
,
1001
0000
0000
0000
,
1001
0000
1001
0000
,
0001
1000
0001
1000
,
0001
1000
0001
1000
,
0002
0000
2003
0000
,
3002
0000
2003
0000
,
3002
0000
0000
0000
,
0000
0000
0000
0000
,
0000
0000
0000
0000
,
0000
0000
0003
0000
,
1000
0000
0100
0000
,
0010
0000
0001
0000
,
0010
0000
0100
0000
,
1000
0000
0001
0000
,
1001
0000
0000
0000
,
0110
0000
0000
0000
,
0000
2002
0000
0000
,
0000
0000
0000
0000
,
0000
0000
0000
0000
,
0000
0000
0000
0000
,
3003
0000
0000
0000
;
