#TITLE:Shining Wizard;
#SUBTITLE:;
#ARTIST:96;
#TITLETRANSLIT:;
#SUBTITLETRANSLIT:;
#ARTISTTRANSLIT:;
#GENRE:Progressive Rock;
#CREDIT:;
#BANNER:Shining Wizard.png;
#BACKGROUND:Shining Wizard-bg.png;
#LYRICSPATH:;
#CDTITLE:cdtitle.png;
#MUSIC:Shining Wizard.ogg;
#OFFSET:-0.008115;
#SAMPLESTART:51.273933;
#SAMPLELENGTH:12.151897;
#SELECTABLE:YES;
#BPMS:0.000000=158.000000
;
#STOPS:
;
#BGCHANGES:;
#KEYSOUNDS:;
#ATTACKS:;

//---------------dance-single - ----------------
#NOTES:
     dance-single:
     :
     Challenge:
     16:
     0.856470,1.005323,0.549786,0.584693,0.785409,687.000000,624.000000,63.000000,67.000000,56.000000,0.000000,0.856470,1.005323,0.549786,0.584693,0.785409,687.000000,624.000000,63.000000,67.000000,56.000000,0.000000:
// measure 0
0000
0000
0000
0000
,  // measure 1
0000
0000
0000
0000
,  // measure 2
0000
0000
0000
0000
,  // measure 3
0000
0000
0000
2002
,  // measure 4
0000
3000
0000
0000
0000
0100
0100
0000
,  // measure 5
0000
0003
0000
0011
0000
2200
0000
0000
,  // measure 6
0300
0000
3000
0000
0000
2002
0000
3003
,  // measure 7
0202
0000
0000
0000
0003
0000
0310
2000
0002
0000
0000
0000
0000
0000
0003
0000
,  // measure 8
0000
0000
0000
0100
0100
0000
0000
3000
,  // measure 9
0000
1010
0000
0201
0000
0000
0010
0010
,  // measure 10
0010
0000
0010
0000
0310
0000
1001
0000
1000
0010
1000
0000
1001
0000
0001
0010
,  // measure 11
0001
0000
1000
0000
0001
1000
0010
1000
0010
1000
0001
1000
0010
1000
0010
1000
,  // measure 12
0100
0010
0001
0000
1000
0001
0010
0001
0010
0001
1000
0001
0010
0001
0100
0010
,  // measure 13
1000
0100
0010
0001
1000
0001
1000
0001
0010
0001
1000
0001
1000
0001
0010
0001
,  // measure 14
0100
0000
0010
1000
0001
1000
0001
1000
0010
1000
0001
1000
0100
0010
0001
1000
,  // measure 15
0001
0100
0010
0100
0010
0100
1000
0100
0010
0100
0010
0100
0001
1000
0100
0000
,  // measure 16
1000
0100
0010
0100
0010
0100
0001
0100
0010
0001
0010
0100
1000
0001
1000
0010
,  // measure 17
0100
0010
0100
0010
0001
0010
0100
0010
0100
0010
1000
0001
0010
0000
0001
0010
,  // measure 18
0100
0010
0100
0010
1000
0010
0001
1000
0001
0100
0010
1000
0001
0000
1000
0100
,  // measure 19
1000
0010
0100
0001
1000
1100
00M0
0101
,  // measure 20
0000
0011
0M00
1010
0010
1000
0200
0320
,  // measure 21
0032
0203
0320
0230
2300
0000
3002
0023
,  // measure 22
2030
0000
0000
0000
3001
0000
0001
0000
0010
0000
0001
0100
0001
0000
0010
0000
,  // measure 23
0100
1000
0001
0101
00M0
1100
0000
1010
,  // measure 24
0M00
0011
0001
0101
0000
2000
3200
0000
,  // measure 25
0302
0103
2000
3000
0002
0023
0032
0000
,  // measure 26
0103
0100
0001
1000
0100
0001
0100
1000
,  // measure 27
0010
0000
1000
0000
0000
MM00
0001
0010
0001
0000
1000
0000
0000
MM00
0001
0000
,  // measure 28
0100
0001
2000
3200
0320
2030
3020
0230
,  // measure 29
2300
0000
3020
0000
0032
0000
0023
2030
,  // measure 30
3002
1003
0100
0010
0100
0001
0100
11M0
,  // measure 31
0000
0000
0M11
0000
0001
0000
10M1
0000
0000
0000
1000
0000
0100
0010
M002
0000
,  // measure 32
0000
0103
102M
0000
0130
0101
2MM1
0000
,  // measure 33
3100
0000
M12M
0000
0000
0000
0031
0000
1000
0010
0100
0001
1000
0000
0001
0010
,  // measure 34
0100
0001
0100
0010
0001
0011
00MM
0101
,  // measure 35
0010
0000
1010
0000
M0M0
0000
1100
0000
0001
0100
0001
0000
1000
0100
0010
0000
,  // measure 36
0001
0100
0010
0100
1000
0100
M102
0000
,  // measure 37
0013
0000
210M
0000
0000
0000
3010
0000
0100
0001
0010
0100
1000
0000
0001
0100
,  // measure 38
0010
0001
0010
1000
0100
0110
0MM0
0011
,  // measure 39
0001
0000
0101
0000
0M0M
0000
1010
0000
0001
0100
0010
1000
020M
0000
0000
0310
,  // measure 40
0001
1M02
0000
0103
M202
0303
2MM1
0000
,  // measure 41
3100
0000
M21M
0000
0000
0000
0301
0000
0100
0010
0100
1000
0001
0000
1000
0010
,  // measure 42
0100
1000
0100
0010
1000
1010
M0M0
1100
,  // measure 43
0010
0000
0011
0000
00MM
0000
0101
0000
1000
0100
1000
0000
0001
0100
0010
0000
,  // measure 44
1000
0100
0010
0100
0001
0100
210M
0000
,  // measure 45
3010
0000
M102
0000
0000
0000
0013
0000
0100
1000
0010
0100
0001
0000
1000
0100
,  // measure 46
0010
1000
0010
0001
0100
0110
0MM0
1010
,  // measure 47
1000
0000
1100
0000
MM00
0000
0011
0000
1000
0100
0010
0001
M200
0000
0000
0310
,  // measure 48
1000
2M01
0000
3100
22M0
3300
1MM2
0000
,  // measure 49
0103
0000
2MM1
0000
0000
0000
3010
0000
0100
0001
1000
0100
0010
0000
0001
0010
,  // measure 50
0001
0000
0100
0000
0010
0000
0100
0000
0001
0000
2000
000M
0000
0000
3001
0010
,  // measure 51
0100
0000
0010
0000
1000
0000
0010
0000
0100
0010
0002
0000
00M0
0000
1003
0010
,  // measure 52
1000
0000
0100
0000
0010
0000
0100
0000
1000
0000
0002
M000
0000
0000
1003
0010
,  // measure 53
0100
0000
0010
0000
0001
0000
0010
0000
1000
0100
0010
0001
1000
0000
0010
1000
,  // measure 54
0100
0000
0010
0000
0100
0000
0010
0001
0100
0000
0010
1000
0010
0000
0100
0001
,  // measure 55
0010
0000
0100
0000
1000
0010
0100
0001
1000
0100
0010
0001
0200
0000
0000
0310
,  // measure 56
1000
0000
0001
0000
1000
0000
0001
0000
1000
0000
0100
0000
M012
0000
0000
0103
,  // measure 57
0010
0000
201M
0000
0000
3100
0010
0000
0001
0100
0010
1000
0001
0000
0000
0000
,  // measure 58
0000
0000
0000
0000
0000
1000
0000
1000
,  // measure 59
0000
0000
1000
0000
0001
0010
0001
0000
1000
0000
0000
0000
0000
0000
0010
0000
,  // measure 60
0010
0000
0010
0000
1000
0001
1000
0001
0010
0000
0000
0000
0110
0000
1000
0001
,  // measure 61
1000
0000
0010
0100
0010
0000
1000
0000
1001
0000
1001
0000
0001
0000
0010
0100
,  // measure 62
0010
0000
0001
0000
1001
0000
1001
0000
0001
0100
0010
1000
0100
0000
1000
0001
,  // measure 63
0100
0000
0101
0000
0001
1000
0100
0000
1100
0000
1000
0001
0100
0000
0101
0000
,  // measure 64
1000
0010
0100
0001
1000
0001
0010
0001
0010
0001
1000
0001
0010
0001
0010
0001
,  // measure 65
0100
0010
1000
0000
0001
1000
0010
1000
0010
1000
0001
1000
0010
1000
0100
0010
,  // measure 66
0001
0100
0010
1000
0100
1000
0100
1000
0010
1000
0100
1000
0100
1000
0010
0100
,  // measure 67
0001
0000
0010
0001
0100
0001
0100
0001
0010
0001
0100
0001
1000
0010
0100
0001
,  // measure 68
1000
0100
0010
0100
0010
0100
0001
0100
0010
0100
0010
0100
1000
0010
0100
0000
,  // measure 69
0001
0100
0010
0100
0010
0100
1000
0100
0010
1000
0100
1000
0010
0100
0001
0010
,  // measure 70
0100
0010
0100
0010
1000
0010
0100
0010
0100
0010
0001
0100
0010
0000
1000
0010
,  // measure 71
0100
0001
0010
0100
1000
0010
0100
0001
0100
0010
1000
0001
0020
0000
0000
0000
,  // measure 72
0030
0000
0000
0000
;

//---------------dance-single - ----------------
#NOTES:
     dance-single:
     :
     Hard:
     13:
     0.623340,0.628327,0.654507,0.785409,0.231259,500.000000,425.000000,75.000000,90.000000,0.000000,0.000000,0.623340,0.628327,0.654507,0.785409,0.231259,500.000000,425.000000,75.000000,90.000000,0.000000,0.000000:
0000
0000
0000
0000
,
0000
0000
0000
0000
,
0000
0000
0000
0000
,
0000
0000
0000
2002
,
0000
0003
0000
0000
0000
0100
0100
0000
,
0000
3000
0000
1100
0000
0202
0000
0000
,
0300
0000
0003
0000
0000
0022
0000
0033
,
2200
0000
0300
3001
2002
0000
0000
3000
,
0000
0000
0000
0100
0100
0000
0000
0003
,
0000
0101
0000
2100
0000
0000
3001
0100
,
0001
0100
0001
2010
0000
3001
0012
0000
,
1003
0010
1010
0000
0000
1001
0000
0000
,
0001
1000
0100
0000
0110
0000
0000
0000
0000
0000
0011
0000
0000
0000
0001
1000
,
0001
1000
0001
0000
0000
0000
0000
0000
1001
0000
0000
0000
0000
0000
1000
0001
,
0100
0000
0110
0000
0000
0000
0000
0000
1010
0000
0000
0000
1000
0001
1000
0001
,
0020
0000
0000
0031
0100
0000
0020
0000
0000
0130
1000
0000
0100
0000
0001
0000
,
0020
0000
0000
0130
1000
0000
0020
0000
0000
0031
0000
0000
0010
0100
0020
0000
,
0000
1030
0100
0000
0020
0000
0000
0130
0001
0000
0100
0000
1000
0000
0020
0000
,
0000
0130
0001
0000
0020
0000
0000
0130
0000
0000
0010
0001
1000
0000
0001
0100
,
0001
0100
0010
1000
0000
0100
0000
0011
,
0000
1001
0000
0001
1000
0001
0200
0320
,
2030
3200
0302
0203
2300
0000
3020
0230
,
0302
0000
0000
0000
2003
0000
0001
0000
3001
0000
1000
0100
1000
0000
0100
0000
,
0010
0001
0000
0100
0000
1010
0000
0011
,
0000
0001
0100
1000
0000
2000
3200
0000
,
0302
0013
0200
0300
0020
0032
2003
0000
,
3010
0010
1000
0100
0001
0100
1000
0010
,
0100
0000
0001
0000
0000
0000
1000
0100
1000
0000
0001
0000
0000
0000
0001
0000
,
0100
0001
2000
3020
0230
0302
0023
0230
,
0302
0000
0203
0000
2300
0000
3020
0230
,
0302
0013
0001
0100
1000
0100
0001
0011
,
0000
0110
0000
1100
0000
1000
0010
0102
,
0000
0013
2100
0000
3001
0100
0120
0000
,
1030
0000
2010
0000
0000
0000
3001
0000
1000
0100
1000
0100
1000
0000
0001
0100
,
0001
0100
0010
0200
0000
1300
0000
1100
,
0000
0000
0101
0000
0000
0000
0011
0000
0000
0000
0110
0000
0010
0001
2000
0000
,
0000
3010
1000
0100
0010
0100
2000
0000
,
3010
0000
0102
0000
0000
0000
1000
0000
2003
0000
0000
0000
3100
0000
0010
0001
,
0010
0001
0100
2000
0000
3100
0000
0101
,
0000
0011
0000
1100
0000
1010
2001
0000
,
3100
0120
0000
0031
1001
0000
0201
0000
,
0310
0000
1020
0000
0000
0000
1030
0000
0001
0100
0001
0100
0001
0000
1000
0100
,
1000
0100
0010
0200
0000
0301
0000
0101
,
0000
0000
1100
0000
0000
0000
1010
0000
0000
0000
0110
0000
0010
1000
0002
0000
,
0000
0013
0001
0100
0010
0100
0002
0000
,
0013
0000
2100
0000
0000
0000
0001
0000
3002
0000
0000
0000
0103
0000
0010
1000
,
0010
1000
0100
0002
0000
0103
0000
1100
,
0000
1010
0000
0101
0000
0011
1002
0000
,
0103
0120
0000
1030
1001
0000
1200
0000
,
0310
0000
0021
0000
0000
0000
0031
0000
1000
0100
1000
0100
1000
0000
0001
0100
,
0001
0000
0100
0000
0010
0000
1000
0000
0100
0000
0020
0000
0000
0000
0130
1000
,
0100
0000
1000
0000
0010
0000
0100
0000
0001
0000
0002
0000
0000
0000
1003
0100
,
1000
0000
0100
0000
0010
0000
0001
0000
0100
0000
0020
0000
0000
0000
0130
0001
,
0100
0000
0001
0000
0010
0000
1000
0000
0010
0000
0002
0000
0000
0000
1003
0001
,
1000
0000
0200
0000
0000
0000
1300
0001
1000
0000
0020
0000
0000
0000
1030
0001
,
1000
0100
0001
0100
1000
0010
0210
0000
,
0010
0000
0000
0000
0010
0000
0000
0000
0310
0000
0100
0000
1002
0000
0000
0013
,
0100
0000
2000
0000
0000
3010
0100
0000
0001
1000
0001
1000
0100
0000
0000
0000
,
0000
0000
0000
0000
0000
1000
0000
1000
,
0000
0000
1000
0000
0001
0100
0001
0000
1000
0000
0000
0000
0000
0000
1000
0000
,
0100
0010
0001
0100
0110
0000
1001
1000
,
0001
0010
1000
0010
0001
0001
1000
0010
,
0001
0000
0010
0000
1000
0000
1000
0000
0100
0010
0100
0000
1000
0000
0100
0000
,
0001
1000
0010
0001
0100
1000
0100
0001
,
1000
0100
1000
0100
1000
0000
0000
0000
0000
0000
0011
0000
0000
0000
0000
0000
,
0101
0000
1001
0000
0000
1100
0000
0000
,
1010
1001
0000
0000
0011
0000
0000
1001
,
0000
1010
0000
0000
0101
0000
2001
0000
,
3200
0000
0000
0310
0001
0000
0200
0000
0000
1300
0100
0000
0001
0000
0010
0000
,
0200
0000
0000
1300
0010
0000
0200
0000
0000
0310
1000
0000
0001
0000
1000
0000
,
0100
0001
0100
1000
0010
0001
0010
1010
,
0000
1001
0000
0000
0011
0000
0000
1001
0000
0000
0100
0010
0200
0000
0000
0000
,
0300
0000
0000
0000
;

//---------------dance-single - ----------------
#NOTES:
     dance-single:
     :
     Medium:
     10:
     0.469999,0.534078,0.305437,0.785409,0.008727,377.000000,342.000000,35.000000,90.000000,0.000000,0.000000,0.469999,0.534078,0.305437,0.785409,0.008727,377.000000,342.000000,35.000000,90.000000,0.000000,0.000000:
0000
0000
0000
0000
,
0000
0000
0000
0000
,
0000
0000
0000
0000
,
0000
0000
0000
2002
,
0000
3000
0000
0003
0000
0100
0100
0000
,
0000
0000
0000
1010
0000
0202
0000
0000
,
0300
0000
0003
0000
0000
2002
0000
3003
,
2200
0000
0000
3300
2002
0000
0000
0003
,
0000
3000
0000
0100
0100
0000
0000
0000
,
0000
0011
0000
2100
0000
0000
3001
0100
,
0001
0100
0001
2002
3003
0000
0220
0330
,
0000
0001
1000
0000
0000
1000
0000
0000
,
1000
0100
0001
0000
0000
0001
0000
0001
,
0100
1000
0000
0000
1000
0000
0000
1000
,
0010
0001
0000
0000
0001
0000
0001
0010
,
2000
0000
3100
0020
0000
0000
0130
1000
,
0002
0000
0103
0020
0000
0130
0001
0020
,
0000
0130
2000
0000
0000
3010
0100
0002
,
0000
1003
0200
0000
0310
0001
1000
0001
,
0100
0010
1000
0100
0000
1000
0000
0011
,
0000
1100
0000
0001
0100
0001
2000
3200
,
2300
3200
0320
0032
2003
0000
3002
0203
,
0302
0000
2003
0000
3020
1030
0100
0010
,
0001
0100
0000
0001
0000
1010
0000
0101
,
0000
1000
0100
1000
0000
0002
0203
0000
,
0320
0000
2030
0000
3200
0320
0032
0000
,
2003
3020
0000
1030
0001
0010
0001
1000
,
0001
0100
0000
0001
0100
1000
0000
1000
,
0100
0001
0020
0230
0320
0230
0320
0032
,
2003
0000
3020
0000
0230
0000
0302
0203
,
0320
1030
0001
0010
0001
1000
0001
0100
,
0000
1010
0000
1001
0000
1000
0100
0020
,
0000
0001
0032
0000
0103
0010
0020
0000
,
1000
2030
0000
3001
0010
0100
1000
0001
,
0100
0010
0100
0001
0000
0101
0000
1001
,
0000
0011
0000
1001
0000
1000
0010
0200
,
0000
0000
0301
0010
0001
0010
0200
0000
,
0310
0002
0000
0000
2003
0000
3010
1000
,
0001
0010
0001
1000
0000
1010
0000
1001
,
0000
1100
0000
0110
0000
0010
0002
0000
,
1000
2003
0000
0010
3020
0000
0230
0000
,
0001
0302
0000
0000
1003
0000
0001
1000
,
0100
0010
0100
1000
0000
1100
0000
1001
,
0000
1010
0000
1001
0000
0001
0010
0200
,
0000
0000
1300
0010
1000
0010
0200
0000
,
0310
2000
0000
0000
3002
0000
0013
0001
,
1000
0010
1000
0001
0000
0011
0000
1001
,
0000
0101
0000
0110
0000
0010
2000
0000
,
0001
3002
0000
0010
0023
0000
0230
0000
,
1000
2300
0000
0000
3001
0000
1000
0010
,
1000
0010
1000
0001
1000
0100
0000
0010
,
0001
0010
0001
1000
0001
0200
0000
0310
,
1000
0010
1000
0100
0010
0001
0000
0010
,
0001
0010
0001
0100
0010
2000
0000
3001
,
0100
0001
0000
1000
0100
1000
0000
0001
,
0010
0001
1000
0010
1000
0010
0200
0000
,
0010
0000
0010
0000
0310
2000
0002
0000
,
0000
0000
3003
1001
,
0000
0000
0000
0000
0000
0100
0000
0100
,
0000
1000
0001
1000
0001
0000
0000
1000
,
0100
1000
0100
0010
0001
0000
0110
0000
,
0001
0000
0100
0000
1000
0100
0001
0000
,
0010
0000
1000
0010
0001
0000
0100
0000
,
0010
1000
0100
0000
0001
0000
0100
1000
,
0010
0100
0001
0000
0000
0001
0000
0000
,
0100
0000
1000
0000
0000
1000
0000
0000
,
1000
0100
0000
0000
0001
0000
0000
0001
,
0000
0010
0000
0000
0100
0000
1001
0000
,
0002
0000
0103
0020
0000
0000
0130
0001
,
2000
0000
3100
0020
0000
0130
1000
0020
,
0000
0130
0002
0000
0000
0013
0100
1000
,
0000
1000
0000
0000
0001
0000
0000
0001
0000
0000
0100
0000
0020
0000
0000
0000
,
0030
0000
0000
0000
;

//---------------dance-single - ----------------
#NOTES:
     dance-single:
     :
     Easy:
     7:
     0.311670,0.376996,0.113448,0.366524,0.000000,250.000000,237.000000,13.000000,42.000000,0.000000,0.000000,0.311670,0.376996,0.113448,0.366524,0.000000,250.000000,237.000000,13.000000,42.000000,0.000000,0.000000:
0000
0000
0000
0000
,
0000
0000
0000
0000
,
0000
0000
0000
0000
,
0000
0000
0000
2002
,
0000
0000
0000
3003
0000
0000
0100
0000
,
0000
0000
0000
1010
0000
2020
0000
0000
,
0000
0000
3030
0000
0000
1001
0000
0000
,
0220
0330
2002
0000
,
0000
3003
0000
0000
0100
0000
0000
0000
,
0000
0011
0000
0012
0000
0000
1003
0000
,
1000
0000
1000
0002
0003
0000
0200
0300
,
0000
0010
1000
0000
0000
1000
0000
0000
,
1000
0000
0001
0000
0000
0001
0000
0010
,
0000
0001
0000
0000
0001
0000
0000
0001
,
0000
1000
0000
0000
1000
0000
0010
0000
,
1000
0100
0001
0001
,
0100
0000
1000
0000
0010
0000
1000
0001
,
0000
0100
0000
1000
0000
1000
0000
0100
,
0000
0001
0000
0010
0000
0001
1000
0000
,
0001
0000
0100
0000
0000
0100
0000
0010
,
0000
1000
0000
0001
0000
1000
0100
0000
,
0100
0010
0001
1000
,
0001
0100
0010
1000
,
0100
0000
0000
0100
0000
0010
0000
0001
,
0000
1000
0000
0001
0000
0001
0100
0000
,
0010
1000
0001
0010
,
0001
0001
1000
0010
,
1000
0100
0000
0001
0000
0100
0000
1000
,
0010
1000
0001
0010
,
1000
0010
0001
0100
,
0010
0000
1000
0000
0100
0000
0010
0001
,
0000
0100
0000
0100
0000
0010
1000
0020
,
0000
0000
2030
0000
0000
3001
0020
0000
,
0000
0032
0000
0000
1003
0000
0001
0000
,
0100
0000
1000
0000
0000
1000
0000
0100
,
0000
0001
0000
1000
0000
0100
0010
0200
,
0000
0310
0001
2000
,
0000
3020
0000
0000
0230
0000
0301
0000
,
0010
0000
1000
0000
0000
1000
0000
0010
,
0000
0001
0000
1000
0000
0001
0200
0000
,
0000
2300
0000
0000
3200
0000
0302
0000
,
0000
0023
0000
0000
0130
0000
1000
0000
,
0100
0000
0001
0000
0000
0001
0000
0100
,
0000
1000
0000
0001
0000
0100
0010
0200
,
0000
0310
1000
0002
,
0000
0023
0000
0000
0230
0000
1300
0000
,
0010
0000
0001
0000
0000
0001
0000
0010
,
0000
1000
0000
0001
0000
1000
0200
0000
,
0000
0302
0000
0000
0203
0000
2300
0000
,
0000
3020
0000
0000
0130
0000
0001
0000
,
0010
0000
0001
0000
0000
1000
0000
0000
,
0002
0000
0203
0000
0000
0302
0000
0000
,
1003
0000
0100
0000
0000
1000
0000
0000
,
0020
0000
2030
0000
0000
3002
0000
0000
,
1003
1000
0100
0100
,
0001
0010
1000
0200
,
0000
0000
0000
0000
0300
0010
0002
0000
,
0000
0000
0003
1001
,
0000
0000
0000
0000
0000
0100
0000
0100
,
0000
1001
1001
0000
,
0100
0100
1001
0110
,
0001
0001
0100
1000
,
1000
0100
0001
1000
,
0100
0100
0001
0100
,
1000
0000
0001
0000
0000
0001
0000
0000
,
0001
0000
0100
0000
0000
0100
0000
0000
,
0010
1000
0000
0000
1000
0000
0000
1000
,
0000
0100
0000
0000
0100
0000
0010
0000
,
0001
0100
1000
1000
,
0100
0000
0001
0000
0010
0000
0001
1000
,
0000
0100
0000
0001
0000
0001
0000
0100
,
0000
1000
0000
0010
0000
1000
0002
0000
,
0003
0000
0000
0000
;

//---------------dance-single - ----------------
#NOTES:
     dance-single:
     :
     Beginner:
     2:
     0.099734,0.157082,0.078541,0.200716,0.000000,80.000000,71.000000,9.000000,23.000000,0.000000,0.000000,0.099734,0.157082,0.078541,0.200716,0.000000,80.000000,71.000000,9.000000,23.000000,0.000000,0.000000:
0000
0000
0000
0000
,
0000
0000
0000
0000
,
0000
0000
0000
0000
,
0000
0000
0000
2002
,
0000
0000
0000
3003
,
0000
0000
0000
0000
0000
0220
0000
0000
,
0000
0000
0000
0000
0000
0330
0000
0000
,
0000
0000
2002
0000
,
0000
0000
3003
0000
,
0000
0000
0000
0220
0000
0000
0000
0000
,
0000
0000
0000
0330
0000
0000
0000
0000
,
0000
1000
0000
0000
,
0000
0001
0000
0000
,
0000
0001
0000
0000
0000
0000
0000
0000
,
0000
1000
0000
0000
0000
0000
0000
0000
,
0100
0000
0000
0000
,
0010
0000
0000
0000
0000
0000
0000
0100
,
0000
0000
0000
0000
0000
0000
0000
0010
,
0000
0000
0000
0001
,
0000
0000
0000
0000
0000
0100
0000
0000
,
0000
0000
0000
0000
0000
0001
0000
0000
,
0000
0000
1000
0000
,
0000
0000
1000
0000
,
0000
0000
0000
0100
0000
0000
0000
0000
,
0000
0000
0000
1000
0000
0000
0000
0000
,
0000
0010
0000
0000
,
0000
1000
0000
0000
,
0000
0001
0000
0000
0000
0000
0000
0000
,
0000
0010
0000
0000
,
0000
0001
0000
0000
,
1000
0000
0000
0000
0000
0000
0000
0010
,
0000
0000
0000
0000
0000
0000
0000
0220
,
0000
0330
0000
2002
,
0000
3003
0000
0000
0000
0000
1000
0000
,
0000
0000
0000
0000
0000
0100
0000
0000
,
0000
0000
0000
0010
,
0000
0000
0000
0002
,
0000
0000
0003
1000
,
0000
0000
0000
0000
0000
0001
0000
0000
,
0000
0000
0000
0200
,
0000
0000
0300
2002
,
0000
0000
3003
0001
,
0000
0000
0000
0000
0000
0100
0000
0000
,
0000
0000
0000
0010
,
0000
0000
0000
2000
,
0000
0000
3000
0001
,
0000
0000
0000
0000
0000
1000
0000
0000
,
0000
0000
0000
0200
,
0000
0000
0300
2002
,
0000
0000
3003
0001
,
0000
0000
0000
0000
0000
0100
0000
0000
,
0000
0000
0000
0000
0000
1000
0000
0000
,
0000
0000
0000
0000
0000
0010
0000
0000
,
0000
0000
0000
0000
0000
0001
0000
0000
,
0000
1000
0000
0000
0000
0001
0000
0000
,
0000
0100
0000
0200
,
0000
0300
0000
0020
,
0000
0030
0000
1001
,
0000
0000
0000
0000
,
0000
0000
1000
0000
,
0000
0000
0001
0000
,
0001
0000
0100
0000
,
0000
0010
0000
0010
,
0000
0000
1000
0000
,
0000
0001
0000
0000
,
0000
0001
0000
0000
,
0000
1000
0000
0000
0000
0000
0000
0000
,
0000
1000
0000
0000
0000
0000
0000
0000
,
0100
0000
0000
0000
,
0010
0000
0000
0000
0000
0000
0000
0100
,
0000
0000
0000
0000
0000
0000
0000
0010
,
0000
0000
0000
0002
,
0003
0000
0000
0000
;
