#TITLE:Shine Forever;
#SUBTITLE:;
#ARTIST:Lilibeth;
#TITLETRANSLIT:;
#SUBTITLETRANSLIT:;
#ARTISTTRANSLIT:;
#GENRE:Eurobeat;
#CREDIT:;
#BANNER:Shine Forever.png;
#BACKGROUND:Shine Forever-bg.png;
#LYRICSPATH:;
#CDTITLE:cdtitle.png;
#MUSIC:Shine Forever.ogg;
#OFFSET:-0.057971;
#SAMPLESTART:64.316032;
#SAMPLELENGTH:12.387096;
#SELECTABLE:YES;
#BPMS:0.000000=155.000000
;
#STOPS:
;
#BGCHANGES:;
#KEYSOUNDS:;
#ATTACKS:;

//---------------dance-single - ----------------
#NOTES:
     dance-single:
     :
     Challenge:
     12:
     0.596726,0.676042,0.218750,0.395833,0.229167,401.000000,380.000000,21.000000,38.000000,0.000000,2.000000,0.596726,0.676042,0.218750,0.395833,0.229167,401.000000,380.000000,21.000000,38.000000,0.000000,2.000000:
// measure 0
0000
0000
0000
0000
,  // measure 1
0000
0000
0000
0000
,  // measure 2
0000
0000
0000
0000
,  // measure 3
0000
0000
0000
0000
,  // measure 4
0001
0100
0010
1000
0010
0100
0001
1000
,  // measure 5
0001
0010
0100
1000
0100
0010
0001
1000
,  // measure 6
0010
0100
0001
0010
0100
1000
0010
0100
,  // measure 7
0010
1000
0100
0010
0011
0000
0100
0000
,  // measure 8
2002
0000
0000
0010
0000
0000
0000
0000
,  // measure 9
3003
0000
0000
0000
,  // measure 10
1000
0000
0010
1000
0000
0000
0001
0000
0010
0000
0001
1000
0000
0000
0001
0000
,  // measure 11
0100
0000
0001
1000
0000
0000
0001
0000
0100
0000
1000
0000
0100
0000
0010
0000
,  // measure 12
1000
0000
0001
0010
0000
0001
0010
0000
0100
0000
1000
0010
0000
1000
0010
0000
,  // measure 13
0100
0000
0001
1000
0000
0001
1000
0000
0100
0000
0010
0001
0000
1000
0001
1000
,  // measure 14
0001
0000
0100
0001
0000
0000
1000
0000
0010
0000
1000
0001
0000
0000
1000
0000
,  // measure 15
0100
0000
0010
0001
0000
0000
1000
0000
0010
0000
0001
0000
0010
0000
1000
0000
,  // measure 16
0100
0000
1000
0001
0000
0000
1000
0000
0001
0000
0010
0000
1000
0000
0010
0000
,  // measure 17
0001
0000
1000
0001
0000
0100
0010
0100
0020
0000
0000
0000
0000
0000
0000
0000
,  // measure 18
1030
0010
0100
0010
1000
0001
0010
0001
,  // measure 19
0100
0010
0100
0010
1000
0100
0010
0001
,  // measure 20
1000
0001
0010
0001
0100
1000
0100
0001
,  // measure 21
0010
0100
0010
0100
1000
0100
0010
0001
,  // measure 22
0100
0010
1000
0001
0010
0001
0100
0010
,  // measure 23
1000
0001
1000
0001
1000
0100
0001
0100
,  // measure 24
1000
0010
1000
0100
0010
0001
0100
0010
,  // measure 25
1000
0000
1000
0000
0001
0000
0100
0000
0110
0000
0000
0101
0000
0000
1001
0000
,  // measure 26
1002
0000
1000
0000
1003
0001
0010
0001
,  // measure 27
0100
0010
0100
1000
0100
0010
0100
0001
,  // measure 28
1000
0001
1000
0100
0010
0001
0100
0010
,  // measure 29
1000
0001
0010
0001
0101
0000
1010
0000
,  // measure 30
2001
0000
0001
0000
3001
1000
0001
1000
,  // measure 31
0010
0100
0001
0010
0001
0100
0010
1000
,  // measure 32
0010
0100
0010
0001
0010
0100
0010
1000
,  // measure 33
0100
0010
0001
1000
1001
0000
0000
0000
,  // measure 34
2001
0000
3100
0020
0001
0000
0031
0010
,  // measure 35
1000
0010
0002
0000
0203
0000
0320
0000
,  // measure 36
2030
0000
3001
1000
0000
1100
0000
0021
,  // measure 37
0000
0000
0031
0000
0100
0000
0010
0000
1000
0000
0001
0010
0001
0010
0001
0000
,  // measure 38
1000
0010
0100
0001
0000
0011
0000
1200
,  // measure 39
0000
1300
0001
0000
0200
0000
0320
0000
,  // measure 40
2030
0000
3100
0020
0000
0032
0000
2003
,  // measure 41
0000
3001
0100
0010
1000
0100
0010
0001
,  // measure 42
1002
0000
0103
0020
1000
0000
1030
0010
,  // measure 43
0001
0010
2000
0000
3200
0000
0320
0000
,  // measure 44
0032
0000
1003
0010
0000
1010
0000
0201
,  // measure 45
0000
0000
0301
0000
1000
0000
0100
0000
0010
0000
0001
1000
0000
0010
0100
0010
,  // measure 46
0100
0010
1000
0001
0000
0011
0000
1200
,  // measure 47
0000
1300
0001
0000
0200
0000
0320
0000
,  // measure 48
2030
0000
3001
0020
0000
0230
0000
2300
,  // measure 49
0000
3001
0100
0010
0220
0000
0330
0000
,  // measure 50
0100
0000
0001
1000
0000
0000
0001
0000
0010
0000
0001
1000
0000
0000
0001
0000
,  // measure 51
0100
0000
0010
1000
0000
0000
0100
0000
0001
0000
0100
0000
1000
0000
0010
0000
,  // measure 52
1000
0000
0001
0010
0000
0001
0010
0000
0100
0000
1000
0010
0000
1000
0010
0000
,  // measure 53
0100
0000
0001
1000
0000
0001
1000
0000
0010
0000
0100
0001
0000
1000
0100
1000
,  // measure 54
0100
0000
1000
0001
0000
0000
1000
0000
0010
0000
1000
0001
0000
0000
0010
0000
,  // measure 55
0100
0000
0010
0001
0000
0000
0100
0000
1000
0000
0100
0000
0001
0000
0010
0000
,  // measure 56
0100
0000
1000
0001
0000
0000
1000
0000
0010
0000
0001
0000
0010
0000
1000
0000
,  // measure 57
0100
0000
0010
0001
0000
1000
0010
1000
0020
0000
0000
0000
0230
0000
0000
0000
,  // measure 58
0002
0000
0000
0010
0000
0000
0000
0000
,  // measure 59
0303
0000
0000
0000
;

//---------------dance-single - ----------------
#NOTES:
     dance-single:
     :
     Hard:
     10:
     0.416667,0.460938,0.125000,0.531250,0.135417,280.000000,268.000000,12.000000,51.000000,0.000000,0.000000,0.416667,0.460938,0.125000,0.531250,0.135417,280.000000,268.000000,12.000000,51.000000,0.000000,0.000000:
0000
0000
0000
0000
,
0000
0000
0000
0000
,
0000
0000
0000
0000
,
0000
0000
0000
0000
,
0001
0000
1000
0001
1000
0000
0001
0000
,
1000
0000
0001
1000
0001
0000
1000
0000
,
0010
0000
0100
0010
0100
0000
0010
0000
,
0100
0000
0010
0100
0001
0000
1000
0000
,
2002
0000
0000
0000
,
3003
0000
0000
0000
,
0001
0000
0000
0100
0000
0000
0001
0000
1000
0000
0000
0010
0000
0000
1000
0000
,
0001
0000
0000
0010
0000
0000
0001
0000
0010
0000
0100
0000
1000
0000
0001
0000
,
1000
0000
0000
0010
0000
0000
1000
0000
0001
0000
0000
0100
0000
0000
0001
0000
,
1000
0000
0000
0100
0000
0000
1000
0000
0010
0000
0000
0010
0000
0000
0010
0000
,
1000
0000
0000
0100
0000
0000
1000
0000
0001
0000
0000
0100
0000
0000
0010
0000
,
1000
0000
0000
0001
0000
0000
1000
0000
0001
0000
0010
0000
0100
0000
1000
0000
,
0001
0000
0000
0100
0000
0000
0001
0000
1000
0000
0010
0000
0100
0000
0001
0000
,
0010
0000
0000
0001
0000
0000
1000
0000
0020
0000
0000
0000
0000
0000
0000
0000
,
1030
0000
0001
2000
0000
3200
0000
0320
,
0000
0001
0000
0031
0010
0001
0100
0020
,
0000
2030
0000
3002
0000
0023
0000
0230
,
0000
1000
0000
1300
0100
0010
0001
2000
,
0000
3002
0000
0203
0000
0302
0000
2003
,
0000
0001
0000
3001
1000
0010
1000
0002
,
0000
2003
0000
3200
0000
0320
0000
0031
,
1000
0000
0001
0000
1000
0000
0000
0000
0100
0000
0000
0100
0000
0000
1000
0000
,
0002
0000
0100
0000
0103
0010
1000
0002
,
0000
0023
0000
0230
0000
2300
0000
3020
,
0000
0000
0130
0020
0000
0230
0000
0302
,
0000
1003
0000
0001
2000
0000
3002
0000
,
2003
0000
0100
0000
3100
0000
1000
0001
,
0100
0010
1000
0002
0000
0013
0100
2000
,
0000
3200
0000
0302
0000
0203
0000
2300
,
0000
3001
1001
0000
,
2001
0000
3100
0020
0000
0000
0031
0200
,
0000
0310
1000
0001
,
1000
0000
0100
0010
0000
0110
0000
1002
,
0000
0000
1003
0000
0001
0100
0010
1000
,
0001
0010
0100
1000
0000
1010
0000
0102
,
0000
0103
0001
0010
,
0100
0000
0010
0001
0000
1000
0000
0001
,
0000
0001
0000
0001
1000
0000
0010
0000
,
1002
0000
0103
0020
0000
0000
1030
0200
,
0000
0310
0001
1000
,
0001
0000
0100
0010
0000
0110
0000
1002
,
0000
0000
0000
0000
1003
0000
0000
0000
0100
0000
0000
0010
0000
0000
0100
0000
,
1000
0010
0100
0001
0000
0011
0000
2100
,
0000
3001
1000
0010
,
0100
0000
0001
1000
0000
0100
0000
0010
,
0000
0010
0000
0010
0002
0000
0003
0000
,
1000
0000
0000
0010
0000
0000
1000
0000
0001
0000
0000
0010
0000
0000
0001
0000
,
1000
0000
0000
0100
0000
0000
1000
0000
0001
0000
0100
0000
0010
0000
1000
0000
,
0001
0000
0000
0010
0000
0000
0001
0000
1000
0000
0000
0010
0000
0000
1000
0000
,
0001
0000
0000
0100
0000
0000
0001
0000
0010
0000
0000
0010
0000
0000
0010
0000
,
0001
0000
0000
1000
0000
0000
0001
0000
0100
0000
0000
0010
0000
0000
1000
0000
,
0100
0000
0000
0010
0000
0000
0100
0000
1000
0000
0001
0000
0100
0000
0010
0000
,
1000
0000
0000
0001
0000
0000
1000
0000
0100
0000
0010
0000
0001
0000
0100
0000
,
0010
0000
0000
1000
0000
0000
0001
0000
0010
0000
0000
0000
0002
0000
0000
0000
,
2000
0000
0000
0000
,
3003
0000
0000
0000
;

//---------------dance-single - ----------------
#NOTES:
     dance-single:
     :
     Medium:
     8:
     0.376488,0.430208,0.135417,0.156250,0.005208,253.000000,240.000000,13.000000,15.000000,0.000000,0.000000,0.376488,0.430208,0.135417,0.156250,0.005208,253.000000,240.000000,13.000000,15.000000,0.000000,0.000000:
0000
0000
0000
0000
,
0000
0000
0000
0000
,
0000
0000
0000
0000
,
0000
0000
0000
0000
,
0001
0100
0010
1000
,
0001
0100
0010
1000
,
0001
0010
0100
1000
,
0001
0010
1001
0100
,
2002
0000
0000
0000
,
3003
0000
0000
0000
,
1000
1000
0001
0001
,
0010
0000
0010
0000
0001
0010
0100
1000
,
0001
0001
1000
1000
,
0010
0000
0010
0000
1000
0010
0100
0001
,
1000
1000
0100
0100
,
0010
0000
0010
0000
0001
1000
0010
0100
,
0001
0000
0001
0000
0010
0001
0010
0100
,
1000
1000
2002
3003
,
0001
0100
0001
0010
,
0001
0000
0100
0000
0010
0100
0001
0010
,
0100
1000
0010
1000
,
0100
0000
0010
0000
0100
1000
0010
0100
,
0001
1000
0100
0001
,
0100
0000
1000
0000
0001
0100
0001
1000
,
0001
0010
1000
0010
,
0001
0000
1000
0000
0001
0000
0000
0000
1000
0000
0000
1000
0000
0000
0001
0000
,
0002
1000
1003
0001
,
0010
1000
0100
0001
,
0010
0001
1000
0010
,
1000
0010
0100
0001
1000
0000
0100
0000
,
0020
0001
0031
0010
,
0001
0100
1000
0010
,
0001
0100
0010
1000
,
0001
1000
0001
0000
1001
0000
0000
0000
,
1001
0000
0001
0010
0000
0100
0000
2001
,
0000
3010
1000
0001
,
0010
0000
0001
1000
0000
0010
0000
0210
,
0000
0000
0301
0000
0001
0100
0010
1000
,
0001
0000
1000
0100
0000
0010
0000
1002
,
0000
1003
0001
0100
,
0010
0000
0100
0001
0000
1000
0000
0100
,
0000
0100
0000
0100
0010
0000
0100
0000
,
1001
0000
1000
0010
0000
0100
0000
1002
,
0000
0013
0001
1000
,
0010
0000
0100
0001
0000
1000
0000
1200
,
0000
0000
0310
0000
0010
0100
1000
0001
,
0100
0000
0010
1000
0000
0001
0000
2001
,
0000
3001
1000
0100
,
0010
0000
0001
1000
0000
0010
0000
0100
,
0000
0100
0000
0100
0002
0000
0003
0000
,
1000
1000
0001
0001
,
0010
0000
0010
0000
0100
1000
0010
0100
,
0001
0001
1000
1000
,
0010
0000
0010
0000
0100
0001
0010
0100
,
1000
1000
0010
0010
,
0100
0000
0100
0000
0001
0010
0001
1000
,
0010
0000
0010
0000
1000
0010
0100
0001
,
1000
0001
1001
2000
,
0002
0000
0000
0000
,
3003
0000
0000
0000
;

//---------------dance-single - ----------------
#NOTES:
     dance-single:
     :
     Easy:
     5:
     0.251488,0.276563,0.083333,0.250000,0.000000,169.000000,161.000000,8.000000,24.000000,0.000000,0.000000,0.251488,0.276563,0.083333,0.250000,0.000000,169.000000,161.000000,8.000000,24.000000,0.000000,0.000000:
0000
0000
0000
0000
,
0000
0000
0000
0000
,
0000
0000
0000
0000
,
0000
0000
0000
0000
,
1000
0000
0100
0000
,
1000
0000
0100
0000
,
0010
0000
0001
0000
,
0010
0000
0001
1000
,
2002
0000
0000
0000
,
3003
0000
0000
0000
,
1000
0000
0001
0000
,
0010
0000
0001
0100
,
0010
0000
1000
0000
,
0001
0000
0010
0001
,
0100
0000
0010
0000
,
1000
0000
0100
0010
,
0001
0000
0100
0010
,
1000
0001
1001
0000
,
0001
0100
0010
1000
,
0002
0003
1000
0100
,
0010
0001
0100
0010
,
2000
3000
0001
1000
,
0010
1000
0100
0010
,
0002
0003
1000
0001
,
0100
0010
1000
0001
,
0020
0030
0001
1000
,
2002
3003
1000
0001
,
0010
0001
0100
0010
,
2000
3000
0001
1000
,
0020
0030
1000
0100
,
0020
0030
0010
0001
,
0100
0010
1000
0001
,
0010
0001
0100
0001
,
2000
3000
1001
0000
,
2001
0000
0002
3003
,
1000
0001
0010
0100
,
1000
0001
1000
0010
,
0200
0000
0301
0001
,
1000
0010
1000
0100
,
0020
0030
0001
0100
,
0010
1000
0001
1000
,
0200
0300
1000
0001
,
2001
0000
0002
3003
,
0001
1000
0010
0100
,
0001
1000
0100
0010
,
0002
0000
0013
0010
,
0001
1000
0010
1000
,
0002
0003
0100
0001
,
1000
0100
1000
0010
,
0200
0300
1001
0000
,
1000
0000
0001
0000
,
0010
0000
0100
1000
,
0010
0000
1000
0000
,
0100
0000
0010
0001
,
0100
0000
0010
0000
,
1000
0000
0001
0010
,
0100
0000
1000
0010
,
0100
0001
0100
0010
,
2002
0000
0000
0000
,
3003
0000
0000
0000
;

//---------------dance-single - ----------------
#NOTES:
     dance-single:
     :
     Beginner:
     2:
     0.144345,0.245833,0.052083,0.145833,0.000000,97.000000,92.000000,5.000000,14.000000,0.000000,0.000000,0.144345,0.245833,0.052083,0.145833,0.000000,97.000000,92.000000,5.000000,14.000000,0.000000,0.000000:
0000
0000
0000
0000
,
0000
0000
0000
0000
,
0000
0000
0000
0000
,
0000
0000
0000
0000
,
1000
0000
0000
0000
,
0100
0000
0000
0000
,
0010
0000
0000
0000
,
0001
0000
0100
0000
,
2002
0000
0000
0000
,
3003
0000
0000
0000
,
1000
0000
1000
0000
,
1000
0000
0001
0001
,
0001
0000
0001
0000
,
0001
0000
0100
0100
,
0100
0000
0100
0000
,
0100
0000
0010
0010
,
0010
0000
1000
1000
,
1000
0000
1001
0000
,
0001
0000
0000
0000
,
1000
0000
0000
0000
,
0100
0000
0000
0000
,
0010
0000
0000
0000
,
0001
0000
0000
0000
,
0100
0000
0000
0000
,
0010
0000
0000
0000
,
1000
0000
1000
0000
,
0002
0000
0003
0000
,
1000
0000
0010
0000
,
1000
0000
0010
0000
,
0100
0000
0000
0000
,
0002
0000
0003
0000
,
0010
0000
0001
0000
,
0010
0000
0001
0000
,
0100
0000
0000
0000
,
2002
0000
0000
0000
,
3003
0000
0001
0000
,
0010
0000
0100
0000
,
2000
0000
3000
0000
,
1000
0000
0010
0000
,
0200
0000
0300
0000
,
0001
0000
1000
0000
,
0100
0000
0010
0000
,
2002
0000
0000
0000
,
3003
0000
1000
0000
,
0010
0000
0100
0000
,
0002
0000
0003
0000
,
0001
0000
0010
0000
,
0200
0000
0300
0000
,
1000
0000
0010
0000
,
0100
0000
0001
0000
,
0001
0000
0001
0000
,
0001
0000
1000
1000
,
1000
0000
1000
0000
,
1000
0000
0100
0100
,
0100
0000
0100
0000
,
0100
0000
0010
0010
,
0010
0000
0001
0001
,
0001
0000
1000
0000
,
2002
0000
0000
0000
,
3003
0000
0000
0000
;
