#VERSION:0.83;
#TITLE:Shark (Fistfight Mix);
#SUBTITLE:;
#ARTIST:Boyinaband + Andrew Huang;
#TITLETRANSLIT:;
#SUBTITLETRANSLIT:;
#ARTISTTRANSLIT:;
#GENRE:Electro Rap;
#ORIGIN:;
#CREDIT:;
#BANNER:Shark (Fistfight Mix).png;
#BACKGROUND:Shark (Fistfight Mix)-bg.png;
#PREVIEWVID:;
#JACKET:Shark (Fistfight Mix)-jacket.png;
#CDIMAGE:;
#DISCIMAGE:;
#LYRICSPATH:;
#CDTITLE:cdtitle.png;
#MUSIC:Shark (Fistfight Mix).ogg;
#OFFSET:-0.042368;
#SAMPLESTART:36.038036;
#SAMPLELENGTH:14.398201;
#SELECTABLE:YES;
#BPMS:0.000=133.350;
#STOPS:76.000=1.350;
#DELAYS:;
#WARPS:;
#TIMESIGNATURES:0.000=4=4;
#TICKCOUNTS:0.000=4;
#COMBOS:0.000=1;
#SPEEDS:0.000=1.000=0.000=0;
#SCROLLS:0.000=1.000;
#FAKES:;
#LABELS:0.000=Song Start;
#BGCHANGES:;
#KEYSOUNDS:;
#ATTACKS:
;

//---------------dance-single - ----------------
#NOTEDATA:;
#CHARTNAME:;
#STEPSTYPE:dance-single;
#DESCRIPTION:;
#CHARTSTYLE:;
#DIFFICULTY:Challenge;
#METER:15;
#RADARVALUES:0.650127,0.704424,0.185121,0.131127,0.578503,590.000000,566.000000,24.000000,17.000000,0.000000,0.000000,0.000000,0.000000,0.000000,0.650127,0.704424,0.185121,0.131127,0.578503,590.000000,566.000000,24.000000,17.000000,0.000000,0.000000,0.000000,0.000000,0.000000;
#CREDIT:;
#NOTES:
// measure 0
0000
0000
0000
0000
,  // measure 1
0000
0000
0000
0000
,  // measure 2
0000
0000
0000
0000
,  // measure 3
0000
0000
0000
0000
0000
0000
0000
0001
,  // measure 4
1001
0000
0000
0000
0000
0000
0001
0100
0010
0000
1000
0100
0010
0000
0001
0000
,  // measure 5
0000
0000
0001
0010
0001
0010
0100
1000
0001
0000
0001
0000
0100
0000
0010
0000
,  // measure 6
0000
0000
1000
0010
1000
0000
0001
0000
0010
0001
0010
0100
1000
0000
0001
0000
,  // measure 7
0201
0000
0000
0310
1000
0000
0100
0000
1200
0000
0000
0310
0001
0000
0100
0000
,  // measure 8
0010
0000
0000
0000
1000
0000
0010
0000
0100
0001
0000
0001
1000
0000
0100
0010
,  // measure 9
0001
0000
0100
0010
0000
1000
0001
0000
0010
0000
0000
0010
0100
0000
1000
0000
,  // measure 10
0001
0000
0100
0010
0100
0001
0100
0001
1000
0010
0100
0010
1000
0000
0001
0000
,  // measure 11
0021
0000
0000
0130
1000
0000
0010
0000
1020
0000
0000
0130
0001
0000
0010
0000
,  // measure 12
0001
0000
0100
0010
1000
0000
0001
0000
1000
0000
0100
0010
0001
0000
1000
0000
,  // measure 13
0001
0000
1000
0001
0100
0000
0010
0000
1000
0000
0010
1000
0001
0000
0010
0000
,  // measure 14
0100
0000
0010
0001
1000
0001
1000
0010
0100
0000
0001
0000
0100
0000
0010
1000
,  // measure 15
0001
1000
0100
0000
0010
0000
0100
1000
0001
0000
0100
0000
0010
0000
1000
0000
,  // measure 16
0001
0000
0010
0000
0001
0000
0010
0000
0010
0001
0100
0000
0010
0000
1000
0000
,  // measure 17
0010
0000
1000
0000
1000
0000
0010
0000
0010
1000
0100
0010
0001
0000
0010
0000
,  // measure 18
0001
0000
0100
0000
0100
0010
1000
0000
0010
1000
0001
0100
0001
1000
0100
0010
,  // measure 19
0001
0000
0000
0000
1001
0000
0000
0000
1000
0000
0100
0000
0010
0001
0000
0001
,  // measure 20
1000
0001
0010
0001
0200
0000
0300
0010
1000
0000
0000
1000
0100
0000
0000
0100
,  // measure 21
0010
0000
0001
0000
1001
0000
0000
0000
1000
0000
1000
0000
0010
0100
0000
0000
,  // measure 22
0010
0100
0001
1000
0100
0000
0100
1000
0001
0000
0001
0100
1000
0000
1000
0100
,  // measure 23
0001
0000
0000
0000
0000
0000
0010
0000
0000
0000
0000
0000
0011
0000
0000
0000
0000
0000
0000
0000
0000
0000
0000
0000
0001
0000
0000
0000
0000
0000
1000
0000
0000
0000
0000
0000
0010
0000
0000
0100
0000
0000
0010
0000
0100
0000
0010
0000
,  // measure 24
0100
0010
1000
0001
0010
0000
0010
0001
1000
0000
1000
0010
0001
0000
0001
0010
,  // measure 25
1000
0000
0100
0000
1100
0000
0000
0000
1000
0000
1000
0000
0001
0010
0000
0100
,  // measure 26
1000
0000
0001
1000
0100
0000
0100
1000
0001
0000
0001
0100
1000
0000
1000
0100
,  // measure 27
0001
0000
0010
0000
0011
0000
0000
0000
0001
0010
0001
0000
0100
0000
0010
1000
,  // measure 28
0000
1000
0100
0010
0001
0000
0000
0001
0100
0000
0000
0100
0010
0000
0000
0010
,  // measure 29
1000
0000
0001
0000
1000
0000
0100
0010
0000
0100
0010
0000
0001
0000
1000
0010
,  // measure 30
0000
1000
0010
0000
0100
0000
0000
0100
0001
0000
0000
0001
1000
0000
0000
0000
,  // measure 31
0110
0000
0000
0000
1001
0000
0000
0000
1000
0010
1000
0000
0001
0000
1000
0100
,  // measure 32
0000
0100
0010
0001
1000
0000
0000
1000
0010
0000
0000
0010
0001
0000
0000
0001
,  // measure 33
0010
0000
1000
0000
0100
0000
0010
0001
0000
1000
0010
0000
0100
0000
0001
1000
,  // measure 34
0000
0100
0010
0000
0001
0000
1000
0000
0001
0100
0000
0100
0000
0010
1000
0000
,  // measure 35
0001
0010
0000
0010
0000
0000
0001
0000
0010
0000
0001
0000
0100
0000
0010
0000
,  // measure 36
1000
0000
1000
0010
0100
0001
0020
0000
,  // measure 37
0031
1000
0000
1000
0010
1000
0100
0010
,  // measure 38
0001
0000
0001
0010
0100
1000
0020
0000
,  // measure 39
1030
0100
0000
0100
0010
0001
0100
0010
,  // measure 40
1000
0000
1000
0010
0100
0001
0020
0000
,  // measure 41
0031
1000
0001
0100
0010
1000
0100
0010
,  // measure 42
0001
1000
0001
0100
1000
0100
0002
0000
,  // measure 43
0103
0000
0010
0000
1000
0000
0001
0000
0010
0000
0001
0000
0100
0000
0010
1000
,  // measure 44
0010
0000
0100
0000
0001
0000
0010
0001
0010
0000
0100
0000
2000
0000
0000
0000
,  // measure 45
3001
0000
1000
0000
0001
0000
1000
0000
0010
0000
1000
0000
0100
0000
0010
0001
,  // measure 46
0010
0000
0100
0000
1000
0000
0010
1000
0010
0000
0100
0000
0002
0000
0000
0000
,  // measure 47
1003
0000
0001
0000
1000
0000
0100
0000
0010
0000
0001
0000
0100
0000
0010
1000
,  // measure 48
0001
0000
1000
0000
0100
0000
0010
0001
1000
0000
0001
0000
0200
0000
0010
0000
,  // measure 49
0310
0000
1000
0000
0001
0100
0001
0100
0010
1000
0010
1000
0001
0010
0001
0010
,  // measure 50
0100
1000
0100
1000
0001
0000
0000
1000
0000
0000
0200
0000
0000
0000
0000
0000
,  // measure 51
0300
2002
0000
0000
,  // measure 52
3003
0000
0000
0000
0001
0000
0000
1000
0010
0000
0000
0100
0001
0000
0001
0000
,  // measure 53
1000
0001
1000
0000
1001
0000
0000
0001
1000
0000
0010
0000
0100
0000
0010
0000
,  // measure 54
1000
0000
0001
0010
0100
0000
0100
0010
0001
0000
0001
0100
1000
0000
1000
0100
,  // measure 55
0001
0000
0010
0000
0011
0000
0000
0001
1000
0000
0010
0000
0100
0000
0010
0000
,  // measure 56
1000
0000
0100
0000
0110
0000
0000
0000
0011
0000
0000
0001
0100
0000
0000
1000
,  // measure 57
0100
0000
0000
0001
0100
0000
0000
0100
0010
0000
1000
0000
0010
0000
0100
0000
,  // measure 58
0001
0000
1000
0100
0010
0000
0010
0100
1000
0000
1000
0010
0001
0000
0001
0010
,  // measure 59
1000
0100
1100
0000
0001
0010
0100
0010
,  // measure 60
0001
0000
0100
0000
0110
0000
0000
0010
1000
0000
0000
1000
0100
0000
0000
0100
,  // measure 61
0010
0000
0000
0000
0001
0000
0000
0000
1001
0000
0000
0000
0000
0000
0001
0000
0100
0000
0010
0000
0000
1000
0000
0000
0000
0000
0010
0000
0000
1000
0000
0000
,  // measure 62
0001
0000
1000
0010
0100
0000
0100
0010
1000
0000
1000
0100
0001
0000
0001
0100
,  // measure 63
1000
0000
0010
0000
1010
0000
0000
0010
1000
0000
0001
0000
0010
0000
0001
0000
,  // measure 64
1000
0000
0010
0000
0110
0000
0000
0000
1001
0000
0000
1000
0100
0000
0000
0001
,  // measure 65
0100
0000
0000
1000
0100
0000
0000
0100
0010
0000
0001
0000
1000
0000
0001
0000
,  // measure 66
0010
0000
0001
1000
0010
0000
0010
1000
0001
0000
0001
0010
1000
0000
1000
0010
,  // measure 67
0001
0100
0220
0000
0000
0000
0000
0000
,  // measure 68
0000
0000
0000
0000
,  // measure 69
0000
0000
0000
0000
,  // measure 70
0000
0330
0000
0000
;

//---------------dance-single - ----------------
#NOTEDATA:;
#CHARTNAME:;
#STEPSTYPE:dance-single;
#DESCRIPTION:;
#CHARTSTYLE:;
#DIFFICULTY:Hard;
#METER:12;
#RADARVALUES:0.523407,0.514771,0.061707,0.138841,0.208261,475.000000,467.000000,8.000000,18.000000,0.000000,0.000000,0.000000,0.000000,0.000000,0.523407,0.514771,0.061707,0.138841,0.208261,475.000000,467.000000,8.000000,18.000000,0.000000,0.000000,0.000000,0.000000,0.000000;
#CREDIT:;
#NOTES:
0000
0000
0000
0000
,
0000
0000
0000
0000
,
0000
0000
0000
0000
,
0000
0000
0000
0000
0000
0000
0000
1000
,
0001
0000
0000
0001
0100
1000
0100
0001
,
0000
0001
1000
0001
0010
1000
0010
0001
,
0000
0001
0100
0001
0010
1000
0001
0100
,
2000
0000
0000
3100
0010
0000
0001
0000
0200
0000
0000
0301
0100
0000
0010
0000
,
1000
0000
0000
0000
0010
0000
1000
0000
0100
0010
0000
0100
0010
0000
0001
0000
,
0100
0000
0010
1000
0000
0010
1000
0000
0001
0000
0000
0001
0010
0000
0100
0000
,
1000
0010
0100
0010
0001
0010
1000
0100
,
0020
0000
0000
0130
0010
0000
0001
0000
0200
0000
0000
0310
1000
0000
0001
0000
,
1000
0000
0100
0010
0100
0000
1000
0000
0001
0000
0000
0001
0100
0000
0010
0000
,
1000
0000
0001
1000
0001
0000
0010
0000
0100
0000
0000
0100
0010
0000
0001
0000
,
0100
0010
1000
0100
0001
0100
1000
0010
,
0001
0010
1000
0100
0010
0001
0100
0010
,
1000
0000
0000
0000
0010
0000
1000
0000
0001
1000
0001
0000
1000
0000
0001
0000
,
0000
0000
1000
0000
0100
0000
0010
0000
0001
1000
0001
0000
0100
0000
0010
0000
,
0000
0000
0100
0000
0001
1000
0001
0000
0010
0000
0001
0000
0100
0000
0010
0000
,
1000
0000
0000
0000
1001
0000
0000
0000
1000
0000
0100
0000
0010
0001
0000
0010
,
0001
0000
1000
0000
0001
0000
0000
0001
0100
0000
0000
0100
0010
0000
0000
0010
,
1000
0001
1000
0000
0100
0010
0001
0000
,
0010
0001
0100
1000
0100
0001
0100
1000
,
0100
0000
0001
0000
0010
0000
0000
0000
0001
0000
1000
0000
0100
0010
0100
0010
,
0100
1000
0010
0001
0010
1000
0010
0001
,
0010
0000
1000
0000
0100
0000
0000
0000
0010
0000
0001
0000
0100
0010
0000
0100
,
0010
1000
0100
0001
0100
1000
0100
0001
,
0100
1000
0001
1000
0100
0010
0001
0100
,
0010
1000
0010
1000
0001
0000
0000
0000
0010
0000
0200
0000
0000
0000
0310
0000
,
0001
0000
0010
0001
1000
0000
0010
0000
0100
0000
0010
0000
0001
0000
0010
0000
,
1000
0100
0010
0000
0001
2000
0000
3001
,
0100
0000
0001
0100
0020
0000
1030
0000
,
1000
0100
0010
0001
1000
0100
0010
0100
,
0010
0001
0100
0010
0100
0010
0100
1000
,
0001
0000
0010
0000
1000
0000
0100
0000
1000
0100
0000
0100
0000
0010
0001
0000
,
0100
0010
0000
1000
0000
0000
0010
0000
1000
0000
0010
0000
1000
0000
0001
0000
,
0010
0000
0001
0010
0001
1000
0020
0000
,
1030
0001
0000
0010
0001
0010
0001
1000
,
0010
0000
1000
0010
1000
0001
0020
0000
,
0031
1000
0000
0100
1000
0100
1000
0001
,
0100
0000
0001
0100
0001
1000
0200
0000
,
1300
0001
0100
0010
0100
0010
1000
0001
,
1000
0001
0010
0100
0010
0001
2000
0000
,
3001
0000
1000
0000
0100
0000
0010
0000
0001
0000
0100
0000
0010
0000
0000
1000
,
0010
0000
0100
0000
0001
0000
0000
0100
0001
0000
1000
0000
0200
0000
0000
0000
,
0310
0000
0000
0000
0001
0000
0010
0000
0100
0000
1000
0000
0001
0000
0000
1000
,
0001
0000
0010
0000
0100
0000
0000
0010
0100
0000
1000
0000
0002
0000
0000
0000
,
1003
0000
0000
0000
0001
0000
0100
0000
0010
0000
1000
0000
0100
0000
0000
0010
,
0001
0000
1000
0000
0010
0000
0000
1000
0001
0000
0010
0000
0200
0000
0000
0000
,
0310
0001
0100
0010
0100
0010
1000
0001
,
1000
0000
0001
0000
0010
0000
0000
0100
0000
0000
2000
0000
0000
0000
0000
0000
,
3000
2002
0000
0000
,
3003
0000
0001
0000
0001
0000
0001
1000
,
0001
1000
0001
0000
1000
0000
0000
0000
0001
0000
0010
0000
0001
0000
1000
0000
,
0010
0100
0001
0100
1000
0100
0001
0100
,
1000
0100
0001
0000
0010
0100
0010
0001
,
1000
0000
0010
0000
0110
0000
0000
0000
1001
0000
0000
1000
0100
0000
0000
0100
,
0010
0000
0000
0010
0001
0000
0000
0000
1000
0000
0100
0000
0010
0000
0001
0000
,
0100
0010
1000
0010
0001
0010
1000
0010
,
0001
0010
1000
0000
0010
1000
0100
0010
,
0001
0000
1000
0000
1001
0000
0000
0001
0010
0000
0000
0010
0100
0000
0000
0100
,
1000
0000
0000
1001
0000
0000
0001
0010
0100
0010
0001
1000
,
0010
0100
0001
0100
1000
0100
0001
0100
,
1000
0100
0001
0000
0010
0100
0010
0001
,
1000
0000
0010
0000
0110
0000
0000
0000
1001
0000
0000
1000
0100
0000
0000
0100
,
0010
0000
0000
0010
0001
0000
0000
0000
0010
0000
0001
0000
1000
0000
0010
0000
,
0100
0010
1000
0010
0001
0010
1000
0010
,
0001
0010
2000
0000
0000
0000
0000
0000
,
0000
0000
0000
0000
,
0000
0000
0000
0000
,
0000
3000
0000
0000
;

//---------------dance-single - ----------------
#NOTEDATA:;
#CHARTNAME:;
#STEPSTYPE:dance-single;
#DESCRIPTION:;
#CHARTSTYLE:;
#DIFFICULTY:Medium;
#METER:8;
#RADARVALUES:0.366936,0.433491,0.192834,0.138841,0.000000,333.000000,308.000000,25.000000,18.000000,0.000000,0.000000,0.000000,0.000000,0.000000,0.366936,0.433491,0.192834,0.138841,0.000000,333.000000,308.000000,25.000000,18.000000,0.000000,0.000000,0.000000,0.000000,0.000000;
#CREDIT:;
#NOTES:
0000
0000
0000
0000
,
0000
0000
0000
0000
,
0000
0000
0000
0000
,
0000
0000
0000
0000
,
0002
0000
0003
1000
0100
0000
0010
0001
,
2000
0000
3000
0001
0100
0000
0010
1000
,
0200
0000
0300
0010
0100
0000
1000
0010
,
0200
0000
0300
0010
0100
0000
0001
0010
,
0100
0000
0010
0000
0001
1000
0001
0000
,
0100
0000
0010
0000
1000
0001
1000
0000
,
0100
0000
0010
0000
0100
1000
0001
0000
,
0100
0000
0010
0000
0100
0001
1000
0000
,
0001
0000
1001
0000
0001
1000
0100
0000
,
1000
0000
1001
0000
1000
0001
0100
0000
,
0010
0000
1010
0000
0010
0100
0001
0000
,
0010
0000
0011
0000
0010
0100
1000
0000
,
0001
0000
1001
0000
1000
0010
0100
0000
,
0001
0000
1001
0000
1000
0100
0010
0000
,
0100
0000
0110
0000
0010
0001
0100
0000
,
1001
0000
1001
0000
0001
0100
0010
0000
,
0010
1000
0100
0000
1100
0000
0101
0000
,
1100
0000
1001
0000
1000
0010
0100
0000
,
0010
0100
0001
0000
1000
0000
0001
0000
,
1000
0001
1000
0000
0100
0010
0001
1000
,
0001
0100
0010
0100
,
0010
0100
0010
0000
1000
0100
0010
0001
,
0100
0001
1000
0001
,
1000
0001
1000
0000
0100
0000
0010
0000
,
0001
0000
0100
0000
0010
2000
0000
3010
,
0100
0001
0010
0100
,
1000
0000
0001
0000
0100
0020
0000
0130
,
0001
0000
1000
0100
1000
0000
0001
0000
,
0100
0010
0100
0000
0001
1000
0001
0000
,
1000
0000
0100
0010
0100
0010
0001
1000
,
0001
1000
0001
2000
0000
0000
0000
0000
,
0000
0000
0000
3000
0000
0000
0000
0000
0001
0000
0000
0000
0010
0000
0000
0000
,
0001
1000
0010
2000
,
3000
0000
1000
0010
,
1000
0001
0010
0002
,
0003
0000
0001
0100
,
0001
1000
0100
2000
,
3000
0001
0100
0010
,
1000
0100
0010
0002
,
0003
0000
1000
0000
0001
0100
0001
0100
,
0001
0000
1000
0100
1000
0100
2000
0000
,
3001
0000
1000
0000
0001
0010
0001
0010
,
0001
0000
1000
0010
1000
0010
2000
0000
,
3001
0000
1000
0000
0100
0010
0100
0010
,
0100
0000
1000
0001
1000
0001
2000
0000
,
3001
0000
0100
0010
0100
0010
1000
0001
,
1000
0001
0200
0000
0000
0000
0000
0000
,
0300
2002
0000
0000
,
3003
0001
0001
0001
,
0001
0000
1000
0000
0010
1000
0001
0000
,
0010
0001
1000
0000
0001
0000
1000
0000
,
0001
1000
0001
0000
0100
0010
1000
0000
,
0100
0010
0001
0000
1010
0000
0101
0000
,
0011
0000
1100
0000
1000
0001
0100
0000
,
0001
1000
0100
0000
0010
0000
0100
0000
,
0010
0100
0010
0000
0001
0100
0010
0000
,
1000
0010
0100
0000
0001
0000
0101
0000
,
1100
0000
0101
0000
1000
0100
0010
0001
,
1000
0001
1000
0001
,
1000
0001
1000
0000
0010
0100
0001
0000
,
0010
0100
1000
0000
0101
0000
1010
0000
,
1100
0000
0011
0000
0001
0100
0010
0000
,
1000
0100
0010
0000
0100
0000
0010
0000
,
0100
0010
0002
0000
0000
0000
0000
0000
,
0000
0000
0000
0000
,
0000
0000
0000
0000
,
0000
0003
0000
0000
;

//---------------dance-single - ----------------
#NOTEDATA:;
#CHARTNAME:;
#STEPSTYPE:dance-single;
#DESCRIPTION:;
#CHARTSTYLE:;
#DIFFICULTY:Easy;
#METER:5;
#RADARVALUES:0.220382,0.270932,0.015427,0.123414,0.000000,200.000000,198.000000,2.000000,16.000000,0.000000,0.000000,0.000000,0.000000,0.000000,0.220382,0.270932,0.015427,0.123414,0.000000,200.000000,198.000000,2.000000,16.000000,0.000000,0.000000,0.000000,0.000000,0.000000;
#CREDIT:;
#NOTES:
0000
0000
0000
0000
,
0000
0000
0000
0000
,
0000
0000
0000
0000
,
0000
0000
0000
0000
,
1000
0000
0001
0001
,
0000
1000
0010
0100
,
0000
0001
0010
0001
,
0200
0300
0020
0030
,
1000
0000
0001
0001
,
1000
0000
0100
0100
,
0010
0001
0010
0001
,
0200
0300
0020
0030
,
1000
0001
1000
0100
,
1000
0001
0100
0001
,
1000
0010
1000
0001
,
0010
0001
1000
0010
,
0100
0000
0010
0010
,
0100
0010
0010
0010
,
0100
0001
1000
0100
,
0010
1001
0000
0001
,
0000
1000
0100
0010
,
0001
1000
0000
0010
,
0000
1000
0100
0001
,
0010
1000
0000
0001
,
0000
1000
0010
0001
,
0100
1000
0000
0001
,
0000
1000
0100
0001
,
0010
1000
0000
0100
,
0000
0010
0001
0100
,
0000
0010
0000
1000
,
0000
0010
1000
0100
,
0000
0010
0010
0001
,
0000
1000
1000
0010
,
0000
1000
0010
0100
,
0001
0020
0000
0000
,
0000
0000
0000
0030
0000
0000
0000
0000
0001
0000
0000
0000
0001
0000
0000
0000
,
0001
1000
1000
2000
,
3000
0000
1000
1000
,
1000
0001
0001
0002
,
0003
0000
0001
0001
,
0001
1000
1000
2000
,
3000
0001
0001
1000
,
1000
0100
0010
0002
,
0003
1000
0001
0100
,
0001
1000
0100
2000
,
3001
1000
0001
0010
,
0001
1000
0010
2000
,
3001
1000
0100
0010
,
0001
0100
0010
2000
,
3001
1000
0100
0010
,
0001
2000
0000
0000
,
3000
2002
0000
0000
,
3003
0001
1000
0001
,
1000
0001
0000
0100
,
0000
0001
0010
1000
,
0100
0001
0000
0100
,
0000
0001
1000
1000
,
0001
0001
0000
1000
,
0000
1000
0010
0001
,
0100
1000
0000
0001
,
0000
1000
0100
0010
,
0001
1000
0000
0001
,
0000
0001
0010
1000
,
0100
0001
0000
0010
,
0000
0001
0100
0100
,
0010
0010
0000
1000
,
0000
0001
0100
1000
,
0010
0002
0000
0000
,
0000
0000
0000
0000
,
0000
0000
0000
0000
,
0000
0003
0000
0000
;

//---------------dance-single - ----------------
#NOTEDATA:;
#CHARTNAME:;
#STEPSTYPE:dance-single;
#DESCRIPTION:;
#CHARTSTYLE:;
#DIFFICULTY:Beginner;
#METER:2;
#RADARVALUES:0.155369,0.216746,0.015427,0.077134,0.000000,141.000000,139.000000,2.000000,10.000000,0.000000,0.000000,0.000000,0.000000,0.000000,0.155369,0.216746,0.015427,0.077134,0.000000,141.000000,139.000000,2.000000,10.000000,0.000000,0.000000,0.000000,0.000000,0.000000;
#CREDIT:;
#NOTES:
0000
0000
0000
0000
,
0000
0000
0000
0000
,
0000
0000
0000
0000
,
0000
0000
0000
0000
,
1000
0000
0000
0000
,
0001
0000
0000
0000
,
1000
0000
0000
0000
,
0001
0000
0000
0000
,
0100
0000
0000
0000
,
0010
0000
0000
0000
,
0100
0000
0000
0000
,
0010
0000
0000
0000
,
1000
0000
0001
0000
,
1000
0000
0001
0000
,
0010
0000
0100
0000
,
0010
0000
0100
0000
,
1000
0000
0001
0000
,
1000
0000
0001
0000
,
0100
0000
0010
0000
,
0100
1001
0000
0001
,
0000
1000
1000
1000
,
0000
0001
0000
0010
,
0000
0001
0001
0001
,
0001
0001
0000
0001
,
0000
1000
1000
1000
,
1000
1000
0000
1000
,
0000
0001
0001
0001
,
0001
0001
0000
0100
,
0000
0010
0010
0010
,
0000
0100
0000
0010
,
0000
1000
1000
1000
,
0000
0100
0000
0010
,
0000
0100
0100
0100
,
0000
0010
0000
0001
,
0000
2000
0000
0000
,
3000
0001
0000
0001
,
0000
0001
0000
0002
,
0003
1000
0000
1000
,
0000
1000
0000
2000
,
3000
0001
0000
0001
,
0000
0001
0000
0002
,
0003
1000
0000
0001
,
0000
1000
0000
0002
,
0003
1000
0000
0100
,
0000
0010
0000
0002
,
0003
0001
0000
0100
,
0000
0010
0000
2000
,
3000
1000
0000
0100
,
0000
0010
0000
0002
,
0003
1000
0000
0001
,
0000
2000
0000
0000
,
3000
1001
0000
0000
,
0000
1000
1000
1000
,
1000
1000
0000
1000
,
0000
0001
0001
0001
,
0001
0001
0000
1000
,
1000
1000
0000
0100
,
0000
0010
0000
0001
,
0000
1000
1000
1000
,
1000
1000
0000
0001
,
0000
0100
0100
0100
,
0000
0010
0000
1000
,
0000
0001
0001
0001
,
0001
0001
0000
0001
,
0000
0100
0000
0010
,
0000
1000
0000
0001
,
0000
1000
1000
1000
,
1000
2000
0000
0000
,
0000
0000
0000
0000
,
0000
0000
0000
0000
,
0000
3000
0000
0000
;
