#TITLE:Shapeshifter (feat. Styles of Beyond);
#SUBTITLE:;
#ARTIST:Celldweller;
#TITLETRANSLIT:;
#SUBTITLETRANSLIT:;
#ARTISTTRANSLIT:;
#GENRE:Nu-Metal;
#CREDIT:;
#BANNER:Shapeshifter (feat. Styles of Beyond).png;
#BACKGROUND:Shapeshifter (feat. Styles of Beyond)-bg.png;
#LYRICSPATH:;
#CDTITLE:cdtitle.png;
#MUSIC:Shapeshifter (feat. Styles of Beyond).ogg;
#OFFSET:-0.131040;
#SAMPLESTART:53.924145;
#SAMPLELENGTH:16.551731;
#SELECTABLE:YES;
#BPMS:0.000000=116.000000
;
#STOPS:
;
#BGCHANGES:;
#KEYSOUNDS:;
#ATTACKS:;

//---------------dance-single - ----------------
#NOTES:
     dance-single:
     :
     Challenge:
     13:
     0.587771,0.661039,0.350161,0.350161,0.547127,470.000000,430.000000,40.000000,40.000000,19.000000,0.000000,0.587771,0.661039,0.350161,0.350161,0.547127,470.000000,430.000000,40.000000,40.000000,19.000000,0.000000:
// measure 0
0000
0000
0000
0000
,  // measure 1
0000
0000
0000
0000
,  // measure 2
0010
0001
0000
0001
0100
0010
0000
0010
0100
1000
0001
0010
1000
0000
0100
0000
,  // measure 3
0010
0001
0000
0001
0100
0010
0000
0010
1000
0100
0010
0000
0001
0000
1000
0000
,  // measure 4
0010
1000
0000
1000
0100
0010
0000
0010
0100
0001
1000
0010
0001
0000
0100
0000
,  // measure 5
0010
0100
0000
0000
0110
0000
0000
0000
0000
0000
1000
0000
0002
0000
0003
0000
,  // measure 6
0101
1010
1000
0000
1000
0100
0001
0100
,  // measure 7
1000
0000
0020
1030
0001
0000
0010
0000
0010
0000
0001
0000
0100
0000
0010
0000
,  // measure 8
1010
0101
0001
0000
1000
0001
0010
0100
,  // measure 9
1000
0000
0001
1000
0010
0000
0100
0000
1000
0000
0100
0000
0001
0000
0010
0000
,  // measure 10
0011
1100
1000
0000
0001
0100
0010
1000
,  // measure 11
0100
0000
0020
0032
2003
3000
0010
0000
0001
0000
0010
0000
1000
0000
0100
0000
,  // measure 12
1100
0011
0001
0000
0100
0010
1000
0001
,  // measure 13
0010
0000
0100
0010
0002
0000
0000
0000
0000
0000
0000
0000
0103
0000
0000
0000
,  // measure 14
1001
0000
0110
0000
0001
0000
0000
0001
1000
0000
0100
0000
0010
0000
0001
0000
,  // measure 15
0101
0000
0000
00M0
0000
0000
1100
0000
0000
0000
0000
0000
1000
0000
0100
0000
0010
0000
0100
0000
1000
0000
0000
0000
0001
0000
0000
0000
1000
0000
0000
0000
,  // measure 16
1010
0000
0101
0000
1000
0000
0000
1000
0001
0000
0010
0000
0100
0000
1000
0000
,  // measure 17
0001
0010
0M00
0010
1000
0000
2000
3200
0302
0003
2000
0000
3010
0000
0001
0000
,  // measure 18
0011
0000
1100
0000
0001
0000
1000
0010
0200
0000
0000
0000
0301
0000
0010
0000
,  // measure 19
1100
0000
0000
00M0
0000
0000
0101
0000
0000
0000
0000
0000
0001
0000
0010
0000
0100
0000
0010
0000
0001
0000
0000
0000
1000
0000
0000
0000
0001
0000
0000
0000
,  // measure 20
0011
0000
1100
0000
0001
0000
1000
0010
0200
0000
0000
0000
0301
0000
1000
0000
,  // measure 21
0001
0100
00M0
0100
1000
0000
1000
0100
0001
0100
0010
0000
0001
0000
1000
0000
,  // measure 22
0001
0100
0000
0000
0010
0000
0000
0000
0100
0000
0010
0000
0100
0000
0001
0000
,  // measure 23
1000
0100
0000
0000
0010
0000
0000
0000
0100
0000
0010
0000
0100
0000
1000
0000
,  // measure 24
0010
0100
0000
0000
0001
0000
0000
0010
0100
0000
1000
0000
0010
0000
0100
0000
,  // measure 25
0001
0000
2000
0000
0002
0000
3MM3
M00M
,  // measure 26
0001
0100
0000
0100
0010
1000
0000
1000
0100
0010
0100
0000
0001
0000
0100
0000
,  // measure 27
1000
0010
0000
0010
0100
0001
0000
0001
0010
0100
0010
0000
1000
0000
0010
0000
,  // measure 28
0001
0100
0000
0010
1000
0000
0010
1000
0001
0000
0010
0100
0010
0000
0001
0010
,  // measure 29
0100
1000
0001
0100
0010
0000
1000
0010
0001
0000
0010
1000
0100
0000
0010
0000
,  // measure 30
0001
0100
0000
0100
0001
1000
0000
1000
0100
0001
0100
0000
0010
0000
0001
0000
,  // measure 31
1000
0100
0000
0100
1000
0001
0000
0001
0100
1000
0100
0000
0010
0000
1000
0000
,  // measure 32
0001
0000
0010
0001
0100
0001
0010
0001
0100
0010
1000
0M02
0000
0000
0000
20M0
,  // measure 33
0000
0000
0000
0M00
0000
0000
0000
00M0
3003
0000
0000
M00M
0110
0000
0000
0000
,  // measure 34
1001
0000
0001
0000
1000
0100
0010
0001
,  // measure 35
0001
0000
0000
0000
1000
0000
0000
0010
0000
0010
0000
0000
0100
0000
0010
0000
,  // measure 36
1000
0000
0001
0000
0010
0100
1000
0001
,  // measure 37
0001
0000
1000
0000
0010
0000
1000
0000
0200
0000
0000
0020
0000
0000
0300
0000
,  // measure 38
0M31
0011
2002
3003
1000
1010
2001
0001
,  // measure 39
3002
0023
2030
3200
,  // measure 40
0301
0101
0220
0330
1000
1100
0220
0300
,  // measure 41
0031
0000
1000
0000
0001
0000
1001
0000
0000
0101
0000
0100
0010
0000
1000
0000
,  // measure 42
0001
0011
2200
3300
1000
1010
0102
1000
,  // measure 43
2003
3020
0032
0203
,  // measure 44
1300
0100
0110
0010
0011
0001
1002
0000
,  // measure 45
0200
0000
0000
0000
0000
0000
0303
MMMM
,  // measure 46
1000
0100
0000
0100
0010
0001
0000
0001
0100
0010
0100
0000
1000
0000
0100
0000
,  // measure 47
0001
0010
0000
0010
0100
1000
0000
1000
0010
0100
0010
0000
0001
0000
0010
0000
,  // measure 48
1000
0100
0000
0010
0001
0000
0010
0001
1000
0000
0010
0100
0010
0000
1000
0010
,  // measure 49
0100
0001
1000
0100
0010
0000
0001
0010
1000
0000
0010
0001
0100
0010
0100
0010
,  // measure 50
1000
0100
0000
0100
1000
0001
0000
0001
0100
1000
0100
0000
0010
0000
1000
0000
,  // measure 51
0001
0100
0000
0100
0001
1000
0000
1000
0100
0001
0100
0000
0010
0000
0001
0000
,  // measure 52
1000
0000
0010
1000
0100
1000
0010
1000
0100
0010
0001
2000
0010
0000
3010
0000
,  // measure 53
0100
0002
0000
0000
0000
0000
0000
0000
0000
0000
0000
0000
0000
0000
0000
0003
;

//---------------dance-single - ----------------
#NOTES:
     dance-single:
     :
     Hard:
     11:
     0.486474,0.542997,0.367670,0.323899,0.249490,389.000000,347.000000,42.000000,37.000000,0.000000,0.000000,0.486474,0.542997,0.367670,0.323899,0.249490,389.000000,347.000000,42.000000,37.000000,0.000000,0.000000:
0000
0000
0000
0000
,
0000
0000
0000
0000
,
1000
0000
0000
1000
0010
0000
0000
0010
0100
0000
1000
0000
0100
0000
0001
0000
,
0010
0000
0000
0010
0100
0000
0000
0100
1000
0000
0001
0000
0100
0000
0001
0000
,
0010
0000
0000
0010
0001
0000
0000
0001
0100
0000
1000
0000
0100
0000
0010
0000
,
1000
0000
0001
0000
0000
0010
0200
0300
,
1100
1100
1000
0000
0010
1000
0100
0000
,
1000
0100
0001
0100
1000
0010
0100
0000
,
0101
0101
0001
0000
0010
0001
0100
0000
,
0001
0100
1000
0100
0001
0010
0001
0000
,
0011
0011
0001
0000
1000
0001
0100
0000
,
0001
0010
1000
0010
0001
1000
0010
0000
,
1010
1010
1000
0000
0001
1000
0100
0000
,
0001
0100
2000
0000
0000
0000
3001
0000
,
1001
1001
1000
0000
0001
0100
0010
1000
,
1100
0000
0000
1100
0000
0000
1000
0000
0100
0000
0010
0000
0001
0000
0000
0000
,
1001
1001
0001
0000
1000
0010
0100
0001
,
0010
0100
0000
0010
0100
0000
0010
0000
0002
0000
0000
0000
1003
0000
0000
0000
,
1010
0000
1010
0000
0010
0000
1000
0001
2000
0000
0000
0000
3100
0000
0000
0000
,
0011
0000
0000
0011
0000
0000
0001
0000
0010
0000
0100
0000
1000
0000
0000
0000
,
0101
0000
0101
0000
0100
0000
0001
1000
0002
0000
0000
0000
0013
0000
0000
0000
,
0001
1000
0000
0001
1000
0000
0010
0000
1000
0000
0100
0000
0010
0000
0001
0000
,
1000
0010
1000
0000
0001
0000
1000
0001
,
0010
0001
1000
0000
0001
0000
1000
0010
,
0100
0000
0010
0000
1000
0000
0000
0001
1000
0000
0100
0000
0010
0000
0001
0000
,
1000
0002
2000
3003
,
0011
0000
0000
0001
0010
0000
0000
0010
0100
0000
1000
0000
0010
0000
1010
0000
,
1010
0000
0000
1000
0010
0000
0000
0010
0100
0000
0001
0000
1000
0000
0100
0000
,
0010
0000
0000
0001
1000
0000
0010
1000
0010
0000
0100
0001
0000
0000
1000
0100
,
1000
0000
0001
0010
0001
0000
1000
0010
1000
0000
0001
0010
0000
0000
0001
0000
,
1001
0000
0000
1000
0010
0000
0000
0010
0100
0000
0001
0000
0011
0000
0000
0000
,
1100
0000
0000
1000
0100
0000
0000
0100
0010
0000
0001
0000
0100
0000
0010
0000
,
1000
0000
0001
0010
0001
0000
1000
0100
1000
0000
0010
0200
0000
0000
0000
0020
,
0000
0000
0000
0330
,
1001
0000
0001
0000
0100
0001
1000
0100
,
0100
0000
0000
0000
0010
0000
0000
0001
0000
0001
0000
0000
0010
0000
0001
0000
,
0100
0000
0010
0000
1000
0001
0010
0001
,
0001
1000
0010
2000
0002
0000
0000
3003
,
0001
0100
2000
0000
3001
0010
2000
3010
,
2020
3030
2200
3300
0022
0033
0202
0303
,
0001
0010
2000
0000
3001
0100
2000
0000
,
3001
0000
0000
0000
0100
0000
0010
0000
0000
1000
0000
0001
0010
0000
0100
0000
,
1000
0010
0002
0000
1003
0100
0002
0013
,
0022
0033
0202
0303
2020
3030
2200
3300
,
1000
0100
0001
0100
1000
0010
0210
0000
,
0002
0000
0000
0303
,
1010
0000
0000
1000
0010
0000
0000
0010
0100
0000
0001
0000
0010
0000
0011
0000
,
0011
0000
0000
0001
0010
0000
0000
0010
0100
0000
1000
0000
0001
0000
0100
0000
,
0010
0000
0000
1000
0001
0000
0010
0001
0010
0000
0100
1000
0000
0000
0001
0100
,
0001
0000
1000
0010
1000
0000
0001
0010
0001
0000
1000
0010
1000
0000
0100
0000
,
1001
0000
0000
0001
0010
0000
0000
0010
0100
0000
1000
0000
1010
0000
0000
0000
,
0101
0000
0000
0001
0100
0000
0000
0100
0010
0000
1000
0000
0100
0000
0010
0000
,
0001
0000
1000
0010
1000
0000
0001
0100
0001
0000
0010
0002
0000
0000
0103
0000
,
0010
2000
0000
0000
0000
0000
0000
0000
0000
0000
0000
0000
0000
0000
0000
3000
;

//---------------dance-single - ----------------
#NOTES:
     dance-single:
     :
     Medium:
     8:
     0.383927,0.401345,0.376424,0.183835,0.035016,307.000000,264.000000,43.000000,21.000000,0.000000,0.000000,0.383927,0.401345,0.376424,0.183835,0.035016,307.000000,264.000000,43.000000,21.000000,0.000000,0.000000:
0000
0000
0000
0000
,
0000
0000
0000
0000
,
0011
0000
1100
0000
1000
0100
0001
0000
,
0101
1100
1001
0101
,
1010
0000
0101
0000
0001
0100
1000
0000
,
0110
0000
0000
0000
0000
0001
1000
0000
,
0001
0001
0100
0000
0010
1000
0001
1000
,
0100
0000
0010
0000
0100
1000
0001
0000
,
1000
1000
0010
0000
0100
0001
1000
0001
,
0010
0000
0100
0000
0010
0001
0100
0000
,
0010
0010
1000
0000
0100
1000
0001
1000
,
0010
0000
1000
0000
0100
0010
0001
0000
,
0100
0100
0001
0000
0010
0001
1000
0001
,
0200
0020
0000
0330
,
1000
1000
0001
0000
1000
0100
0010
0001
,
0100
0000
0000
0100
0000
0000
0010
0000
1000
0000
0000
0000
0010
0000
1000
0000
,
0001
0001
1000
0000
0001
0010
0100
1000
,
0001
0000
0000
0100
0000
0000
1000
0000
0100
0000
0001
0000
0100
0000
0000
0000
,
0010
0010
1000
0001
0020
0000
0130
0010
,
0001
0000
0000
0001
0000
0000
1000
0000
0100
0000
0000
0000
1000
0000
0001
0000
,
0100
0100
0001
1000
0200
0000
0310
0100
,
1000
0000
0000
0100
0000
0000
0001
0000
0100
0000
1000
0000
0100
0000
0000
0000
,
0011
0001
0001
0101
,
1010
1000
1000
1001
,
0110
0100
0100
0110
,
1001
2000
0002
3003
,
0011
0000
0110
0000
1100
0000
1000
0001
,
0001
0000
0101
0000
0110
0000
0010
1000
,
0100
0000
0010
0001
1000
0001
0100
0000
,
0001
0100
1000
0100
0001
0000
1000
0000
,
1100
0000
0110
0000
0011
0000
0010
0001
,
0100
0000
0110
0000
1010
0000
1000
0001
,
0010
0000
0100
0000
0010
0000
0001
0000
1000
0000
0000
0002
0000
0000
0000
2000
,
0000
0000
0000
3003
,
0110
0000
0001
0000
0000
0000
0001
1000
,
1000
0001
0010
0001
,
1000
0000
0001
0000
0100
0000
0001
1000
,
1000
0000
0001
0000
2002
0000
0000
3003
,
0001
0100
1000
0000
1000
0100
0001
0010
,
0002
0203
0320
2030
,
3001
0010
1000
0000
1000
0010
0001
0000
,
1001
0000
0000
0000
0000
0000
1010
0000
0000
1001
0000
0000
1100
0000
0000
0000
,
1000
0100
0001
0000
0001
0100
1000
0010
,
2000
3200
0320
0032
,
1003
0010
0100
0010
0100
0001
2000
0000
,
0002
0000
0000
3003
,
1010
0000
0110
0000
0101
0000
0001
1000
,
1000
0000
1100
0000
0110
0000
0010
0001
,
0100
0000
0010
1000
0001
1000
0100
0000
,
1000
0100
0001
0100
1000
0000
0001
0000
,
0101
0000
0110
0000
1010
0000
0010
1000
,
0100
0000
0110
0000
0011
0000
0001
1000
,
0010
0000
0100
0000
0010
0000
1000
0000
0001
0000
0000
1001
0000
0000
1000
0000
,
0200
0000
0000
0000
0000
0000
0000
0000
0000
0000
0000
0000
0000
0000
0000
0300
;

//---------------dance-single - ----------------
#NOTES:
     dance-single:
     :
     Easy:
     4:
     0.232607,0.283303,0.271375,0.455210,0.000000,186.000000,155.000000,31.000000,52.000000,0.000000,0.000000,0.232607,0.283303,0.271375,0.455210,0.000000,186.000000,155.000000,31.000000,52.000000,0.000000,0.000000:
0000
0000
0000
0000
,
0000
0000
0000
0000
,
0001
0001
0100
0010
,
1000
1000
0100
0010
,
0100
0100
1000
0010
,
0100
0000
0000
0100
,
2002
3003
1000
0100
,
0010
0000
0100
0010
,
2002
3003
0001
0100
,
0010
0000
0100
0010
,
2020
3030
0010
1000
,
0100
0000
0010
0001
,
0022
0033
0010
0001
,
0200
0020
0000
0330
,
2002
3003
1000
0100
,
0010
0010
0001
0100
,
2002
3003
0001
0100
,
0010
1000
0100
0010
,
0012
1003
0202
0303
,
0001
0100
0001
1000
,
2010
3001
2200
3300
,
1000
0100
0001
0100
,
1000
0000
0001
0010
,
0100
0000
1000
0010
,
0100
0000
0001
0100
,
1000
0200
0002
0303
,
0022
0033
0001
0100
,
2020
3030
1000
0100
,
0010
0001
0100
0001
,
0010
0001
0100
0010
,
2020
3030
1000
1100
,
0022
0033
0001
0100
,
0010
1000
0001
2002
,
0000
0000
0000
3003
,
1000
0000
0100
0000
,
0010
0000
0001
0000
,
0100
0000
0010
0000
,
1000
0000
0002
0000
,
0003
1001
0000
0110
,
0002
0023
0230
2300
,
3000
1001
0000
0110
,
0001
0001
0000
1000
,
0000
1100
0000
0011
,
0002
0203
0320
2030
,
3000
1100
0011
1002
,
0200
0000
0000
0303
,
2020
3030
1000
0100
,
0022
0033
0001
0100
,
0010
1000
0100
1000
,
0010
1000
0100
0010
,
0022
0033
0001
0101
,
2020
3030
1000
0100
,
0010
0001
1000
1001
,
0200
0000
0000
0000
0000
0000
0000
0000
0000
0000
0000
0000
0000
0000
0000
0300
;

//---------------dance-single - ----------------
#NOTES:
     dance-single:
     :
     Beginner:
     1:
     0.116304,0.188868,0.157573,0.192589,0.000000,93.000000,75.000000,18.000000,22.000000,0.000000,0.000000,0.116304,0.188868,0.157573,0.192589,0.000000,93.000000,75.000000,18.000000,22.000000,0.000000,0.000000:
0000
0000
0000
0000
,
0000
0000
0000
0000
,
0001
0000
0100
0000
,
0001
0000
1000
0000
,
0001
0000
0010
0000
,
0100
0000
0000
0000
,
1001
0000
0000
0000
,
1000
0000
0000
0000
,
1001
0000
0000
0000
,
0100
0000
0000
0000
,
1001
0000
0000
0000
,
0001
0000
0000
0000
,
1001
0000
0000
0000
,
0020
0000
0030
0000
,
1001
0000
0000
0000
,
0010
0000
0010
0000
,
1001
0000
0000
0000
,
0100
0000
0100
0000
,
1001
0000
0002
0003
,
1000
0000
1000
0000
,
1001
0000
2000
3000
,
0001
0000
0001
0000
,
1000
0000
0000
0000
,
0100
0000
0000
0000
,
0010
0000
0000
0000
,
0001
0000
0001
0000
,
2002
0000
3003
0000
,
2002
0000
3003
0000
,
1000
0000
0100
0000
,
0010
0000
0001
0000
,
2002
0000
3003
1001
,
2002
0000
3003
0000
,
0001
0000
0100
0000
,
0010
0000
0000
0000
,
1000
0000
0000
0000
,
0100
0000
0000
0000
,
0001
0000
0000
0000
,
0010
0000
1000
0000
,
0001
0000
0001
0000
,
0002
0000
0000
0003
,
1000
0000
1000
0000
,
0100
0000
0000
0000
,
1000
0000
1000
0000
,
2000
0000
0000
3000
,
0001
0000
1000
0000
,
0100
0000
0000
0000
,
2002
0000
3003
0000
,
2002
0000
3003
0000
,
1000
0000
0010
0000
,
0100
0000
0001
0000
,
2002
0000
3003
1001
,
2002
0000
3003
0000
,
0001
0000
0010
0000
,
0200
0000
0000
0000
0000
0000
0000
0000
0000
0000
0000
0000
0000
0000
0000
0300
;
