#VERSION:0.83;
#TITLE:Shapeshifter (Blue Stahli Remix);
#SUBTITLE:;
#ARTIST:Celldweller;
#TITLETRANSLIT:;
#SUBTITLETRANSLIT:;
#ARTISTTRANSLIT:;
#GENRE:Electrometal;
#ORIGIN:;
#CREDIT:;
#BANNER:Shapeshifter (Blue Stahli Remix).png;
#BACKGROUND:Shapeshifter (Blue Stahli Remix)-bg.png;
#PREVIEWVID:;
#JACKET:Shapeshifter (Blue Stahli Remix)-jacket.png;
#CDIMAGE:;
#DISCIMAGE:;
#LYRICSPATH:;
#CDTITLE:cdtitle.png;
#MUSIC:Shapeshifter (Blue Stahli Remix).ogg;
#OFFSET:-0.468295;
#SAMPLESTART:15.706820;
#SAMPLELENGTH:15.238096;
#SELECTABLE:YES;
#BPMS:0.000=126.000,
92.000=63.000,
93.000=126.000,
141.000=63.000,
142.000=126.000;
#STOPS:28.000=1.429,
63.750=0.476,
166.500=3.333;
#DELAYS:;
#WARPS:;
#TIMESIGNATURES:0.000=4=4;
#TICKCOUNTS:0.000=4;
#COMBOS:0.000=1;
#SPEEDS:0.000=1.000=0.000=0;
#SCROLLS:0.000=1.000;
#FAKES:;
#LABELS:0.000=Song Start;
#BGCHANGES:;
#KEYSOUNDS:;
#ATTACKS:
;

//---------------dance-single - ----------------
#NOTEDATA:;
#CHARTNAME:;
#STEPSTYPE:dance-single;
#DESCRIPTION:;
#CHARTSTYLE:;
#DIFFICULTY:Challenge;
#METER:15;
#RADARVALUES:0.708184,0.799695,0.672775,0.159341,0.606383,560.000000,484.000000,76.000000,18.000000,8.000000,1.000000,0.000000,0.000000,0.000000,0.708184,0.799695,0.672775,0.159341,0.606383,560.000000,484.000000,76.000000,18.000000,8.000000,1.000000,0.000000,0.000000,0.000000;
#CREDIT:;
#NOTES:
// measure 0
0000
0000
0000
0000
,  // measure 1
0000
0000
0000
0000
,  // measure 2
0000
0000
0000
0000
,  // measure 3
0000
0000
0000
0000
,  // measure 4
0000
0000
1000
0010
0100
0010
1000
0010
0100
0010
1000
0000
2020
0000
0000
0000
,  // measure 5
3030
0000
0001
0010
0100
0010
0001
0010
0100
0010
0001
0000
0022
0000
0000
0000
,  // measure 6
0033
0000
0001
1000
0010
1000
0001
1000
0010
1000
0001
0000
2002
0000
0000
0000
,  // measure 7
3003
0000
0000
0000
1001
0000
0101
0000
0100
0000
1000
0100
0001
0000
0010
0100
,  // measure 8
0000
0100
1000
0000
1001
0000
1100
0000
0100
0000
0001
0100
1000
0000
0010
0100
,  // measure 9
0001
0000
1000
0000
1001
0000
1010
0000
0010
0000
0001
0010
1000
0000
0100
0010
,  // measure 10
0000
0000
0000
0010
0000
0000
0001
0000
0000
0000
0000
0000
2001
0000
0000
0000
0000
0000
0000
0000
0000
0000
0000
0000
3010
0000
0000
0000
0100
0000
0000
0000
0010
0000
0000
0000
1000
0000
0000
0100
0000
0000
1000
0000
0000
0100
0000
0000
,  // measure 11
0010
0001
0100
0000
0101
0000
0011
0000
0010
0000
1000
0010
0001
0000
0100
0010
,  // measure 12
0000
0010
1000
0000
1100
0000
1010
0000
0010
0000
0001
0010
1000
0000
0100
0010
,  // measure 13
0001
0000
1000
0000
1010
0000
1100
0000
0100
0000
0001
0100
1000
0000
0010
0100
,  // measure 14
0000
0000
0100
0000
0001
0000
0000
0000
0011
0000
0000
0000
1100
0000
0000
0000
1000
0000
0001
0000
1000
0001
2000
0000
0002
0000
0000
0000
0000
0000
0000
0000
,  // measure 15
0010
0000
3003
0000
1000
0000
0100
0000
0010
0000
0001
0000
0100
0010
0000
1000
,  // measure 16
1100
0000
0011
0000
0001
0000
0100
0000
0010
1000
0000
0001
1000
0000
0100
0000
,  // measure 17
0100
0000
0001
0100
1000
0100
0010
0000
0001
0100
0000
0010
1000
0000
0001
0000
,  // measure 18
0011
0000
1100
0000
1000
0000
0010
0000
0100
0001
0000
1000
0001
0000
0010
0000
,  // measure 19
1000
0000
0010
0000
0001
0000
0100
0010
1000
0001
0010
0001
0100
0000
MMMM
0000
,  // measure 20
0101
0000
1010
0000
0010
0000
1000
0000
0100
0010
0000
0001
1000
0000
1000
0000
,  // measure 21
0010
0000
0001
0000
1000
0000
0100
0000
0001
0010
0000
0100
1000
0001
1000
0000
,  // measure 22
1010
0000
0101
0000
0100
0000
0001
0000
0010
0100
0000
1000
0001
0000
0100
0000
,  // measure 23
0020
0000
0000
0000
1030
0010
0100
0001
1000
0100
0010
0000
0011
0000
1100
0000
,  // measure 24
0001
0000
0100
0010
1000
0000
0100
0010
0100
0010
0100
0000
1000
0000
0001
0000
,  // measure 25
0100
0000
0010
1000
0100
0000
0001
0100
1000
0000
0100
0000
1100
0000
0011
0000
,  // measure 26
1000
0000
0010
0100
0001
0000
0010
0100
0010
0100
0010
0000
0001
0000
0100
0000
,  // measure 27
1000
0000
0100
0010
1000
0000
0001
1000
0100
0010
0001
0000
0101
0000
1010
0000
,  // measure 28
0001
0000
1000
0100
0010
0000
0001
0100
0001
0100
0001
0000
0010
0000
0100
0000
,  // measure 29
1000
0000
0001
0100
0010
0000
0001
0010
1000
0000
0010
0000
1010
0000
0101
0000
,  // measure 30
1000
0000
0001
0010
0100
0000
1000
0001
1000
0001
1000
0000
0010
0000
0001
0000
,  // measure 31
0010
0000
1000
0100
0010
0100
0010
0100
1000
0000
0001
0000
1000
0000
0000
0000
,  // measure 32
1100
0100
0101
0001
,  // measure 33
0011
0000
0010
0000
1010
0000
1000
0100
,  // measure 34
0010
0000
0001
0000
1000
0000
0100
0000
0010
0000
0001
0000
0100
0010
0100
0010
,  // measure 35
1000
0001
1000
0001
0020
0000
0030
0000
0011
0000
0001
0100
0010
1000
0000
0010
,  // measure 36
1000
0000
1010
0000
0110
0000
0101
0000
1001
0000
1000
0100
0010
0001
0000
0100
,  // measure 37
0010
0000
1010
0000
0010
0100
0001
0000
0011
0000
1100
0000
1000
0000
0001
0100
,  // measure 38
0010
0100
0001
0000
1000
0000
0100
0000
1100
0000
0011
0000
0001
0000
1000
0010
,  // measure 39
0100
0000
0010
0000
1000
0000
0000
0000
0001
0000
0000
0000
MMMM
0000
0000
0000
1010
0000
0000
0000
1000
0000
0001
1000
0001
0000
1000
0000
0100
0000
0000
0000
,  // measure 40
1100
0000
0000
0000
0011
0000
0000
0000
0101
0000
0000
0000
1010
0000
0000
0000
1001
0000
0000
0000
0001
0000
1000
0001
1000
0000
0001
0000
0010
0000
0001
0000
,  // measure 41
0100
0000
0101
0000
0100
0010
1000
0000
1001
0000
0110
0000
1001
0000
1100
0000
,  // measure 42
0100
0000
0001
0100
1000
0000
0010
0100
0000
0100
0001
0000
1001
0000
0101
0000
,  // measure 43
0100
0000
1000
0100
0001
0000
0010
0100
1000
0000
0001
0000
1001
0000
0011
0000
,  // measure 44
0010
0000
1000
0010
0001
0000
0100
0010
0000
0010
1000
0000
1010
0000
0100
0000
,  // measure 45
0101
0000
0000
0000
0001
0000
0010
0000
0001
0000
1000
0001
1000
0000
0000
0000
2002
0000
0000
0000
3003
0000
0000
0000
1100
0000
0000
0000
1010
0000
0000
0000
,  // measure 46
0010
0000
0001
0010
1000
0000
0100
0010
0000
0010
0001
0000
0101
0000
0011
0000
,  // measure 47
0010
0000
1000
0010
0001
0000
0100
0010
1000
0000
0001
0000
0011
0000
0101
0000
,  // measure 48
0100
0000
1000
0100
0001
0000
0010
0100
0000
0100
1000
0000
0010
0000
1000
0000
,  // measure 49
1200
0000
0000
0000
0000
0000
0310
0000
0001
0000
0000
0000
0100
0000
0000
0000
2010
0000
0000
0000
0000
0000
0000
3000
1001
0000
0000
0000
0000
0000
0000
0000
,  // measure 50
0001
0000
1000
0100
0010
0001
0000
0010
0001
0000
1000
0000
0001
0000
0000
0000
,  // measure 51
1000
0000
0001
0100
0010
1000
0000
0010
1000
0100
0010
0000
0100
0000
0000
0000
,  // measure 52
0010
0000
0100
1000
0001
0100
0000
0000
0120
0000
0000
0000
1030
0000
0000
0000
,  // measure 53
0001
0000
0010
0001
0100
0010
1000
0100
1000
0010
0200
0000
0002
0000
0000
0000
,  // measure 54
0000
0000
0000
0303
;

//---------------dance-single - ----------------
#NOTEDATA:;
#CHARTNAME:;
#STEPSTYPE:dance-single;
#DESCRIPTION:;
#CHARTSTYLE:;
#DIFFICULTY:Hard;
#METER:12;
#RADARVALUES:0.546313,0.557363,0.433763,0.398353,0.314257,432.000000,383.000000,49.000000,45.000000,0.000000,0.000000,0.000000,0.000000,0.000000,0.546313,0.557363,0.433763,0.398353,0.314257,432.000000,383.000000,49.000000,45.000000,0.000000,0.000000,0.000000,0.000000,0.000000;
#CREDIT:;
#NOTES:
0000
0000
0000
0000
,
0000
0000
0000
0000
,
0000
0000
0000
0000
,
0000
0000
0000
0000
,
0000
1000
0010
1000
0010
1000
2200
0000
,
3300
0001
0010
0001
0010
0001
0202
0000
,
0303
0001
0100
1000
0100
0010
0220
0000
,
0330
0000
0000
0000
1000
0000
2200
0000
3300
0000
0010
0001
1000
0000
0000
1010
,
0000
0000
0101
0000
1000
0000
2020
0000
3030
0000
1000
0100
0010
0000
0001
0000
,
0100
0000
0010
0000
1000
0000
2002
0000
3003
0000
1000
0001
0010
0000
0000
1010
,
0000
0000
0101
0000
2100
0000
0000
0000
0001
0000
0000
0000
3100
0010
0100
0010
,
0100
0000
1000
0000
0001
0000
0202
0000
0303
0000
0010
1000
0001
0000
0000
0011
,
0000
0000
1100
0000
0001
0000
0022
0000
0033
0000
0001
0100
0010
0000
1000
0000
,
0100
0000
0010
0000
0001
0000
2002
0000
3003
0000
0001
1000
0010
0000
0000
0011
,
0000
0000
1100
0000
0102
0000
0000
0000
0103
0010
0100
0010
0100
0000
0000
0000
,
2001
0000
0000
0000
3100
0000
0000
0000
0100
0000
1000
0000
0001
0100
0000
0100
,
0100
0000
0001
0000
1000
0000
0100
0000
0010
0001
0000
0010
0001
0000
1000
0000
,
0001
0000
0100
0000
0010
0000
1000
0000
0001
0100
0000
0001
0020
0000
0000
0000
,
0130
0000
1000
0000
0001
0000
0100
0000
0010
1000
0000
0010
1000
0000
0001
0000
,
1000
0000
0100
0000
0010
0000
0001
0000
1000
0100
0000
1000
0010
0000
0001
0000
,
0010
0000
1000
0000
0100
0000
0010
0000
0100
1000
0000
0100
1000
0000
0001
0000
,
0100
0000
0010
0000
0100
0000
1000
0000
0100
0010
0000
0100
0002
0000
0000
0000
,
0013
0000
0001
0000
0100
0000
0010
0000
0100
0001
0000
0100
0001
0000
1000
0000
,
0200
0000
0301
0100
1000
0000
0001
1000
,
0010
0000
0100
0001
0100
0000
0010
0000
1000
0000
0001
0000
1000
0000
0100
0000
,
0010
0000
0001
1000
0001
0000
0100
0000
0120
0000
0000
0000
1030
0000
0001
0000
,
0010
0000
0100
1000
0100
0000
0010
0000
0001
0000
1000
0000
0001
0000
0100
0000
,
0010
0000
1000
0000
0100
0010
0000
0010
0100
0000
1000
0000
0001
0000
1000
0000
,
0010
0000
0100
0001
0100
0000
0010
0000
0100
0000
1000
0000
0100
0000
0001
0000
,
0010
0000
0100
1000
0100
0000
0010
0000
0012
0000
0000
0000
1003
0000
0001
0000
,
0010
0000
0100
1000
0100
0000
0010
0000
0100
0000
0001
0000
0100
0000
1000
0000
,
0001
0000
0100
0000
0010
1000
0000
1000
0001
0000
1000
0000
0100
0000
0000
0000
,
1001
0100
1001
0010
,
1001
0000
0010
0000
1001
0000
0001
0100
,
0001
0100
1000
0100
1000
0100
0001
0100
,
0010
0000
1000
0000
0002
0000
0003
0000
1000
0000
0100
0010
0100
0010
0000
0100
,
0010
0000
0100
0000
1000
0000
0001
0000
0100
0000
0010
0100
0010
0100
0000
0010
,
0100
0000
0001
0000
1000
0000
0010
0000
1000
0000
0100
0000
0010
0000
0001
0100
,
0000
0001
0100
0000
0110
0000
0000
0000
0001
0000
0100
0000
0010
0000
1000
0100
,
0000
1000
0100
0000
0110
0000
0000
0000
0001
0000
0100
0000
0010
0100
0010
0000
,
0100
0000
0001
0000
1000
0000
0100
0000
0010
0000
0100
0010
0100
0000
0010
0100
,
0010
0001
0100
0010
1001
1001
0001
0202
,
0303
0000
0100
0001
1000
0000
0000
1100
0000
0000
0110
0000
0001
0000
2002
0000
,
3003
0000
0001
0100
0010
0000
0100
0000
1000
0000
0100
0000
0001
0000
0022
0000
,
0033
0000
0010
0001
0100
0000
0000
1010
0000
0000
1100
0000
0102
0000
0000
0000
,
1003
0000
0100
0010
0000
0100
0010
0000
1001
0000
0000
0000
1000
0000
2200
0000
,
3300
0000
0100
1000
0001
0000
0000
0101
0000
0000
0110
0000
1000
0000
2002
0000
,
3003
0000
1000
0100
0010
0000
0100
0000
0001
0000
0100
0000
1000
0000
2020
0000
,
3030
0000
0010
1000
0100
0000
0000
0011
0000
0000
0101
0000
2100
0000
0000
0000
,
3001
0000
0000
0001
0100
0000
0010
0000
2001
0000
0000
0000
3100
0000
0000
0000
,
1000
0000
0100
0000
0010
0001
0000
0001
0100
0000
0010
0000
1000
0000
0000
0000
,
0001
0000
0100
0000
0010
1000
0000
1000
0100
0000
0010
0000
0001
0000
0000
0000
,
1000
0000
0010
0000
1000
0100
0000
0000
0012
0000
0000
0000
1003
0000
0000
0000
,
0001
0010
1000
0010
0001
0200
2000
0000
,
0000
0000
0000
3300
;

//---------------dance-single - ----------------
#NOTEDATA:;
#CHARTNAME:;
#STEPSTYPE:dance-single;
#DESCRIPTION:;
#CHARTSTYLE:;
#DIFFICULTY:Medium;
#METER:8;
#RADARVALUES:0.383178,0.411964,0.132785,0.141637,0.004426,303.000000,288.000000,15.000000,16.000000,0.000000,0.000000,0.000000,0.000000,0.000000,0.383178,0.411964,0.132785,0.141637,0.004426,303.000000,288.000000,15.000000,16.000000,0.000000,0.000000,0.000000,0.000000,0.000000;
#CREDIT:;
#NOTES:
0000
0000
0000
0000
,
0000
0000
0000
0000
,
0000
0000
0000
0000
,
0000
0000
0000
0000
,
0000
1000
0100
1000
0100
1000
0002
0000
,
0003
0001
0100
0001
0100
0001
2000
0000
,
3000
1000
0100
1000
0001
0100
0002
0000
,
0003
0000
1000
0100
0000
0100
0010
0000
,
0100
0000
1000
0010
0000
0010
0100
0001
,
1000
0000
0001
0010
0000
0010
0100
0000
,
1000
0000
1002
0000
0013
0000
0001
0100
,
1000
0100
0001
0100
0000
0100
0010
0000
,
0100
0000
0001
0010
0000
0010
0100
1000
,
0001
0000
1000
0010
0000
0010
0100
0000
,
0001
0000
1001
0000
0100
0010
0100
0000
,
1001
0000
0000
0000
0200
0000
0000
0000
0000
0000
0010
0000
0010
0000
0000
0310
,
1000
1000
1000
0000
0010
1000
0100
0000
,
1000
0000
0001
0000
1000
0001
0200
0000
,
0301
0001
0001
0000
0010
0001
0100
0000
,
0001
0000
1000
0000
0010
1000
0001
0010
,
0100
0100
0100
0000
0010
0001
0100
0000
,
0001
0000
1000
0000
0100
1000
0002
0000
,
0103
0100
0100
0000
0010
1000
0100
0000
,
0220
0330
1000
0001
1000
0000
0001
0001
,
0001
0000
0001
0100
1000
0000
0100
0010
,
0100
0000
0010
0100
0002
0000
1003
1000
,
1000
0000
1000
0100
0001
0000
0100
0010
,
0100
0000
0010
0100
1000
0000
0001
0001
,
0001
0000
1000
0010
0001
0000
0001
0010
,
1000
0000
0100
0010
0002
0000
1003
1000
,
1000
0000
0001
0010
1000
0000
1000
0010
,
0001
0000
0100
0010
1000
0000
0001
0000
,
0001
1000
1000
0001
,
0001
0000
1000
0000
1000
0000
0001
1000
,
0001
1000
0001
1000
0001
1000
0200
0000
,
0320
0000
0032
0000
1003
0010
1000
0010
,
1000
0010
1000
0010
0100
0001
0100
0001
,
0100
0001
0100
0001
1000
1000
1000
0000
,
1000
0100
0010
0000
0001
0001
0001
0000
,
0001
0100
0010
1000
0001
0010
0001
0010
,
0001
0010
0001
0010
0100
1000
0100
1000
,
0100
1000
0100
1000
0001
0001
1000
0010
,
0000
0010
0100
0000
0001
0000
1000
0100
,
0000
0100
0010
0001
1000
0000
0001
0100
,
0000
0100
0010
0000
1000
0000
1001
0000
,
0011
0000
1100
0000
0101
0000
0001
0010
,
0000
0010
0100
0000
1000
0000
0001
0100
,
0000
0100
0010
1000
0001
0000
1000
0100
,
0000
0100
0010
0000
0001
0000
1001
0000
,
0101
1010
0011
1100
,
0001
0100
0010
1000
0001
0000
1000
0000
,
0010
1000
0100
0010
0001
0000
1000
0000
,
0001
0100
0010
0000
0110
0000
1001
0000
,
0001
0010
0100
1000
0010
0200
0002
0000
,
0000
0000
0000
0303
;

//---------------dance-single - ----------------
#NOTEDATA:;
#CHARTNAME:;
#STEPSTYPE:dance-single;
#DESCRIPTION:;
#CHARTSTYLE:;
#DIFFICULTY:Easy;
#METER:5;
#RADARVALUES:0.240277,0.266565,0.247864,0.070818,0.000000,190.000000,162.000000,28.000000,8.000000,0.000000,0.000000,0.000000,0.000000,0.000000,0.240277,0.266565,0.247864,0.070818,0.000000,190.000000,162.000000,28.000000,8.000000,0.000000,0.000000,0.000000,0.000000,0.000000;
#CREDIT:;
#NOTES:
0000
0000
0000
0000
,
0000
0000
0000
0000
,
0000
0000
0000
0000
,
0000
0000
0000
0000
,
0000
0100
0100
2002
,
3003
0010
0010
2002
,
3003
0100
0010
2002
,
3003
1001
0000
0010
,
1000
1001
0000
1000
,
0100
1001
0000
0010
,
0001
1000
0010
0100
,
0010
1001
0000
0010
,
0001
1001
0000
0001
,
0100
1001
0000
0010
,
1000
0001
0010
0100
,
0010
0001
0000
1000
,
1100
0000
0001
0000
,
0001
0100
0010
1000
,
0101
0000
1000
0000
,
1000
0100
0010
0001
,
1010
0000
0001
0000
,
0001
0100
0010
1000
,
0011
0000
1000
0000
,
0002
0103
0010
1001
,
0000
1000
1000
0100
,
0001
0100
1000
1001
,
0000
0001
0001
0100
,
1000
0100
0001
1001
,
0000
0001
0001
0010
,
1000
0010
0001
1001
,
0000
1000
1000
0010
,
0001
0010
1000
0100
,
0000
0100
0010
0001
,
0000
0100
0010
1000
,
0000
0001
1000
0100
,
1000
0001
1000
1000
,
0010
0010
1000
1000
,
0100
0100
1001
0000
,
0100
0010
1001
0000
,
0001
1000
0001
0001
,
0010
0010
0001
0001
,
0100
0100
1001
1001
,
0000
0010
1000
0101
,
0000
0001
1000
1001
,
0000
1000
0100
0001
,
0100
1000
0010
1001
,
0000
0010
0001
1100
,
0000
1000
0001
1001
,
0000
0001
0100
1000
,
0100
0001
0010
1100
,
0000
0001
0001
0100
,
0000
1000
1000
0100
,
0000
0001
0110
1000
,
0000
1000
0100
0002
,
0000
0000
0000
0003
;

//---------------dance-single - ----------------
#NOTEDATA:;
#CHARTNAME:;
#STEPSTYPE:dance-single;
#DESCRIPTION:;
#CHARTSTYLE:;
#DIFFICULTY:Beginner;
#METER:2;
#RADARVALUES:0.125197,0.242332,0.097375,0.053114,0.000000,99.000000,88.000000,11.000000,6.000000,0.000000,0.000000,0.000000,0.000000,0.000000,0.125197,0.242332,0.097375,0.053114,0.000000,99.000000,88.000000,11.000000,6.000000,0.000000,0.000000,0.000000,0.000000,0.000000;
#CREDIT:;
#NOTES:
0000
0000
0000
0000
,
0000
0000
0000
0000
,
0000
0000
0000
0000
,
0000
0000
0000
0000
,
0000
0000
0000
0100
,
0000
0000
0000
0100
,
0000
0000
0000
0100
,
0000
1000
0000
1000
,
0000
0001
0000
0001
,
0000
1000
0000
1000
,
0000
0200
0000
0300
,
0000
1000
0000
1000
,
0000
0001
0000
0001
,
0000
1000
0000
1000
,
0000
0010
0000
0100
,
0000
0002
0000
0000
,
0003
0000
0001
0000
,
0001
0000
1000
0000
,
1000
0000
0100
0000
,
0100
0000
0010
0000
,
0010
0000
0001
0000
,
0001
0000
1000
0000
,
1000
0000
0010
0000
,
0020
0030
0000
1000
,
0000
1000
0000
0100
,
0000
1000
0000
0001
,
0000
0001
0000
0100
,
0000
0001
0000
0010
,
0000
0010
0000
0001
,
0000
1000
0000
0010
,
0000
0010
0000
1000
,
0000
0001
0000
0100
,
0000
0000
0000
0100
,
0000
0000
0000
0100
,
0000
0100
0000
0100
,
0000
0100
1001
0000
,
1001
0000
1001
0000
,
1001
0000
1001
0000
,
0000
0000
0100
0000
,
0000
0000
0110
0000
,
0110
0000
0110
0000
,
0110
0000
0220
0330
,
0000
0001
0000
1000
,
0000
1000
0000
0100
,
0000
0100
0000
0010
,
0000
0001
0000
1000
,
0000
1000
0000
0010
,
0000
0010
0000
0100
,
0000
0100
0000
0001
,
0000
1000
0000
0100
,
0000
0000
0000
0100
,
0000
0000
0000
0100
,
0000
0000
1001
0000
,
0000
0100
0100
0200
,
0000
0000
0000
0300
;
