#TITLE:Seedy Try;
#SUBTITLE:;
#ARTIST:t+pazolite;
#TITLETRANSLIT:;
#SUBTITLETRANSLIT:;
#ARTISTTRANSLIT:;
#GENRE:Twerk;
#CREDIT:;
#BANNER:Seedy Try.png;
#BACKGROUND:Seedy Try-bg.png;
#LYRICSPATH:;
#CDTITLE:cdtitle.png;
#MUSIC:Seedy Try.ogg;
#OFFSET:-0.123290;
#SAMPLESTART:27.551859;
#SAMPLELENGTH:18.285715;
#SELECTABLE:YES;
#BPMS:0.000000=105.000000
,34.000000=52.500000
,35.000000=105.000000
,37.000000=52.500000
,38.000000=105.000000
;
#STOPS:
;
#BGCHANGES:;
#KEYSOUNDS:;
#ATTACKS:;

//---------------dance-single - ----------------
#NOTES:
     dance-single:
     :
     Hard:
     12:
     0.709608,0.640808,0.286572,0.159207,0.880945,468.000000,441.000000,27.000000,15.000000,0.000000,0.000000,0.709608,0.640808,0.286572,0.159207,0.880945,468.000000,441.000000,27.000000,15.000000,0.000000,0.000000:
0000
0000
0000
0000
,
0000
0000
0000
0000
,
1000
0100
0000
0010
0000
0001
0100
0000
0010
1000
0010
1000
0002
0000
0013
0000
,
0001
0100
0000
0010
0000
1000
0100
0000
0010
0100
0010
0100
2000
0000
3001
0000
,
0101
0000
0110
0000
1010
0000
1001
0000
0001
0100
0010
1000
0002
0000
1003
0000
,
1100
0000
0110
0000
0011
0000
1001
0000
1000
0100
0010
0001
2000
0000
3001
0000
,
0101
0000
0110
0000
0101
0000
1001
0000
0001
0100
0010
0100
0002
0000
1003
0000
,
1100
0000
0110
0000
1100
0000
1001
0000
1000
0100
0010
0100
2000
0000
3001
0000
,
1000
0100
1000
0000
1000
0100
1000
0100
1000
0000
0000
0000
0001
0100
0001
0000
,
0001
0100
0001
0100
0001
0000
0000
0000
1000
0100
1000
0000
0100
1000
0100
1000
,
0001
0100
0000
0001
0100
0001
0100
0001
1000
0000
1000
0000
0110
0000
1001
0000
,
0001
0010
0100
1000
0001
0000
0000
0000
1000
0000
0010
1000
0100
0000
0100
0000
,
1000
0001
1000
0001
0100
0010
1000
0000
0001
0000
0010
0001
0100
0000
0100
0000
,
0001
0100
1000
0100
0002
0000
0013
0000
0001
0000
0100
0001
0010
0000
0010
0000
,
0001
1000
0001
1000
0010
0100
0001
0000
1000
0100
0010
0001
0100
0010
1000
0001
,
1000
0100
1000
0000
1100
0000
0011
0000
0001
0000
0010
0001
0100
0000
0100
0000
,
0001
1000
0001
1000
0100
0010
0001
0000
1000
0000
0010
1000
0100
0000
0100
0000
,
0010
0000
0000
0000
0000
0000
0001
0000
1000
0000
0001
0000
2000
0000
0000
0000
0000
0000
3010
0000
0000
0000
0000
0000
0100
0000
0000
0000
0000
0000
0000
0000
0000
0010
0000
0000
1000
0000
0000
0000
0000
0000
1000
0000
0000
0000
0000
0000
,
0001
0010
0001
0010
0100
1000
0001
0000
1000
0010
0000
0100
0000
0001
0100
0010
,
1000
0001
1000
0000
1001
0000
0000
0000
1000
0100
0010
0001
1000
0100
0002
0000
,
0103
0001
0100
0010
0100
1000
0001
0000
1000
0000
0010
1000
0100
0000
0100
0000
,
1000
0010
0001
0010
2000
0000
3100
0000
0010
0000
0100
1000
0010
0000
0010
0000
,
0100
0001
0100
0001
1000
0100
0010
0000
0001
0010
0100
1000
0010
0100
0001
1000
,
0100
0010
0100
0000
0110
0000
1001
0000
0001
0000
0100
0001
0010
0000
0010
0000
,
0001
1000
0001
1000
0010
0100
0001
0000
1000
0000
0100
1000
0010
0000
0010
0000
,
1000
0000
0000
0000
0000
0000
0100
0000
0010
0000
0100
0000
0020
0000
0000
0000
0000
0000
0031
0000
0000
0000
0000
0000
0100
0000
0000
0000
0000
0000
0000
0000
0000
0100
0000
0000
0010
0000
0000
0000
0000
0000
0010
0000
0000
0000
0000
0000
,
1000
0010
1000
0010
0100
0001
1000
0000
0001
0010
0100
1000
0010
0100
0001
0010
,
0001
1000
0001
0000
1001
0000
0000
0000
1000
0100
0010
0100
1000
0000
0001
0000
,
1000
0100
0010
0100
1000
0010
0100
0010
0000
0010
1000
0001
1000
0000
0001
0000
,
1000
0100
0010
0100
1000
0001
0000
1000
0001
0100
0010
0100
0001
0000
1000
0000
,
0001
0100
0010
0100
0001
0010
0100
0010
0000
0010
0001
1000
0001
0000
1000
0000
,
0001
0100
0010
0000
0110
0000
1001
0000
0001
0100
1000
0100
0001
0000
1000
0000
,
0001
0100
1000
0100
0001
0010
0100
0010
0000
0010
0001
1000
0001
0000
1000
0000
,
0001
0100
1000
0100
0001
0010
0000
0100
1000
0000
0000
1000
0001
0010
0001
0000
,
1000
0100
0001
0100
1000
0010
0100
0010
0000
0010
1000
0001
1000
0000
0100
0000
,
1000
0001
1000
0000
1001
0000
0000
0000
0001
0100
0000
0010
0000
1000
0100
0000
,
1000
0001
1000
0001
0200
0000
0310
0000
1000
0100
0000
0010
0000
0001
0100
0000
,
0010
0100
0010
0100
0002
0000
0013
0000
0100
1000
0000
0010
0000
0100
0001
0000
,
1000
0100
1000
0100
0020
0000
0031
0000
1000
0010
0000
0100
0000
0001
0010
0000
,
0100
0010
0100
0010
0002
0000
1003
0000
0010
0100
0000
0001
0000
1000
0010
1000
,
0001
0000
0010
0100
1000
0000
0000
0000
0000
0000
0000
0000
0000
0000
0000
0000
;

//---------------dance-single - ----------------
#NOTES:
     dance-single:
     :
     Challenge:
     14:
     0.838490,0.747609,0.233504,0.201662,1.305497,553.000000,531.000000,22.000000,19.000000,16.000000,0.000000,0.838490,0.747609,0.233504,0.201662,1.305497,553.000000,531.000000,22.000000,19.000000,16.000000,0.000000:
// measure 0
0000
0000
0000
0000
,  // measure 1
0000
0000
0000
0000
,  // measure 2
1000
0100
0010
0001
0000
0010
0001
0100
0010
0100
1000
0100
0002
0000
0103
0000
,  // measure 3
0001
0100
0010
1000
0000
0010
1000
0100
1000
0010
0001
0010
2000
0000
3100
0000
,  // measure 4
1100
0000
0011
0000
0101
0000
1010
0000
0010
1000
0001
1000
0200
0010
0310
0000
,  // measure 5
0011
0000
0000
0000
1100
0000
0000
0000
1010
0000
0000
0000
0101
0000
0000
0000
0001
0000
0100
0010
0100
0000
0010
0000
1000
0000
0001
1000
0001
0000
1000
0000
,  // measure 6
1001
0000
1100
0000
0110
0000
0011
0000
0001
0010
0100
1000
0020
1000
1030
0000
,  // measure 7
1010
0000
0000
0000
0110
0000
0000
0000
0101
0000
0000
0000
1001
0000
0000
0000
0001
0000
0010
0100
0010
0000
0100
0000
1000
0000
0001
1000
0001
0000
1000
0000
,  // measure 8
0001
0100
0001
0000
0001
0100
0010
1000
0002
0000
0003
0000
1000
0100
1000
0000
,  // measure 9
1000
0100
0010
0001
2000
0000
3000
0000
0001
0100
0001
0000
0001
0100
0010
1000
,  // measure 10
0100
0000
0000
0010
0000
0000
0000
0000
0000
0100
0000
0000
0010
0000
0000
0001
0000
0000
0100
0000
0000
0010
0000
0000
1000
0000
0000
0000
0000
0000
1000
0000
0000
0000
0000
0000
1000
0000
0010
0000
0100
0000
0001
0000
0000
0000
0000
0000
,  // measure 11
0010
0100
0010
0100
0010
0000
0100
0000
1000
0000
0000
0000
MMMM
0000
0000
0000
1000
0000
0100
0000
0010
0000
0001
0000
0100
0000
0000
0000
0100
0000
0000
0000
,  // measure 12
1000
0000
0100
0000
0010
0000
0100
0000
0001
0000
1000
0001
1000
0000
0001
0000
0010
0000
0100
0000
0010
0000
0001
0000
1000
0000
0000
0000
1000
0000
0000
0000
,  // measure 13
0001
0100
0001
0010
2000
0000
3020
0000
0031
0100
0010
1000
0100
0000
0100
0000
,  // measure 14
0001
0000
0100
0000
0010
0000
0100
0000
1000
0000
0001
0100
0001
0000
0100
0000
0010
0000
1000
0000
1000
0000
0001
0000
0010
0000
0010
0000
0001
0000
1000
0000
,  // measure 15
0010
0000
0400
0300
0001
0000
0400
0300
1010
0000
0000
0000
0101
0000
0000
0000
0001
0000
0100
0000
0010
0000
1000
0000
0100
0000
0000
0000
0100
0000
0000
0000
,  // measure 16
0001
0000
0100
0000
0010
0000
0100
0000
1000
0000
0001
0100
0001
0000
0100
0000
0010
0000
1000
0000
0100
0000
0010
0000
0001
0000
0000
0000
0001
0000
0000
0000
,  // measure 17
1000
0000
0010
0000
1000
0000
0001
0000
0100
0000
0001
0000
0020
0000
0000
0000
0000
0000
0230
0000
0000
0000
0000
0000
1300
0000
0000
0000
0000
0000
0000
0000
0000
0001
0000
0000
0100
0000
0000
0000
0000
0000
0100
0000
0000
0000
0000
0000
,  // measure 18
1000
0000
0100
0000
0010
0000
0100
0000
0001
0000
1000
0100
1000
0000
0100
0000
0010
0000
0001
0000
1000
0000
0001
0000
0100
0000
0001
0000
0010
0000
0001
0000
,  // measure 19
0100
0000
0010
0100
0010
0000
0100
0000
0010
0000
0000
0000
MMMM
0000
0000
0000
0001
0000
0010
0000
0100
0000
1000
0000
0001
0010
0100
1000
0001
0000
0000
0000
,  // measure 20
1000
0000
0100
0000
0001
0000
0100
0000
0010
0000
0001
1000
0001
0000
1000
0000
0100
0000
0010
0000
0001
0000
0100
0000
0010
0000
0000
0000
0010
0000
0000
0000
,  // measure 21
1000
0100
1000
0010
0002
0000
0023
0000
1030
0100
0010
0001
0100
0000
0100
0000
,  // measure 22
1000
0000
0100
0000
0010
0000
0100
0000
0001
0000
1000
0100
1000
0000
0100
0000
1000
0000
0001
0000
0001
0000
0100
0000
0010
0000
0010
0000
1000
0000
0001
0000
,  // measure 23
1000
0000
0040
0030
1000
0000
0400
0300
0011
0000
0000
0000
1100
0000
0000
0000
0010
0000
0001
0000
0100
0000
0010
0000
1000
0000
0000
0000
1000
0000
0000
0000
,  // measure 24
0001
0000
0100
0000
1000
0000
0100
0000
0010
0000
0100
0001
0100
0000
0001
0000
0010
0000
0001
0000
0100
0000
0010
0000
1000
0000
0000
0000
1000
0000
0000
0000
,  // measure 25
0001
0000
0010
0000
0001
0000
1000
0000
0100
0000
1000
0000
0020
0000
0000
0000
0000
0000
0230
0000
0000
0000
0000
0000
0301
0000
0000
0000
0000
0000
0000
0000
0000
1000
0000
0000
0100
0000
0000
0000
0000
0000
0100
0000
0000
0000
0000
0000
,  // measure 26
0001
0000
0100
0000
0010
0000
0100
0000
1000
0000
0010
0100
0010
0000
0100
0000
0001
0000
1000
0000
1000
0000
0100
0000
0010
0000
0010
0000
0001
0000
1000
0000
,  // measure 27
0010
0000
0100
0010
0100
0000
0010
0000
0100
0000
0000
0000
MMMM
0000
0000
0000
1000
0000
1000
0000
0010
0000
0100
0000
0001
0000
0010
0000
0001
0000
0001
0000
,  // measure 28
1000
0000
1000
0000
0010
0000
0100
0000
0001
0000
0010
0100
0010
0000
0010
0000
0001
0000
1000
0000
0001
0000
0001
0000
0010
0000
0001
0000
0100
0000
0010
0000
,  // measure 29
1000
1000
0010
0100
0001
0100
1000
0100
0001
0001
0010
0100
1000
0010
1000
1000
,  // measure 30
0001
0000
0001
0000
0010
0000
0100
0000
1000
0000
0010
0100
0010
0000
0010
0000
1000
0000
0001
0000
1000
0000
1000
0000
0010
0000
1000
0000
0100
0000
0010
0000
,  // measure 31
0001
0000
0004
0003
0100
0000
0004
0003
1010
0000
0000
0000
0101
0000
0000
0000
0001
0000
0001
0000
1000
0000
0100
0000
0010
0000
0100
0000
1000
0000
1000
0000
,  // measure 32
0001
0000
0001
0000
0100
0000
0010
0000
1000
0000
0001
0010
0001
0000
0001
0000
1000
0000
0010
0000
0100
0000
0100
0000
0001
0000
1000
0000
0100
0000
0010
0000
,  // measure 33
0001
0001
1000
0010
1000
0100
0001
0100
1000
0000
0000
0001
0100
0010
1000
0001
,  // measure 34
0010
0000
0010
0000
0001
0000
0100
0000
0010
0000
1000
0001
1000
0000
1000
0000
0100
0000
0010
0000
0001
0000
0001
0000
0010
0000
0100
0000
1000
0000
0001
0000
,  // measure 35
0100
0000
0010
0100
0010
0000
0100
0000
0010
0000
0000
0000
MMMM
0000
0000
0000
0001
0000
0100
0000
0000
0000
0010
0000
0000
0000
0100
0000
0010
0000
1000
0000
,  // measure 36
0100
1000
0001
0100
0020
0000
0130
0000
0001
0100
0000
0010
0000
0100
0010
1000
,  // measure 37
0001
0010
0100
0010
2000
0000
3020
0000
0031
1000
0000
0010
0000
1000
0010
0100
,  // measure 38
0001
1000
0100
0010
0200
0000
0310
0000
0001
1000
0000
0010
0000
1000
0010
0100
,  // measure 39
0001
0100
1000
0100
0020
0000
1030
0000
0001
0010
0000
0100
0000
0010
0100
0010
,  // measure 40
1000
0010
0001
0100
1000
0000
0000
0000
0000
0000
0000
0000
0000
0000
0000
0000
;

//---------------dance-single - ----------------
#NOTES:
     dance-single:
     :
     Medium:
     10:
     0.564047,0.512646,0.074297,0.042455,0.403324,372.000000,365.000000,7.000000,4.000000,0.000000,0.000000,0.564047,0.512646,0.074297,0.042455,0.403324,372.000000,365.000000,7.000000,4.000000,0.000000,0.000000:
0000
0000
0000
0000
,
0000
0000
0000
0000
,
1000
0000
0001
0010
0001
0000
0010
0000
0001
0000
1000
0010
1000
0000
0010
0000
,
1000
0000
0001
0100
0001
0000
0100
0000
0001
0000
1000
0100
1000
0000
0100
0000
,
1000
0000
1000
0000
0001
0000
0001
0000
0100
0000
0010
0100
0010
0100
0010
0000
,
1000
0000
1000
0000
0001
0000
0001
0000
0010
0000
0100
0010
0100
0010
0100
0000
,
1000
0000
1000
0000
0001
0000
0001
0000
0100
0000
0010
1000
0010
1000
0010
0000
,
0100
0000
0100
0000
0001
0000
0001
0000
1000
0000
0001
0010
0001
0010
0001
0000
,
1000
0100
0001
0100
1000
0000
0001
0100
,
1000
0100
0001
0000
1000
0100
0001
0100
,
1000
0100
0000
0010
0001
0000
0100
0000
0010
0000
0010
0000
0100
0000
0010
0000
,
1000
0001
1000
0001
1000
0000
0000
0000
1000
0000
0010
1000
0010
0000
0010
0000
,
1000
0000
0100
0000
1000
0001
1000
0000
0001
0000
0010
0001
0010
0000
0010
0000
,
0001
1000
0001
1000
0020
0000
0130
0000
0001
0000
0100
0001
0100
0000
0100
0000
,
0001
0000
0010
0000
0001
1000
0001
0000
1000
0100
0000
0010
0001
0000
1000
0010
,
1000
0000
0001
0000
0110
0000
1001
0000
1000
0000
0100
0010
0100
0000
0100
0000
,
1000
0000
0001
0000
1000
0010
1000
0000
0001
0000
0100
0010
0100
0000
0100
0000
,
0001
0000
0010
0000
2000
0000
3010
0000
0001
0000
0000
0010
0001
0000
0001
0000
,
1000
0000
0010
0000
1000
0001
1000
0000
0001
0000
0010
0000
0100
0000
1000
0000
,
0001
1000
0001
0000
0100
0000
0000
0000
0001
0100
0010
1000
0001
0000
1001
0000
,
1000
0000
0100
0000
0010
0001
0010
0000
0001
0000
0100
0010
0100
0000
0100
0000
,
0001
1000
0001
1000
0200
0000
0310
0000
0001
0000
0100
0001
0100
0000
0100
0000
,
0010
0000
1000
0000
0001
1000
0001
0000
1000
0010
0000
0100
0001
0000
1000
0100
,
1000
0000
0001
0000
0110
0000
1001
0000
0001
0000
1000
0010
1000
0000
1000
0000
,
0100
0000
0010
0000
0001
0100
0001
0000
1000
0000
0100
0010
0100
0000
0100
0000
,
1000
0000
0010
0000
0002
0000
0013
0000
1000
0000
0000
0010
1000
0000
1000
0000
,
0001
0000
0010
0000
0100
1000
0100
0000
1000
0001
0000
0100
0010
0000
1000
0001
,
1000
0001
1000
0000
0100
0000
0000
0000
1000
0000
0001
0100
0001
0000
1000
0000
,
0001
0000
1000
0100
1000
0000
0001
0100
0000
0010
1000
0000
0001
0100
0001
0000
,
1000
0000
0001
0100
0001
0000
1000
0000
0001
0000
1000
0100
1000
0000
0001
0000
,
1000
0000
0001
0100
0001
0000
1000
0100
0000
0010
0001
0000
1000
0100
1000
0000
,
0001
0000
1000
0000
0110
0000
1001
0000
0001
0000
0100
0010
0100
0000
0001
0000
,
1000
0000
0100
0010
0100
0000
1000
0001
0000
0100
0010
0000
1000
0001
1000
0000
,
0001
0000
0010
0100
0010
0000
0001
0000
0100
0000
0000
0010
1000
0000
0001
0000
,
1000
0000
0001
0010
0001
0000
0100
0010
0000
1000
0001
0000
1000
0100
1000
0000
,
0001
1000
0001
0000
0100
0000
0000
0000
0001
0000
0100
0000
0001
0000
0100
0000
,
0010
1000
0010
1000
0100
0010
0100
0010
,
0001
1000
0001
1000
0010
0100
0010
0100
,
0001
1000
0001
1000
0001
0010
0001
0010
,
0100
0000
1000
0000
0100
0000
1000
0000
0001
0000
0100
0010
0000
0000
1000
0000
,
0100
0010
0001
0000
0000
0000
0000
0000
;

//---------------dance-single - ----------------
#NOTES:
     dance-single:
     :
     Easy:
     7:
     0.350255,0.363124,0.106138,0.000000,0.005307,231.000000,221.000000,10.000000,0.000000,0.000000,0.000000,0.350255,0.363124,0.106138,0.000000,0.005307,231.000000,221.000000,10.000000,0.000000,0.000000,0.000000:
0000
0000
0000
0000
,
0000
0000
0000
0000
,
0000
1000
0000
0010
0000
1000
0000
0001
,
0000
0010
0000
0001
0000
0100
0000
0010
,
1000
0000
0001
0000
0100
0010
0100
0010
,
1000
0000
0001
0000
0010
0100
0010
0100
,
1000
0000
0001
0000
1000
0010
1000
0010
,
0100
0000
0001
0000
0010
0001
0010
0001
,
1000
0000
0001
1000
0100
0000
0001
0000
,
1000
0001
0100
0000
1000
0000
0001
1000
,
0100
0000
0100
1000
0001
0001
0001
0000
,
0100
0010
1000
0000
0001
0000
0010
0000
,
0001
0100
0010
0000
1000
0000
0010
0000
,
1000
0100
0001
0100
1000
0000
0010
0000
,
1000
0100
0010
0000
0001
0000
1000
0000
,
0001
0100
0101
1010
1000
0000
0010
0000
,
0100
0001
0010
0000
0001
0000
1000
0000
,
0001
0010
1000
0010
0001
0000
1000
0000
,
0010
0100
0001
0000
0010
0100
0010
0100
,
1000
0001
0110
0000
1000
0010
0100
0101
,
0001
0000
1000
0100
0010
0000
0001
0000
,
1000
0100
0001
0100
1000
0000
0001
0000
,
0100
0010
1000
0000
0001
0000
1000
0000
,
0100
0010
0011
1100
1000
0000
0001
0000
,
0100
0001
0010
0000
0100
0000
1000
0000
,
0001
0010
1000
0010
0001
0000
0100
0000
,
0010
0100
0001
0000
1000
0000
0100
0000
,
1000
0001
0110
0000
1000
0100
0001
0000
,
0001
0100
1000
0010
0000
0010
1000
0100
,
0001
0100
1000
0000
0001
0100
1000
0000
,
1000
0100
0001
0010
0000
0010
0001
0100
,
0010
1000
1001
1001
0001
0010
1000
0000
,
1000
0010
0001
0100
0000
0100
0001
0010
,
1000
0010
0001
0000
1000
0000
0001
1000
,
0010
0001
0010
1000
0000
1000
0010
0100
,
0001
1000
0110
0000
0001
0000
0100
0000
,
0010
1000
0001
0000
1000
0000
0100
0000
,
0010
0001
1000
0000
0001
0000
0100
0000
,
0010
1000
0100
0000
0010
0000
0100
0000
,
0010
0000
0001
0000
0100
0000
0000
0000
0001
0000
0000
0001
0000
0000
0001
0000
,
0010
0100
1000
0000
0000
0000
0000
0000
;

//---------------dance-single - ----------------
#NOTES:
     dance-single:
     :
     Beginner:
     2:
     0.165272,0.149522,0.000000,0.000000,0.000000,109.000000,109.000000,0.000000,0.000000,0.000000,0.000000,0.165272,0.149522,0.000000,0.000000,0.000000,109.000000,109.000000,0.000000,0.000000,0.000000,0.000000:
0000
0000
0000
0000
,
0000
0000
0000
0000
,
1000
0000
1000
0000
,
0001
0000
0001
0000
,
1000
0000
0010
0010
,
0010
0000
0100
0100
,
0100
0000
0001
0001
,
0001
0000
1000
1000
,
1000
0000
0001
0001
,
0000
1000
1000
0000
,
0001
0000
1000
1000
,
1000
0000
0001
0010
,
0001
0000
1000
0010
,
1000
0000
0001
0100
,
0001
0000
1000
0100
,
1000
0000
1000
0010
,
1000
0000
0001
0010
,
0001
0000
1000
0100
,
1000
0000
0001
0001
,
0001
0000
0100
0010
,
0100
0000
0001
0010
,
0001
0000
1000
0010
,
1000
0000
0001
0010
,
0001
0000
0001
0100
,
0001
0000
1000
0100
,
1000
0000
0001
0010
,
0001
0000
1000
0010
,
1000
0000
0001
0001
,
0001
0000
1000
1000
,
1000
0000
0100
0100
,
0100
0000
0010
0010
,
0010
0000
0001
0001
,
0001
0000
1000
1000
,
1000
0000
0010
0010
,
0010
0000
0100
0100
,
0100
0000
0001
0000
,
0001
0000
1000
0000
,
1000
0000
0100
0000
,
0100
0000
0010
0000
,
0010
0000
0001
0001
,
1000
1000
0000
0000
;
