#TITLE:Saturday Night Groove;
#SUBTITLE:;
#ARTIST:good-cool;
#TITLETRANSLIT:;
#SUBTITLETRANSLIT:;
#ARTISTTRANSLIT:;
#GENRE:Disco;
#CREDIT:;
#BANNER:Saturday Night Groove.png;
#BACKGROUND:Saturday Night Groove-bg.png;
#LYRICSPATH:;
#CDTITLE:cdtitle.png;
#MUSIC:Saturday Night Groove.ogg;
#OFFSET:-0.632476;
#SAMPLESTART:83.782089;
#SAMPLELENGTH:15.118111;
#SELECTABLE:YES;
#BPMS:0.000000=126.999992
;
#STOPS:
;
#BGCHANGES:;
#KEYSOUNDS:;
#ATTACKS:;

//---------------dance-single - ----------------
#NOTES:
     dance-single:
     :
     Challenge:
     13:
     0.566192,0.644044,0.055487,0.713402,0.542979,500.000000,493.000000,7.000000,90.000000,8.000000,0.000000,0.566192,0.644044,0.055487,0.713402,0.542979,500.000000,493.000000,7.000000,90.000000,8.000000,0.000000:
// measure 0
0000
0000
0000
0000
,  // measure 1
0000
0000
0000
0000
,  // measure 2
0000
0000
0000
0000
,  // measure 3
0000
0000
0000
0000
,  // measure 4
0001
0000
0020
0000
0000
0000
0000
0032
,  // measure 5
0000
2003
0000
3020
0000
0000
0000
0100
,  // measure 6
0000
0000
1030
0100
0020
0000
0030
2002
,  // measure 7
0000
0000
0000
0000
0000
0000
0000
0000
0000
0000
3003
0000
MMMM
0000
1000
0001
,  // measure 8
0020
0000
0000
0000
0001
0000
0000
0000
0031
0010
2000
0000
3020
0000
0032
0000
,  // measure 9
0100
0000
0000
0000
0100
0000
0000
0000
0103
0001
0020
0000
0230
0000
2300
0000
,  // measure 10
0000
0000
3100
0000
1000
0000
0001
0000
0100
0010
0100
0000
0001
0000
0010
0001
,  // measure 11
0200
0000
0000
0000
1000
0000
0310
1000
0200
0000
0000
0000
0001
0000
0310
0001
,  // measure 12
0200
0000
0000
0000
0001
0000
0000
0000
0301
0100
2000
0000
3200
0000
0302
0000
,  // measure 13
0010
0000
0000
0000
0010
0000
0000
0000
0013
0001
0200
0000
0320
0000
2030
0000
,  // measure 14
0000
0000
3001
0000
1000
0000
0010
0000
0100
0001
0010
0000
0100
0000
0010
0001
,  // measure 15
1000
0010
1000
0000
0001
0000
1000
0010
0000
1000
0010
0100
0001
0000
1000
0001
,  // measure 16
0010
0000
0000
2010
0000
0000
0001
0000
3001
0000
1000
0000
0100
0010
0000
0100
,  // measure 17
1000
0000
1000
0000
0100
0010
0000
0100
0000
0010
0100
0010
0001
0000
1000
0000
,  // measure 18
0010
0000
0000
0012
0000
0000
1000
0000
1003
0000
0000
0000
0001
0100
0000
0010
,  // measure 19
0100
0000
0100
0000
0001
0100
0000
0010
1000
0000
0001
0000
0010
0000
0000
0000
,  // measure 20
0002
0000
0000
0103
0010
0000
0100
0000
2000
0000
0000
3100
0010
0000
0100
0000
,  // measure 21
0002
0000
0000
0013
1000
0000
0010
0000
0001
0100
0010
0000
1000
0000
0001
0000
,  // measure 22
2000
0000
0000
0000
3010
0000
0100
0000
0001
0010
0100
0000
0010
0000
0001
0000
,  // measure 23
2000
0000
3010
0000
1000
0001
0002
0000
,  // measure 24
2003
0000
0000
3100
0010
0000
0100
0000
0002
0000
0000
0103
0010
0000
0100
0000
,  // measure 25
2000
0000
0000
3010
0001
0000
0010
0000
1000
0100
0010
0000
0001
0000
1000
0000
,  // measure 26
0002
0000
0000
0000
0103
0000
1000
0000
0100
0010
0100
0000
0001
0000
0010
0001
,  // measure 27
1000
0000
1000
0000
0001
0000
0001
1000
0001
0100
0010
0000
0010
0000
1000
0001
,  // measure 28
0020
0000
0000
1030
0010
0000
0001
0000
0100
0010
0100
0010
1000
0001
1000
0001
,  // measure 29
0200
0000
0000
1300
0100
0000
0001
0000
1000
0100
0010
0000
0001
0000
0100
0000
,  // measure 30
2000
0000
0000
3100
0010
0000
0100
0000
0001
0010
0001
0010
0100
1000
0100
1000
,  // measure 31
0001
0000
0000
1000
0100
0000
0001
0000
0100
0000
1000
0001
0010
0001
1000
0000
,  // measure 32
0020
0000
0000
0031
0010
0000
1000
0000
0100
0010
0100
0010
0001
1000
0001
1000
,  // measure 33
0200
0000
0000
0301
0100
0000
1000
0000
0010
0100
0010
0000
1000
0000
0100
0000
,  // measure 34
0002
0000
0000
0103
0010
0000
0100
0000
1000
0010
1000
0010
0100
0001
0100
0001
,  // measure 35
1000
0100
1000
0000
1000
0000
0001
0100
0000
0001
0100
0010
1000
0000
0001
1000
,  // measure 36
0200
0000
0320
0230
0000
0302
2003
0000
,  // measure 37
3010
0000
0002
0000
0000
0000
1003
0000
0001
0100
0001
0000
1000
0000
0001
0000
,  // measure 38
0200
0000
2300
3002
0000
0023
2030
0000
,  // measure 39
3001
0000
0010
0001
1000
0010
1000
0001
0M10
0000
0010
0000
1000
0000
0002
0000
,  // measure 40
0203
0000
0320
0230
0000
2300
3002
0000
,  // measure 41
0013
0000
2000
0000
0000
0000
3001
0000
1000
0010
1000
0000
0100
0000
0020
0000
,  // measure 42
0032
0000
0000
0000
0023
0000
2030
0000
0000
0000
3020
0000
0031
0000
0100
0010
,  // measure 43
1000
0000
1000
0000
0001
1000
0001
1000
0100
0010
0100
0010
0001
1000
0001
1000
,  // measure 44
0010
0000
1000
0000
0100
0001
0000
1000
0000
0010
0000
0002
0000
0000
0103
0000
,  // measure 45
0010
0000
1000
0000
0010
0001
0000
1000
0000
0100
0000
0002
0000
0000
0013
0000
,  // measure 46
0100
0000
1000
0000
0100
0001
0000
1000
0000
0010
0000
0002
0000
0000
0103
0000
,  // measure 47
0010
0000
0100
0000
1000
0000
0100
0000
0001
0010
0100
1000
0100
0010
0001
0000
,  // measure 48
0100
0000
0001
0000
0010
1000
0000
0001
0000
0100
0000
2000
0000
0000
3010
0000
,  // measure 49
0100
0000
0001
0000
0100
1000
0000
0001
0000
0010
0000
2000
0000
0000
3100
0000
,  // measure 50
0010
0000
0001
0000
0010
1000
0000
0010
0001
0100
0001
0100
0010
0000
1000
0001
,  // measure 51
1000
0000
0110
0000
0000
0110
0000
0000
1001
0000
0001
1000
0100
M0MM
0100
0001
,  // measure 52
1000
0000
0001
0000
0002
0000
0000
0000
0013
0001
0100
0020
0000
0000
1030
0000
,  // measure 53
0001
0000
1000
0000
2000
0000
0000
0000
3010
0000
1000
0100
0010
0000
0100
0000
,  // measure 54
0001
0000
0000
0000
0002
0000
0203
0000
2300
0000
0000
0000
3001
0000
0010
0001
,  // measure 55
0200
0000
0000
0000
1000
0000
0310
1000
0200
0000
0000
0000
0001
0000
0310
0001
,  // measure 56
0100
0000
0010
0000
0020
0000
0000
0000
1030
0001
0010
0200
0000
0000
0310
0000
,  // measure 57
0001
0000
0100
0000
0200
0000
0000
0000
0310
0000
0100
0002
0000
0000
1003
0000
,  // measure 58
0010
0000
0001
0000
0020
0000
2030
0000
3200
0000
0000
0000
0310
0000
0100
1000
,  // measure 59
0001
0100
0001
0100
0001
0000
1000
0010
0000
1000
0010
0100
0001
1000
0001
1000
,  // measure 60
0100
0000
0010
0000
0020
0000
0030
0000
0001
0000
0000
0001
0000
0000
1000
0000
,  // measure 61
0000
0010
0020
0030
1000
0010
0100
0001
,  // measure 62
1000
0000
0100
0000
0200
0000
0300
0000
1000
0000
0000
1000
0000
0000
0010
0000
,  // measure 63
0000
0100
0200
0300
0001
0010
0001
2002
,  // measure 64
0000
0000
0000
0000
,  // measure 65
3003
0000
0000
0000
;

//---------------dance-single - ----------------
#NOTES:
     dance-single:
     :
     Hard:
     10:
     0.421247,0.463712,0.095120,0.554869,0.190241,372.000000,360.000000,12.000000,70.000000,0.000000,0.000000,0.421247,0.463712,0.095120,0.554869,0.190241,372.000000,360.000000,12.000000,70.000000,0.000000,0.000000:
0000
0000
0000
0000
,
0000
0000
0000
0000
,
0000
0000
0000
0000
,
0000
0000
0000
0000
,
1000
0000
0020
0000
0000
0000
0000
2030
,
0000
3002
0000
0023
0000
0000
0000
0100
,
0000
0000
0031
0100
0020
0000
0030
2002
,
0000
0000
0000
3003
,
0021
0000
0001
0000
1030
0010
0001
0200
,
0010
0000
0010
0000
1300
0100
0001
0020
,
0100
0000
0000
0000
0130
0000
0010
0000
0002
0000
0000
0000
1003
0000
0001
0010
,
0002
0000
0000
0000
1003
0000
0001
0100
0002
0000
0000
0000
1003
0000
0100
0010
,
0200
0000
0010
0000
0301
0100
1000
0020
,
0100
0000
0100
0000
0031
0010
1000
0200
,
0010
0000
0310
0100
2000
0000
3001
0000
,
1000
0000
0010
0000
0100
0000
0001
1000
0000
0001
1000
0000
0100
0000
0010
0000
,
0012
0000
0000
2003
0000
0000
0001
0000
3001
0000
0000
0000
1000
0000
0000
0000
,
0010
0000
0100
0000
0001
0000
1000
0010
,
2010
0000
0000
3002
0000
0000
1000
0000
1003
0000
0000
0000
0100
0000
0000
0000
,
0010
0000
0001
0000
0100
0010
1000
0000
,
0001
0000
0000
0010
0000
0000
0001
0000
1000
0000
0000
0010
0000
0000
0100
0000
,
0001
0000
0000
0010
0000
0000
0100
0000
2000
0000
0000
0000
3001
0000
0000
0000
,
0200
0000
0301
2000
0000
3100
0010
0001
,
0200
0000
0310
0000
1000
0001
0002
0000
,
1003
0000
0000
0010
0000
0000
0100
0000
0001
0000
0000
0010
0000
0000
0100
0000
,
1000
0000
0000
0010
0000
0000
1000
0000
0200
0000
0000
0000
0310
0000
0000
0000
,
0002
0000
0103
1000
0200
0000
0001
0000
,
0310
1000
0010
1000
0100
0010
0020
0000
,
0031
0000
0000
0100
0000
0000
0010
0000
1000
0000
0010
0000
0100
0000
0001
0000
,
1000
0000
0000
0100
0000
0000
0010
0000
0002
0000
0000
0000
0103
0000
0010
0000
,
2000
0000
3010
0100
0001
0010
0100
1000
,
0010
0000
0000
1000
0010
0000
0000
0000
0100
0000
0001
0000
0002
0000
0000
0000
,
1003
0000
0000
0100
0000
0000
0010
0000
0001
0000
0100
0000
0010
0000
1000
0000
,
0100
0000
0000
0010
0000
0000
0001
0000
2000
0000
0000
0000
3010
0000
0100
0000
,
0002
0000
0013
0100
1000
0010
0100
0010
,
1000
0000
0001
0000
1000
0000
0100
0010
0000
0100
0010
0000
0001
0000
0000
0000
,
1002
0000
0100
0100
0000
1000
2000
0000
,
0003
0020
3000
0000
0031
0010
1000
0000
,
1200
0000
0001
0001
0000
0010
0320
0000
,
0130
0000
1000
0000
0000
0001
0000
0000
0100
0000
0000
0010
0000
0000
1000
0000
,
2001
0000
0100
0100
0000
0001
0002
0000
,
3000
0020
0003
0000
1030
0010
0001
0100
,
0020
0000
1000
1000
0000
0001
0000
0130
,
0001
1000
0001
1000
0100
0010
0001
0100
,
0010
0000
1000
0000
0001
0000
0000
0010
0000
0001
0000
2000
0000
0000
3010
0000
,
0100
0000
0001
0000
1000
0000
0000
0100
0000
1000
0000
0002
0000
0000
0103
0000
,
0010
0000
1000
0000
0001
0000
0000
0010
0000
0001
0000
2000
0000
0000
3010
0000
,
0100
0001
0010
0100
1000
0010
0100
0001
,
0010
0000
0001
0000
0100
0000
0000
0010
0000
1000
0000
0200
0000
0000
0301
0000
,
0100
0000
1000
0000
0010
0000
0000
0100
0000
0001
0000
0020
0000
0000
1030
0000
,
0010
0001
0100
0000
0010
1000
0001
0010
,
0100
0000
0110
0000
0000
0110
0000
0000
0110
0000
0000
0000
1001
0000
0001
0000
,
1000
0000
0010
0000
0020
0000
0000
0000
0130
0000
0000
0002
0000
0000
1003
0000
,
0001
0010
0020
0000
0031
0100
1000
0100
,
0001
0000
0000
0000
0002
0000
0203
0000
0320
0000
0000
0000
1030
0000
0001
0010
,
0002
0000
0000
0000
1003
0000
0001
0100
0002
0000
0000
0000
1003
0000
0100
0010
,
0100
0000
0010
0000
0020
0000
0000
0000
0031
0000
0000
2000
0000
0000
3001
0000
,
0100
0000
0010
0000
0020
0000
0000
0000
1030
0000
0000
0002
0000
0000
1003
0000
,
0100
1000
0002
0203
0320
0000
1030
0001
,
0100
0010
0100
0010
0100
0000
0000
0000
0001
0000
0100
0000
0010
0000
1000
0000
,
0001
0000
1000
0000
2000
0000
3000
0000
0010
0000
0000
0010
0000
0000
0100
0000
,
0000
0001
0002
0003
0010
0001
0100
0010
,
0000
0000
1000
0000
2000
0000
3000
0000
0100
0000
0000
0100
0000
0000
0010
0000
,
0000
0001
0002
0003
0100
0010
1000
2002
,
0000
0000
0000
0000
,
3003
0000
0000
0000
;

//---------------dance-single - ----------------
#NOTES:
     dance-single:
     :
     Medium:
     8:
     0.355569,0.386426,0.047560,0.507308,0.000000,314.000000,308.000000,6.000000,64.000000,0.000000,0.000000,0.355569,0.386426,0.047560,0.507308,0.000000,314.000000,308.000000,6.000000,64.000000,0.000000,0.000000:
0000
0000
0000
0000
,
0000
0000
0000
0000
,
0000
0000
0000
0000
,
0000
0000
0000
0000
,
0001
0000
0020
0000
0000
0000
0000
0032
,
0000
2003
0000
3020
0000
0000
0000
0100
,
0000
0000
1030
0100
0020
0000
0030
2002
,
0000
0000
0000
3003
,
0002
0000
1003
0000
0001
0010
0001
0200
,
0010
0000
0310
0000
1000
0100
1000
0020
,
0100
0000
0130
0010
2000
0000
3001
0010
,
0200
0000
1300
0010
0200
0000
0301
0010
,
0200
0000
0310
0000
0100
0010
0001
0200
,
0010
0000
0310
0000
0100
0010
1000
0200
,
0010
0000
0310
0100
2000
0000
3001
0000
,
1000
0010
0100
0001
1000
0000
0100
0010
,
0001
0012
1003
0001
,
0001
0000
1000
0000
0001
0000
0100
0010
,
1000
2010
3001
1000
,
1000
0000
0100
0000
0010
0001
0100
0000
,
0001
0100
1000
0100
,
0001
0000
0100
0010
2000
0000
3001
0000
,
1000
0000
0100
0000
0010
0001
0100
0020
,
1000
0000
0130
0000
0010
0100
0002
0000
,
1003
0100
0001
0100
,
1000
0000
0100
0010
0002
0000
1003
0000
,
0001
0000
0100
0010
2000
0000
0001
0000
,
3100
0010
0100
0010
0100
1000
0002
0000
,
0103
0000
0100
0000
0010
1000
0100
0010
,
0001
0000
0001
0000
0010
0001
1000
0000
,
0010
0000
0010
0000
0100
0001
0010
0100
,
1000
0000
1000
0000
0001
0100
0020
0000
,
1030
0000
1000
0000
0100
1000
0010
1000
,
0100
0000
0100
0000
0010
0001
0100
0000
,
0010
0000
0010
0000
0100
0001
0010
0001
,
1000
0010
1000
0000
0001
0010
0001
1000
,
0020
0000
0100
0230
0000
0001
0302
0000
,
0000
0023
0000
0000
0032
0000
1003
0000
,
0020
0000
1030
2000
0000
3100
0200
0000
,
0310
0000
0100
0000
1000
0000
0001
0100
,
0200
0000
0010
0320
0000
1030
2000
0000
,
0000
3002
0000
0000
0023
0000
0031
0000
,
2000
0000
3100
0020
0000
0032
0000
0103
,
0010
0100
0010
0100
0001
1000
0001
0000
,
1000
0000
0001
0000
0010
0001
0200
0000
,
0301
0000
1000
0000
0010
1000
0200
0000
,
0310
0000
0001
0000
0100
0010
2000
0000
,
3001
0100
0010
1000
0001
0000
1001
0000
,
1000
0000
0100
0000
0010
0001
0200
0000
,
0310
0000
1000
0000
0100
0010
0002
0000
,
0103
0000
0010
0000
1000
0100
0020
0000
,
0030
2002
0000
0000
3003
0000
0110
0000
,
0001
1000
0002
0000
0013
0000
0001
0000
,
1000
0001
2000
0000
3010
1000
0100
1000
,
0001
0000
0100
0001
2000
0000
3001
0010
,
0200
0000
1300
0010
0200
0000
0301
0010
,
0100
1000
0200
0000
0310
0000
0001
0000
,
0100
0001
0200
0000
0310
0000
1000
0000
,
0100
1000
0001
0100
0020
0000
1030
0001
,
1000
0100
1000
0000
0010
0100
0010
0100
,
0001
1000
2000
3000
0010
0000
0010
0000
,
0100
0001
0002
0003
0010
0000
0010
0000
,
0100
1000
2000
3000
0001
0000
0001
0000
,
0100
0010
0020
0030
1000
0000
0002
2000
,
0000
0000
0000
0000
,
3003
0000
0000
0000
;

//---------------dance-single - ----------------
#NOTES:
     dance-single:
     :
     Easy:
     5:
     0.263846,0.360665,0.150607,0.443895,0.000000,233.000000,214.000000,19.000000,56.000000,0.000000,0.000000,0.263846,0.360665,0.150607,0.443895,0.000000,233.000000,214.000000,19.000000,56.000000,0.000000,0.000000:
0000
0000
0000
0000
,
0000
0000
0000
0000
,
0000
0000
0000
0000
,
0000
0000
0000
0000
,
1000
0000
0020
0000
0000
0000
0000
2030
,
0000
3002
0000
0023
0000
0000
0000
0100
,
0000
0000
0130
0000
2000
0000
0000
0002
,
0000
0000
0000
3003
,
0002
0010
0013
0001
,
0200
0010
0310
0100
,
0002
0100
1003
1000
,
0002
0010
2003
0100
,
3002
0100
0103
0010
,
2000
0001
3001
1000
,
0200
1000
0310
0010
,
0001
1000
0010
0100
,
0101
0202
0303
0001
,
0001
1000
0001
1000
,
1100
2200
3300
1000
,
1000
0001
0200
0300
,
0001
0001
0100
0100
,
1000
0100
0002
0003
,
0001
0100
0010
1000
,
0200
0310
0001
0001
,
1000
1000
0100
0100
,
0001
0100
2000
3000
,
1000
0010
0200
0001
,
0310
1000
0010
1000
,
0001
0001
0010
0010
,
1000
0010
0002
0103
,
0001
0010
1000
0100
,
0001
1000
0001
0001
,
1000
1000
0010
0010
,
0001
0010
2000
3100
,
1000
0010
0001
0100
,
1000
1000
0001
0001
,
0200
0000
0000
0320
0000
0000
2030
0000
,
0000
3002
0000
0000
0013
0000
0100
0000
,
0020
0000
0000
0032
0000
0000
0203
0000
,
0001
0310
1000
0001
,
0020
0000
0000
0032
0000
0000
0203
0000
,
0000
0320
0000
0000
1030
0000
0001
0000
,
2000
3200
0320
0032
,
1003
0001
1000
0010
,
1010
2010
0001
3001
,
0011
0012
1000
1003
,
1010
0201
0010
0301
,
0001
0010
0100
1000
,
1100
2100
0001
3001
,
0101
0102
1000
1003
,
1100
0012
1000
0103
,
0000
2002
0000
0000
3003
0000
1001
0000
,
0001
0010
1000
0010
,
0001
0100
1000
0100
,
0001
1000
0100
0010
,
0002
0010
2003
0100
,
3001
0010
1000
0010
,
0001
0100
1000
0100
,
0001
0010
0100
1000
,
0001
0001
0100
0010
,
1000
2000
3000
0000
,
0001
0002
0003
0000
,
0010
0020
0030
0000
,
0100
0000
0200
0000
0300
0000
0000
2002
,
0000
0000
0000
0000
,
3003
0000
0000
0000
;

//---------------dance-single - ----------------
#NOTES:
     dance-single:
     :
     Beginner:
     2:
     0.133621,0.180332,0.023780,0.277434,0.000000,118.000000,115.000000,3.000000,35.000000,0.000000,0.000000,0.133621,0.180332,0.023780,0.277434,0.000000,118.000000,115.000000,3.000000,35.000000,0.000000,0.000000:
0000
0000
0000
0000
,
0000
0000
0000
0000
,
0000
0000
0000
0000
,
0000
0000
0000
0000
,
0001
0000
0000
0000
0000
0000
0000
1000
,
0000
0000
0000
0000
0000
0000
0000
0001
,
0000
0000
0000
0000
0000
0000
0000
1001
,
0000
0000
0000
0000
,
2000
3000
0000
0010
,
0020
0030
0000
0100
,
0200
0300
0100
0000
,
0002
0003
2000
3000
,
0002
0003
0000
0010
,
0020
0030
0000
0100
,
0200
0300
0100
0000
,
1000
0000
0001
0000
,
0100
0200
0300
0000
,
0100
0000
0100
0000
,
0010
0020
0030
0000
,
0010
0000
0010
0000
,
1000
0000
1000
0000
,
0001
0000
0001
0000
,
1000
0000
0100
0000
,
0020
0000
0030
0000
,
0001
0000
0001
0000
,
1000
0000
1000
0000
,
0001
0000
0100
0000
,
0010
0000
0010
0000
,
1000
0000
1000
0000
,
0100
0000
0100
0000
,
0010
0000
0001
0000
,
2000
0000
3000
0000
,
0001
0000
0001
0000
,
0100
0000
0100
0000
,
0010
0000
1000
0000
,
0001
0000
1000
0000
,
0200
0000
0000
0300
0000
0000
0020
0000
,
0000
0030
0000
0000
0001
0000
0000
0000
,
0200
0000
0000
0300
0000
0000
0020
0000
,
0000
0030
1000
0000
,
0200
0000
0000
0300
0000
0000
2000
0000
,
0000
3000
0000
0000
0010
0000
0000
0000
,
0100
0000
0100
0000
,
0001
0000
1000
0000
,
0100
0200
0300
0000
,
1000
2000
3000
0000
,
0001
0002
0000
0003
,
1000
0000
0001
0000
,
0100
0200
0300
0000
,
0001
0002
0003
0000
,
1000
2000
0000
3000
,
0000
2002
0000
0000
0000
0000
3003
0000
,
0000
0001
0001
0001
,
0000
1000
1000
1000
,
0000
0010
0010
0000
,
0200
0300
0002
0003
,
0000
1000
1000
1000
,
0000
0001
0001
0001
,
0000
0010
0020
0030
,
0001
0000
0100
0000
,
0010
0020
0030
0000
,
0100
0200
0300
0000
,
0001
0002
0003
0000
,
1000
0000
2000
0000
3000
0000
0000
2002
,
0000
0000
0000
0000
,
3003
0000
0000
0000
;
