#VERSION:0.83;
#TITLE:Routing;
#SUBTITLE:;
#ARTIST:かめりあ;
#TITLETRANSLIT:;
#SUBTITLETRANSLIT:;
#ARTISTTRANSLIT:Camellia;
#GENRE:Jazzy-Electro;
#ORIGIN:;
#CREDIT:;
#BANNER:Routing.png;
#BACKGROUND:Routing-bg.png;
#PREVIEWVID:;
#JACKET:Routing-jacket.png;
#CDIMAGE:;
#DISCIMAGE:;
#LYRICSPATH:;
#CDTITLE:cdtitle.png;
#MUSIC:Routing.ogg;
#OFFSET:-0.246701;
#SAMPLESTART:13.580034;
#SAMPLELENGTH:13.333333;
#SELECTABLE:YES;
#BPMS:0.000=144.000;
#STOPS:;
#DELAYS:;
#WARPS:;
#TIMESIGNATURES:0.000=4=4;
#TICKCOUNTS:0.000=4;
#COMBOS:0.000=1;
#SPEEDS:0.000=1.000=0.000=0;
#SCROLLS:0.000=1.000;
#FAKES:;
#LABELS:0.000=Song Start;
#BGCHANGES:;
#KEYSOUNDS:;
#ATTACKS:
;

//---------------dance-single - ----------------
#NOTEDATA:;
#CHARTNAME:;
#STEPSTYPE:dance-single;
#DESCRIPTION:;
#CHARTSTYLE:;
#DIFFICULTY:Challenge;
#METER:16;
#RADARVALUES:0.863768,0.854434,0.760067,0.341603,1.152910,708.000000,619.000000,89.000000,40.000000,0.000000,0.000000,22.000000,0.000000,0.000000,0.863768,0.854434,0.760067,0.341603,1.152910,708.000000,619.000000,89.000000,40.000000,0.000000,0.000000,22.000000,0.000000,0.000000;
#CREDIT:;
#NOTES:
// measure 0
0000
0000
0000
0000
,  // measure 1
0000
0000
0000
0000
,  // measure 2
0000
0000
0000
0000
,  // measure 3
0000
0000
0000
0000
,  // measure 4
1001
0000
0000
0000
1000
0010
0000
0010
0000
0000
1000
0000
0011
0000
0000
1100
,  // measure 5
0000
0000
0001
0100
0001
0100
0001
0010
0000
0110
0000
0000
0022
0000
0000
0033
,  // measure 6
1001
0000
0001
0100
0010
1000
0100
0010
0100
0010
0100
1000
1001
0000
0000
2010
,  // measure 7
0000
0000
0000
0000
3001
0000
0001
1000
0100
0010
0001
0000
0110
0000
0000
0000
,  // measure 8
1002
0000
0103
0000
0010
0000
0010
1000
0000
1000
0100
0000
0010
0000
0010
0001
,  // measure 9
0000
0001
0100
0000
4000
3400
0340
0430
0301
0000
0010
0100
0000
0010
0001
1000
,  // measure 10
0010
0000
0000
0000
0000
0000
1000
0000
0000
0000
0000
0000
0100
0000
0000
0000
0000
0000
0010
0000
0000
0001
0000
0000
0000
0000
0000
1000
0000
0000
0001
0000
0100
0000
0001
0000
0100
0000
0000
0000
0000
0000
0010
0000
0000
1000
0000
0000
,  // measure 11
0000
0001
1000
0100
0010
0001
1000
0010
0200
0000
0310
0000
0002
0000
0013
0100
,  // measure 12
0000
0120
0000
0000
1030
0100
0010
0001
0000
0001
0100
0000
0010
0000
0010
1000
,  // measure 13
0000
1000
0100
0000
0004
0403
0340
0430
1300
0000
0010
0000
0001
0000
0010
1000
,  // measure 14
0000
1000
0100
0000
0010
0000
0001
1000
0001
0100
0000
0010
0110
0000
0000
2001
,  // measure 15
0000
0000
3001
0000
0010
0100
0000
0100
1000
0010
1000
0010
0400
0304
0043
0430
,  // measure 16
2300
0000
3010
0000
0100
0000
0100
0001
0000
0001
0010
0000
0100
0000
0100
1000
,  // measure 17
0000
1000
0010
0000
0004
0043
0430
0340
1030
0000
0100
0010
0000
0001
0100
0010
,  // measure 18
1000
0000
0000
0000
0000
0000
0001
0000
0000
0000
0000
0000
0010
0000
0000
0000
0000
0000
0100
0000
0000
1000
0000
0000
0000
0000
0000
0001
0000
0000
1000
0000
0010
0000
1000
0000
0010
0000
0000
0000
0000
0000
0100
0000
0000
0001
0000
0000
,  // measure 19
1000
0000
1000
0000
0100
1000
0010
0100
0002
0000
0013
0001
0100
0010
0000
2001
,  // measure 20
0000
0000
0000
0000
0000
0000
3000
0000
0001
0000
0010
0000
0001
0000
0000
0000
0010
0000
0000
0000
1000
0000
0000
0000
0001
0000
0000
0000
0100
0000
0000
0000
1000
0000
0000
0000
0001
0000
0000
0000
0000
0000
0000
0000
0000
2001
0000
0000
,  // measure 21
0000
0000
3010
0000
4000
3040
0034
0043
1030
0000
0100
0000
0001
0000
0100
1000
,  // measure 22
0000
1000
0010
0000
0100
0000
0001
1000
0100
0000
0000
0011
0000
0000
2100
0000
,  // measure 23
0000
0000
3001
0100
0001
0000
0001
0010
0001
0000
1000
0100
1000
0000
1000
0010
,  // measure 24
1000
0000
0001
0100
0001
0000
0001
0010
0001
0000
1000
0010
0100
0010
0100
0001
,  // measure 25
2002
0000
0000
0000
,  // measure 26
0000
0000
0000
0000
0000
0000
3000
0000
0003
0000
1001
0000
0000
0110
0000
0000
,  // measure 27
1001
0000
1000
0100
0010
0001
0000
0200
0000
0000
1300
0000
0100
0010
0100
0002
,  // measure 28
0000
0000
1003
0000
0100
0000
0010
0001
0200
0000
0000
0320
0000
0000
1030
0000
,  // measure 29
1000
0000
0001
0010
0100
0010
0000
2000
0000
0000
3010
0000
0100
0010
0001
0200
,  // measure 30
0000
0000
0310
0000
1000
0000
0001
0010
0001
0000
1000
0010
1000
0100
0010
0001
,  // measure 31
0100
0010
0100
2000
0000
0000
3100
0010
1000
0000
0001
0020
0000
0030
0100
0010
,  // measure 32
0000
1001
0000
0000
0110
0000
1001
0000
0000
0001
0000
0000
0010
0100
1000
0001
,  // measure 33
0101
0000
0000
0000
0101
0000
0000
0110
0000
0000
1010
0000
0000
1001
0000
1200
,  // measure 34
0000
0000
0310
0000
0100
1000
0010
0000
0100
0000
0010
0100
0000
0001
0010
0000
,  // measure 35
1100
0000
0000
0000
1100
0000
0000
0110
0000
0000
0011
0000
0000
1001
0000
0101
,  // measure 36
0000
0000
0110
0000
1000
0002
0000
0000
1003
0000
0101
0000
0000
1001
0000
0000
,  // measure 37
1100
0000
0000
0000
1010
0000
0000
0110
0000
0000
0101
0000
0000
0011
0000
1002
,  // measure 38
0000
0000
1003
0010
0100
0010
0100
0010
0100
0010
1000
0100
0010
0001
1000
0001
,  // measure 39
0101
0000
0000
0000
0011
0000
0000
0110
0000
0000
1100
0000
0000
1010
0000
0101
,  // measure 40
0000
0000
0021
0000
0130
1000
0001
0100
0010
0000
1010
0000
0000
0101
0000
0000
,  // measure 41
2002
0000
0000
3003
,  // measure 42
1000
0000
0000
0000
0001
0000
1000
0000
0001
0000
0000
0000
1000
0000
0000
0001
0000
0000
1000
0000
0000
0001
0000
0000
1000
0000
0000
0010
0000
0000
0100
0000
0000
0001
0000
0000
0010
0000
0000
0000
0000
0000
0000
0000
0000
0000
0000
0000
,  // measure 43
0011
0000
0001
0000
0100
0000
1000
0100
0000
0010
0100
0001
1000
0100
0010
0001
,  // measure 44
0100
0000
0001
0000
0010
0000
1000
0010
0000
0001
0010
0100
1000
0010
0100
0001
,  // measure 45
1000
0000
0100
0000
1100
0000
0001
0100
0001
0100
0000
0010
1000
0001
0000
1001
,  // measure 46
0000
0000
0011
0000
1001
0000
1000
0010
0100
0000
0001
0010
0100
0000
1000
0000
,  // measure 47
0010
0000
1000
0000
0100
0000
0001
0100
0000
0010
0100
1000
0001
0100
0010
1000
,  // measure 48
0100
0000
1000
0000
0010
0000
0001
0010
0000
1000
0010
0100
0001
0010
0100
1000
,  // measure 49
0001
0000
0000
0000
0100
0000
0000
0000
0101
0000
0000
0000
0001
0000
1000
0100
1000
0000
0100
0000
0000
0000
1100
0000
0000
0000
0011
0000
0000
0000
2001
0000
,  // measure 50
0000
0000
0000
0000
0000
0000
0000
3000
4010
0000
0000
0000
0000
0000
0000
0000
0000
0000
0000
0000
0000
0000
0000
0000
0000
0000
0000
0000
0010
0000
0000
0000
0000
0000
0000
0000
0001
0000
0000
0000
0000
0000
0000
0000
0100
0000
0000
0000
0000
0000
0000
0000
0001
0000
0000
0000
0000
0000
0000
0000
0010
0000
0000
3000
,  // measure 51
1000
0000
0010
0000
1000
0100
0010
0001
0000
0001
0100
0000
1000
0000
0100
0001
,  // measure 52
0000
0000
0001
1000
0001
0000
0010
0000
0100
0000
1000
0000
0000
0000
0100
0000
0010
0000
0001
0000
1000
0000
0000
0000
0010
0000
0000
0000
0100
0000
0000
0000
,  // measure 53
0001
0000
1000
0000
0001
0000
1000
0000
0000
0000
0000
0000
2002
0000
0000
0000
0000
0000
3003
0000
0000
0000
0000
0000
0001
0000
0000
0010
0000
0000
0001
0000
0000
0000
0000
0000
1000
0000
0000
0010
0000
0000
0000
0000
0000
0001
0000
0000
,  // measure 54
0000
0010
1000
0000
0220
0000
0330
0000
1000
0100
0010
0000
0001
0000
0100
0000
,  // measure 55
1000
0000
0100
0000
0001
0010
0000
0100
0000
1000
0100
0000
0001
0000
0100
1000
,  // measure 56
0000
0000
1000
0001
1000
0000
0010
0000
0100
0000
0001
0000
0000
0000
0100
0000
0010
0000
1000
0000
0001
0000
0000
0000
0010
0000
0000
0000
0100
0000
0000
0000
,  // measure 57
2200
0000
0000
0000
0000
0000
3300
0000
0000
0000
0000
0000
0001
0000
1000
0000
0001
0000
1000
0000
0001
0000
1000
0000
0100
0000
0000
0000
0000
0000
0000
0000
0000
0011
0000
0000
0000
0000
0000
0000
0000
0000
1100
0000
0000
0000
0000
0000
,  // measure 58
0000
1010
0000
0000
0001
0100
0001
0010
0000
0100
1000
0010
0000
1010
0000
1001
,  // measure 59
0000
0000
0000
1000
0000
0000
0100
0000
0010
0000
0001
0000
1000
0000
0000
0100
0000
0000
0010
0000
0000
0100
0000
0000
0010
0000
0000
0001
0000
0000
0100
0000
0000
0010
0000
0000
1000
0000
0000
0000
0000
0000
0000
0000
0000
0000
0000
0000
,  // measure 60
1001
0000
0000
0000
0001
0010
0001
0100
0000
0000
0010
0000
1010
0000
0000
1001
,  // measure 61
0000
0000
1000
0010
0000
1000
0000
0100
0000
1100
0000
0000
0022
0000
0000
0033
,  // measure 62
1001
0000
0000
0000
1000
0010
1000
0100
0000
0010
0001
0000
0101
0000
0000
1001
,  // measure 63
0000
0000
0000
0000
0001
0000
0000
0000
0010
0000
0000
0000
0001
0000
0000
0000
0000
0000
1000
0000
0010
0000
1000
0000
0010
0000
0000
0100
0000
0000
0001
0000
0000
0100
0000
0000
0001
0000
0000
0010
0000
0000
0100
0000
0000
1000
0000
0000
,  // measure 64
1001
0000
0000
0000
0000
0000
0001
1000
0001
0000
0000
0000
1000
0000
0000
0000
0001
0000
0000
0000
0100
0000
0000
0000
0110
0000
0000
0000
0000
0000
1001
0000
,  // measure 65
0000
0001
0010
0000
0001
1000
0000
0001
0000
0101
0000
0000
1010
0000
0000
0000
,  // measure 66
1001
0000
1000
0100
0010
0001
0100
0010
0100
0010
0100
0001
1001
0000
0000
2002
,  // measure 67
0000
0000
3003
0000
0010
0010
0010
0010
,  // measure 68
0010
0010
0010
0010
0010
0010
0010
0040
,  // measure 69
0030
0000
0000
0000
;

//---------------dance-single - ----------------
#NOTEDATA:;
#CHARTNAME:;
#STEPSTYPE:dance-single;
#DESCRIPTION:;
#CHARTSTYLE:;
#DIFFICULTY:Hard;
#METER:13;
#RADARVALUES:0.650266,0.648192,0.751527,0.333063,0.580725,533.000000,445.000000,88.000000,39.000000,0.000000,0.000000,3.000000,0.000000,0.000000,0.650266,0.648192,0.751527,0.333063,0.580725,533.000000,445.000000,88.000000,39.000000,0.000000,0.000000,3.000000,0.000000,0.000000;
#CREDIT:;
#NOTES:
0000
0000
0000
0000
,
0000
0000
0000
0000
,
0000
0000
0000
0000
,
0000
0000
0000
0000
,
1001
0000
0000
0000
1000
0000
0000
0100
0000
0000
0100
0000
0110
0000
0000
1001
,
0000
0000
0001
0000
0100
0000
0000
0010
0000
0110
0000
0000
1002
0000
0000
0000
,
0013
0000
0001
0000
0100
0000
1000
0000
0100
0000
0010
0000
0110
0000
0000
2001
,
0000
0000
0000
0000
3001
0000
1000
0001
1000
0000
0100
0000
0110
0000
0000
0000
,
1002
0000
0000
0000
1003
0000
0000
0010
0000
0010
1000
0000
0001
0000
0000
0010
,
0000
0010
0100
0000
0001
0000
0100
0000
0010
0000
0000
0001
0000
1000
0010
1000
,
0000
0000
1000
0000
0100
0000
0000
0010
0000
0000
0100
0000
1000
0000
0000
0001
,
0000
0000
0100
0000
0010
0000
1000
0000
1010
0000
0000
0000
1001
0000
0000
0011
,
0000
0021
0000
0000
0031
0000
0000
0010
0000
0010
0001
0000
1000
0000
0000
0010
,
0000
0010
0100
0000
1000
0000
0100
0000
0010
0000
0000
0000
0100
0000
0000
0001
,
0000
1000
0100
0000
1000
0000
0000
0001
0000
0000
0100
0000
0010
0000
0000
0120
,
0000
1030
0100
0001
1000
0010
0001
0100
,
0210
0000
0000
0000
0310
0000
0000
1000
0000
1000
0100
0000
0010
0000
0000
0001
,
0000
0001
0100
0000
1000
0000
0100
0000
0010
0000
0000
1000
0000
0001
0010
0001
,
0000
0000
0001
0000
0100
0000
0000
0010
0000
0000
1000
0000
0001
0000
0000
0010
,
0000
0000
0100
0000
0010
0000
0001
0000
0011
0000
0000
0000
1001
0000
0000
2010
,
0000
0000
0000
0000
0000
0000
0000
0000
0000
0000
0000
0000
3001
0000
0000
0000
1000
0000
0000
0000
0001
0000
0000
0000
1000
0000
0000
0000
0001
0000
0000
0000
1000
0000
0000
0000
0100
0000
0000
0000
0000
0000
0000
0000
0000
0120
0000
0000
,
0000
0000
0031
0000
1002
0000
0000
0000
0103
0000
0000
0000
0010
0000
0000
1000
,
0000
0001
0010
0000
0100
0000
0010
0000
1001
0000
0000
1001
0000
0000
2001
0000
,
0000
3010
1000
0100
1000
0010
1000
0100
,
1000
0010
1000
0100
1000
0010
0100
0001
,
2002
0000
0000
0000
,
0000
0000
0000
0000
0000
0000
0003
0000
3000
0000
1001
0000
0000
0110
0000
0000
,
1001
0000
1000
0000
0100
0010
0000
0200
0000
0000
1300
0000
0010
0000
0100
0020
,
0000
0000
0130
0000
1000
0000
0100
0010
0200
0000
0000
0302
0000
0000
1003
0000
,
1000
0000
0001
0000
0010
0100
0000
0020
0000
0000
0031
0000
0100
0000
0010
0200
,
0000
0301
0010
0100
1000
0010
0100
0001
,
0010
0000
0001
2000
0000
0000
3000
0010
0100
0000
0100
0002
0000
0000
0000
1003
,
0000
1001
0000
0000
1001
0000
1001
0000
0000
0001
0000
0000
0100
0000
0010
0000
,
1010
0000
0000
0000
1010
0000
0000
0110
0000
0000
0101
0000
0000
1001
0000
2001
,
0000
0000
3100
0000
0010
0000
0001
0000
0100
0000
0010
1000
0000
0100
0000
0000
,
0011
0000
0000
0000
0011
0000
0000
0110
0000
0000
1100
0000
0000
1001
0000
1001
,
0000
0000
1020
0000
0000
0200
0000
0000
0330
0000
1010
0000
0000
1001
0000
0000
,
1100
0000
0000
0000
1100
0000
0000
0110
0000
0000
0011
0000
0000
1001
0000
2001
,
0000
3010
0100
0010
0100
1000
0100
0001
,
0101
0000
0000
0000
0101
0000
0000
0110
0000
0000
1010
0000
0000
1001
0000
1001
,
0000
0000
1200
0000
0000
0000
0310
0000
0001
0000
0101
0000
0000
1010
0000
0000
,
2002
0000
0000
3003
,
1000
0100
0001
0100
1000
0010
0200
0000
,
0301
0000
1000
0000
0100
0000
0010
0001
0000
0010
0001
0000
0100
0000
0010
0000
,
1000
0000
0100
0000
0001
0000
0100
0010
0000
0100
0010
0000
0100
0000
1000
0000
,
0002
0000
0000
0000
0103
0000
0010
0000
1000
0100
0000
0010
0000
0001
0000
2000
,
0000
3010
0001
0010
1000
0100
0001
0100
,
1000
0000
0001
0000
0100
0000
0010
1000
0000
0010
1000
0000
0100
0000
0010
0000
,
0001
0000
0100
0000
1000
0000
0100
0010
0000
0100
0010
0000
0100
0000
0001
0000
,
2000
0000
0000
0000
3100
0000
1000
0000
0001
0100
0000
0010
0000
0100
0000
1002
,
0000
0103
0010
1000
0100
0001
0100
1000
,
0001
0000
0100
0000
0010
1000
0000
0010
0000
1000
0100
0000
0010
0000
0010
0001
,
0000
0001
0100
0000
0001
1000
0000
1000
0000
1000
0100
0000
0010
0000
0001
0000
,
1000
0010
1000
0000
2010
0000
0000
0000
3010
0000
1000
0000
0100
0010
0000
0001
,
0000
0001
0100
0000
0201
0000
0000
0000
0301
1000
0001
0000
1000
0000
0010
0000
,
1000
0000
0100
0000
0010
0001
0000
0010
0000
0001
0100
0000
0010
0000
0010
1000
,
0000
1000
0100
0000
1000
0001
0000
0001
0000
0001
0100
0000
0010
0000
1000
0000
,
2001
0000
0000
0000
3100
0000
0010
0000
0011
0000
0000
1100
0000
0000
1010
0000
,
0000
0101
0000
0000
0011
0000
0000
0101
0000
0000
1010
0000
0000
1001
0000
1001
,
0000
0000
4000
0004
0000
0000
0000
0000
0000
0000
0000
0000
3003
0000
0000
0000
,
1001
0000
0000
0000
0001
0010
0001
0010
0000
0000
0001
0000
1001
0000
0000
0101
,
0000
0000
1000
0010
0000
1000
0000
0001
0000
0101
0000
0000
2010
0000
0000
0000
,
3001
0000
0000
0000
1000
0100
0000
0010
0000
0100
1000
0000
1001
0000
0000
0101
,
0000
1000
0010
0100
0001
0000
1000
0000
,
1001
0000
0000
0001
0010
0000
0001
0000
0010
0000
0100
0000
0110
0000
0000
1001
,
0000
1000
0010
0000
1000
0010
0000
0100
0000
0110
0000
0000
1002
0000
0000
0000
,
0013
0000
0001
0000
0100
0000
1000
0000
0100
0000
0001
0000
0011
0000
0000
2200
,
0000
0000
3300
0000
1000
0001
1000
0001
,
1000
0001
1000
0001
1000
0001
1000
0004
,
0003
0000
0000
0000
;

//---------------dance-single - ----------------
#NOTEDATA:;
#CHARTNAME:;
#STEPSTYPE:dance-single;
#DESCRIPTION:;
#CHARTSTYLE:;
#DIFFICULTY:Medium;
#METER:9;
#RADARVALUES:0.394063,0.441148,0.358683,0.341603,0.256202,323.000000,281.000000,42.000000,40.000000,0.000000,0.000000,0.000000,0.000000,0.000000,0.394063,0.441148,0.358683,0.341603,0.256202,323.000000,281.000000,42.000000,40.000000,0.000000,0.000000,0.000000,0.000000,0.000000;
#CREDIT:;
#NOTES:
0000
0000
0000
0000
,
0000
0000
0000
0000
,
0000
0000
0000
0000
,
0000
0000
0000
0000
,
1001
0000
0000
0000
0000
0000
0000
0000
0000
0000
0000
0000
1001
0000
0000
0110
,
0000
0000
0000
0000
0000
0000
0000
0000
0000
0110
0000
0000
1002
0000
0000
0000
,
1003
0000
0100
0000
0010
0000
0001
0000
1000
0000
0010
0000
0100
0000
0000
0210
,
0000
0000
0000
0310
,
1001
0000
0000
0000
1000
0000
0000
0100
0000
0000
1000
0000
0001
0000
0000
0100
,
0000
0001
1000
0000
0100
0000
0010
0100
,
1000
0000
0000
0000
0001
0000
0000
0100
0000
0000
0010
0000
1000
0000
0000
0100
,
0000
0000
0010
0000
0001
0000
0000
0000
0011
0000
0000
0000
1001
0000
0000
0101
,
0000
0000
0000
0000
1000
0000
0000
0010
0000
0000
1000
0000
0001
0000
0000
0010
,
0000
0000
0001
0000
1000
0000
0000
0000
0010
0000
0000
0000
0100
0000
0000
0001
,
0000
0000
1000
0000
0100
0000
0000
0010
0000
0000
0100
0000
1000
0000
0000
2002
,
0000
0000
3003
0000
1000
0001
1000
0000
,
1001
0000
0000
0000
0001
0000
0000
0100
0000
0000
0001
0000
1000
0000
0000
0100
,
0000
1000
0001
0000
0100
0000
0010
0100
,
0001
0000
0000
0000
1000
0000
0000
0100
0000
0000
0010
0000
0001
0000
0000
0100
,
0000
0000
0010
0000
1000
0000
0000
0000
1010
0000
0000
0000
1001
0000
0000
1200
,
0000
0000
0000
0000
0320
0000
0000
0000
0032
0000
0000
0000
0103
0000
0000
1001
,
0000
0000
1000
0000
0001
0000
0000
0000
0010
0000
0000
0000
0100
0000
0000
1000
,
0000
0000
0010
0000
0100
0000
0000
0000
0100
0000
0000
0010
0000
0000
2001
0000
,
0000
3001
1000
0001
,
1000
0000
0001
0000
1000
0000
0100
0010
,
2002
0000
0000
0000
,
0000
0000
0000
0000
0000
0000
3003
0000
0000
0000
0010
0000
0000
0100
0000
0000
,
1001
0000
1000
0100
0010
0000
0001
0100
,
0010
0000
0000
0000
1000
0000
0100
0000
0020
0000
0000
0031
0000
0000
0001
0000
,
1000
0000
0010
1000
0100
0000
0010
0001
,
0100
0000
0010
0000
0100
0001
1000
0100
,
0010
0000
0000
0001
0000
0000
0100
0000
0010
0000
0000
1000
0000
0000
0000
2002
,
0000
0000
0000
3003
,
1000
0000
0000
0000
0100
0000
0000
1000
0000
0000
0100
0000
0000
0010
0000
0220
,
0000
0000
0000
0330
,
0001
0000
0000
0000
0100
0000
0000
0001
0000
0000
0100
0000
0000
0001
0000
0100
,
0000
0000
0220
0000
0000
0000
0330
0000
0000
0000
0001
0000
0000
1000
0000
0000
,
0001
0000
0000
0000
0010
0000
0000
0001
0000
0000
0010
0000
0000
0100
0000
0220
,
0000
0000
0000
0330
,
1000
0000
0000
0000
0010
0000
0000
1000
0000
0000
0010
0000
0000
1000
0000
0010
,
0000
0000
0220
0000
0000
0000
0330
0000
0000
0000
0100
0000
0000
0100
0000
0000
,
2002
0000
0000
3003
,
2000
0000
3200
0000
0301
0100
1000
0000
,
0001
0000
0100
0000
0010
0000
0000
1000
0000
0000
0010
0000
0100
0000
0000
0000
,
0001
0000
0010
0000
0100
0000
0000
0010
0000
0000
0001
0000
0100
0000
0000
0000
,
0210
0000
0000
0000
0301
0000
1000
0000
0100
0000
0000
0000
0010
0000
0000
0100
,
0000
0010
0002
0000
0203
0000
0320
0000
,
1030
0000
0100
0000
0010
0000
0000
0001
0000
0000
0010
0000
0100
0000
0000
0000
,
1000
0000
0010
0000
0100
0000
0000
0010
0000
0000
1000
0000
0100
0000
0000
0000
,
0210
0000
0000
0000
1300
0000
0001
0000
0100
0000
0000
0010
0000
0010
0000
0020
,
0000
2030
0000
3001
1000
0001
1000
0100
,
0020
0000
0031
0100
1000
0000
1000
0100
,
0001
0000
1000
0000
0001
0010
0100
0000
,
0010
0000
0001
0000
2000
0000
0000
0000
3001
0000
0100
0000
0010
0000
0000
1000
,
0000
1000
0100
0000
0010
0001
0100
0000
,
0010
0000
1000
0100
0001
0000
0001
0100
,
1000
0000
0001
0000
1000
0010
0100
0000
,
0220
0000
0000
0000
0330
0000
0000
0000
1000
0000
0000
1000
0000
0000
0001
0000
,
0000
0001
0000
0000
1000
0000
0000
0100
0000
0000
0010
0000
0000
0001
0000
0200
,
0000
0000
0000
0310
,
1001
0000
0000
0000
0000
0000
0000
0000
0000
0000
0000
0000
1001
0000
0000
0110
,
0000
0000
0000
0000
0000
0000
0000
0000
0000
0110
0000
0000
1001
0000
0000
0000
,
1001
0000
0000
0000
0000
0000
0000
0000
0000
0000
0000
0000
1100
0000
0000
0011
,
0000
0000
0000
0000
,
1001
0000
0000
0000
0000
0000
0000
0000
0000
0000
0000
0000
0101
0000
0000
1010
,
0000
0000
0000
0000
0000
0000
0000
0000
0000
0110
0000
0000
2001
0000
0000
0000
,
3001
0000
0100
0000
0010
0000
1000
0000
0001
0000
0010
0000
0100
0000
0000
0220
,
0000
0000
0000
0000
,
0000
0000
0000
0000
0000
0000
0000
0330
;

//---------------dance-single - ----------------
#NOTEDATA:;
#CHARTNAME:;
#STEPSTYPE:dance-single;
#DESCRIPTION:;
#CHARTSTYLE:;
#DIFFICULTY:Easy;
#METER:5;
#RADARVALUES:0.268402,0.323509,0.230582,0.315983,0.089671,220.000000,193.000000,27.000000,37.000000,0.000000,0.000000,0.000000,0.000000,0.000000,0.268402,0.323509,0.230582,0.315983,0.089671,220.000000,193.000000,27.000000,37.000000,0.000000,0.000000,0.000000,0.000000,0.000000;
#CREDIT:;
#NOTES:
0000
0000
0000
0000
,
0000
0000
0000
0000
,
0000
0000
0000
0000
,
0000
0000
0000
0000
,
1001
0000
0000
0000
0000
0000
0000
0000
0000
0000
0000
0000
1000
0000
0000
1000
,
0000
0000
0000
0000
0000
0000
0000
0000
0000
0001
0000
0000
0001
0000
0000
0000
,
1000
0000
0000
0000
0100
0000
0000
0000
0010
0000
0000
0000
0001
0000
0000
2002
,
0000
0000
0000
3003
,
0001
0001
0100
0100
,
0010
1000
1000
0001
,
1000
1000
0100
0100
,
0010
0000
0000
0000
0001
0000
0000
0000
0100
0000
0000
0000
0010
0000
0000
0010
,
0000
1000
0001
0001
,
1000
0100
0100
0010
,
0001
0000
0000
0000
0100
0000
0000
0000
1000
0000
0000
0000
0010
0000
0000
0002
,
0000
0100
0103
0010
,
1000
1000
0100
0100
,
0010
0001
0001
1000
,
0001
0001
0100
0100
,
0010
0000
0000
0000
1000
0000
0000
0000
0100
0000
0000
0000
0010
0000
0000
0010
,
0000
0000
0000
0000
2002
0000
0000
0000
0000
0000
0000
0000
3003
0000
0000
1000
,
0000
0001
1000
0010
,
1000
0000
0100
0000
0110
0000
0000
1002
,
0000
0103
0010
0100
,
0010
0100
0010
0100
,
0220
0000
0000
0000
,
0000
0000
0000
0000
0000
0330
0000
0000
,
1000
0100
0001
0100
,
1000
1000
0010
0100
,
0001
0010
1000
0010
,
0001
0001
0100
1000
,
0010
0001
0100
0010
,
0000
2002
0000
0000
0000
0000
0000
0000
0000
0000
0000
0000
3003
0000
0000
0000
,
0202
0000
0000
0000
0000
0000
0000
0000
0000
0000
0303
0000
0000
0000
0000
2010
,
0000
0000
0000
3001
,
2200
0000
0000
0000
0000
0000
0000
0000
0000
0000
3300
0000
0000
0000
0000
0011
,
0000
0012
0000
0000
0000
0103
0000
0000
,
2002
0000
0000
0000
0000
0000
0000
0000
0000
0000
3003
0000
0000
0000
0000
0102
,
0000
0000
0000
1003
,
2002
0000
0000
0000
0000
0000
0000
0000
0000
0000
3003
0000
0000
0000
0000
1100
,
0000
2100
0000
0000
0000
3100
0000
0000
,
2002
0000
0000
3003
,
2000
3020
0230
0301
,
1000
0100
0100
0001
,
0100
1000
1000
0010
,
0200
0300
0001
0010
,
0100
0010
0001
1000
,
0001
0100
0100
1000
,
0100
0001
0001
0010
,
0200
0000
0000
0000
0300
0000
0000
0000
0100
0000
0000
0010
0000
0000
0000
2002
,
0000
3003
0000
0000
1000
0000
0001
0000
,
1000
0010
1000
0100
,
0010
0100
1000
1000
,
0001
0101
0001
1000
,
0100
0110
0100
1000
,
0001
0010
0001
0100
,
0010
0100
0001
0001
,
2002
0000
3003
0000
1000
0000
0000
0001
,
0000
0000
0000
0000
1000
0000
0000
0000
0000
0000
0001
0000
0000
0000
0000
0220
,
0000
0000
0000
0330
,
1001
0000
0000
0000
0000
0000
0000
0000
0000
0000
0000
0000
0010
0000
0000
0010
,
0000
0000
0000
0000
0000
0000
0000
0000
0000
0100
0000
0000
0100
0000
0000
0000
,
1001
0000
0000
0000
0000
0000
0000
0000
0000
0000
0000
0000
0100
0000
0000
0100
,
0000
0000
0000
0000
,
1001
0000
0000
0000
0000
0000
0000
0000
0000
0000
0000
0000
1000
0000
0000
1000
,
0000
0000
0000
0000
0000
0000
0000
0000
0000
0001
0000
0000
0001
0000
0000
0000
,
1000
0000
0000
0000
0100
0000
0000
0000
0010
0000
0000
0000
0001
0000
0000
2002
,
0000
0000
0000
0000
,
0000
0000
0000
0000
0000
0000
0000
3003
;

//---------------dance-single - ----------------
#NOTEDATA:;
#CHARTNAME:;
#STEPSTYPE:dance-single;
#DESCRIPTION:;
#CHARTSTYLE:;
#DIFFICULTY:Beginner;
#METER:2;
#RADARVALUES:0.150061,0.205869,0.136641,0.179342,0.000000,123.000000,107.000000,16.000000,21.000000,0.000000,0.000000,0.000000,0.000000,0.000000,0.150061,0.205869,0.136641,0.179342,0.000000,123.000000,107.000000,16.000000,21.000000,0.000000,0.000000,0.000000,0.000000,0.000000;
#CREDIT:;
#NOTES:
0000
0000
0000
0000
,
0000
0000
0000
0000
,
0000
0000
0000
0000
,
0000
0000
0000
0000
,
0110
0000
0000
0000
,
1001
0000
0000
0000
,
0100
0100
0100
0100
,
0100
0000
0000
0000
,
0001
0000
0001
0000
,
0010
0000
0010
0000
,
0001
0000
0001
0000
,
1000
0000
1000
0000
,
0001
0000
0001
0000
,
0100
0000
0100
0000
,
0001
0000
1000
0000
,
2002
0000
3003
0000
,
1000
0000
1000
0000
,
0010
0000
0010
0000
,
1000
0000
1000
0000
,
0100
0000
0100
0000
,
2002
0000
3003
0000
,
0001
0000
0100
0000
,
0010
0000
1000
0000
,
2002
0000
0000
0000
,
0000
0000
3003
0000
,
0220
0000
0000
0000
,
0000
0000
0000
0000
0000
0330
0000
0000
,
1000
0000
0100
0000
,
1000
0000
0100
0000
,
0010
0000
0001
0000
,
0010
0000
0001
0000
,
1000
0000
0010
0000
,
0220
0000
0330
0000
,
2000
0000
0000
0000
0000
0000
0000
0000
0000
0000
0000
0000
0000
0000
0000
3000
,
0000
0000
0000
0001
,
0002
0000
0000
0000
0000
0000
0000
0000
0000
0000
0000
0000
0000
0000
0000
0003
,
0000
0000
0000
0000
,
0020
0000
0000
0000
0000
0000
0000
0000
0000
0000
0000
0000
0000
0000
0000
0030
,
0000
0000
0000
0100
,
0200
0000
0000
0000
0000
0000
0000
0000
0000
0000
0000
0000
0000
0000
0000
0300
,
0000
0000
0000
0000
,
2002
0000
3003
0000
,
0020
0000
0030
0000
,
1000
1000
1000
0000
,
0001
0001
0001
0000
,
0100
0000
0001
0001
,
0001
0000
0010
0000
,
0001
0001
0001
0000
,
1000
1000
1000
0000
,
0010
0000
0100
0100
,
0100
0000
0010
0010
,
0010
0000
1000
0000
,
0001
0000
0010
0000
,
0001
0001
0001
0000
,
1000
1000
1000
0000
,
0010
0000
1000
0000
,
0001
0000
0010
0000
,
0110
0000
2002
0000
,
0000
0000
3003
0000
,
0020
0000
0030
0000
,
0110
0000
0000
0000
,
1001
0000
0000
0000
,
0110
0000
0000
0000
,
1001
0000
0000
0000
,
0110
0000
0000
0000
,
1001
0000
0000
0000
,
0100
0100
0100
0100
,
0200
0000
0000
0000
,
0000
0000
0000
0000
0000
0000
0000
0300
;
