#VERSION:0.83;
#TITLE:Roundtable Rival;
#SUBTITLE:;
#ARTIST:Lindsey Stirling;
#TITLETRANSLIT:;
#SUBTITLETRANSLIT:;
#ARTISTTRANSLIT:;
#GENRE:Western EDM;
#ORIGIN:;
#CREDIT:Another;
#BANNER:Roundtable Rival.png;
#BACKGROUND:Roundtable Rival-bg.png;
#PREVIEWVID:;
#JACKET:Roundtable Rival-jacket.png;
#CDIMAGE:;
#DISCIMAGE:;
#LYRICSPATH:;
#CDTITLE:cdtitle.png;
#MUSIC:Roundtable Rival.ogg;
#OFFSET:-0.005608;
#SAMPLESTART:60.005352;
#SAMPLELENGTH:15.000000;
#SELECTABLE:YES;
#BPMS:0.000=128.000;
#STOPS:124.000=1.406,
217.000=1.406;
#DELAYS:;
#WARPS:;
#TIMESIGNATURES:0.000=4=4;
#TICKCOUNTS:0.000=4;
#COMBOS:0.000=1;
#SPEEDS:0.000=1.000=0.000=0;
#SCROLLS:0.000=1.000;
#FAKES:;
#LABELS:0.000=Song Start;
#BGCHANGES:;
#KEYSOUNDS:;
#ATTACKS:
;

//---------------dance-single - ----------------
#NOTEDATA:;
#CHARTNAME:;
#STEPSTYPE:dance-single;
#DESCRIPTION:;
#CHARTSTYLE:;
#DIFFICULTY:Hard;
#METER:10;
#RADARVALUES:0.410622,0.453622,0.097161,0.380548,0.036435,355.000000,343.000000,12.000000,47.000000,0.000000,0.000000,0.000000,0.000000,0.000000,0.410622,0.453622,0.097161,0.380548,0.036435,355.000000,343.000000,12.000000,47.000000,0.000000,0.000000,0.000000,0.000000,0.000000;
#CREDIT:;
#NOTES:
0000
0000
0000
0000
,
0000
0000
0000
0000
,
0000
0000
0000
0000
,
0000
0000
0000
0000
,
0001
0000
0010
0000
0001
0100
0010
0000
,
1000
0010
0100
0001
0010
0001
0100
0010
,
1000
0000
0010
0000
1000
0100
0010
0000
,
0200
0000
0000
0310
,
1001
0000
1010
0000
0010
0100
0001
0000
,
1000
0100
0010
0001
0100
0010
1000
0000
,
1001
0000
0011
0000
0010
0100
1000
0000
,
0001
0100
0010
0100
1000
0100
0001
0000
,
1000
0001
0010
0001
0100
0001
1000
0000
,
0001
0010
0100
1000
0001
0100
0010
1000
,
0001
1000
0010
1000
0100
1000
0001
0000
,
0200
0000
0000
0300
,
1001
0000
0001
0100
0001
0100
0010
1000
,
0000
0001
0100
0001
0020
0000
0130
0000
,
1000
0000
1000
0100
1000
0100
0010
0001
,
0000
0000
0100
0000
0000
0100
0000
0000
0010
0000
0000
0000
0010
0000
0000
0000
,
2000
0000
3001
0010
0001
0010
0100
1000
,
0000
1000
0010
0100
0020
0000
2030
0000
,
3002
0000
1003
0100
1000
0100
0010
0001
,
0000
0000
0002
0000
0000
0203
0000
0000
0320
0000
0000
0000
0030
0000
0000
0000
,
2000
0000
3100
0010
0100
0010
0001
0100
,
0000
0100
0010
1000
0002
0000
0023
0000
,
0032
0000
0103
0010
0100
0010
1000
0100
,
0000
0000
0200
0000
0000
2300
0000
0000
3002
0000
0000
0000
0003
0000
0000
0000
,
1000
1000
0100
0100
,
0010
0010
0001
0001
,
1000
0001
0100
0010
1000
0100
0010
0001
,
0100
0000
2001
0000
3010
1000
0010
1000
,
0100
0001
0000
0001
0100
1000
0010
1000
,
0200
0000
2300
0000
3010
1000
0010
1000
,
0100
0010
0001
0100
0010
1000
0001
1000
,
0200
0300
1002
0000
0013
0001
0010
0001
,
0100
1000
0000
1000
0100
0001
0010
0001
,
0200
0000
0302
0000
0013
0001
0010
0001
,
0100
0010
1000
0010
0001
0010
0100
0010
,
2000
0000
3100
0010
0001
0010
0200
0000
,
1300
0002
0203
0320
,
2030
0000
3001
0000
1001
0001
0100
0000
,
1001
1000
0010
0000
1001
0001
1000
0100
,
0001
0100
1000
0001
0010
0001
0100
0001
,
1000
0000
0001
0010
0100
1000
0010
0100
,
0001
0010
0001
1000
0010
1000
0100
1000
,
0001
2000
0000
0000
,
3000
0000
0002
0000
1003
0100
0010
0100
,
1000
0000
0001
1000
0001
0000
0000
0001
0000
0000
1000
0000
0200
0000
0000
0000
,
0310
0001
2000
0000
3001
0100
0010
1000
,
0001
0000
0010
0000
0100
0000
2000
0000
0000
3002
0000
0000
0203
0000
0000
0000
,
0310
0100
0010
0100
0010
0000
0000
0000
0010
0000
0000
0000
1000
0000
0000
0000
,
1000
0001
0001
0010
,
0010
0000
0001
0100
0010
1000
0100
0010
,
0001
0100
0010
0000
1002
0000
0000
0203
,
0000
0000
2300
0000
0000
3100
1000
0100
,
0001
0000
0010
0000
0200
0000
0000
0000
0310
0000
0000
0010
0000
0000
0010
0000
,
0002
0000
1003
0010
0100
0001
1000
0100
,
0010
0100
1000
0001
2000
0000
0000
3020
,
0000
0000
0032
0000
0000
0013
0001
0010
,
1000
0010
0200
0000
0301
1000
0001
0010
,
0100
1000
0010
1000
0001
1000
1000
0020
,
0000
0130
0110
0000
0000
0000
0000
0000
;

//---------------dance-single - ----------------
#NOTEDATA:;
#CHARTNAME:;
#STEPSTYPE:dance-single;
#DESCRIPTION:;
#CHARTSTYLE:;
#DIFFICULTY:Medium;
#METER:7;
#RADARVALUES:0.309991,0.352817,0.113355,0.251000,0.012145,268.000000,254.000000,14.000000,31.000000,0.000000,0.000000,0.000000,0.000000,0.000000,0.309991,0.352817,0.113355,0.251000,0.012145,268.000000,254.000000,14.000000,31.000000,0.000000,0.000000,0.000000,0.000000,0.000000;
#CREDIT:;
#NOTES:
0000
0000
0000
0000
,
0000
0000
0000
0000
,
0000
0000
0000
0000
,
0000
0000
0000
0000
,
0001
0000
0010
0000
0001
1000
0001
0000
,
0100
0010
1000
0001
,
1000
0000
0010
0000
1000
0001
1000
0000
,
0200
0000
0300
1001
,
1000
0000
0010
0000
1000
0001
1000
0000
,
0001
0010
0100
1000
,
0001
0000
0010
0000
0001
1000
0001
0000
,
0100
0010
0100
0010
0100
0000
0010
0000
,
1000
0000
0001
0000
1000
0100
1000
0000
,
0010
0100
0001
0010
,
0001
0000
1000
0000
0001
0100
0001
0000
,
2000
0000
0000
3000
,
1001
0000
0001
0000
0001
0000
1000
0100
,
0000
1000
0100
0000
0020
0000
0031
0000
,
1000
0000
0001
0000
0001
0000
1000
0100
,
0000
0000
1000
0000
0000
1000
0000
0000
2000
0000
0000
0000
3001
0000
0000
0000
,
0002
0000
0103
0000
0100
0000
0010
1000
,
0000
0010
1000
0000
0002
0000
0013
0000
,
0002
0000
0103
0000
0100
0000
0010
1000
,
0000
0000
0001
0000
0000
0001
0000
0000
0002
0000
0000
0000
0003
0000
0000
0000
,
2000
0000
3100
0000
0100
0000
0010
0001
,
0000
0010
0001
0000
2000
0000
3010
0000
,
2000
0000
3100
0000
0100
0000
0010
0001
,
0000
0000
1000
0000
0000
1000
0000
0000
2000
0000
0000
0000
3000
0000
0000
0000
,
0001
0001
0100
0100
,
0010
0010
1000
1000
,
0001
1000
0001
1000
0001
1000
0001
1000
,
0001
2001
3010
0010
,
1000
0100
0000
0010
0001
0000
1000
0001
,
2000
3002
0103
0100
,
0010
0000
1000
0000
0100
0000
0010
0001
,
0200
0300
1002
0000
0013
0000
0010
0000
,
0001
0100
0000
0010
1000
0000
0001
1000
,
0002
2003
3100
0100
,
0010
0000
1001
0000
0000
0110
0000
0000
,
1001
0001
0100
0020
,
0030
2000
3200
0320
,
0032
1003
1010
0000
,
0101
0000
1100
0000
,
0011
0000
0001
0000
0010
0000
0001
1000
,
0001
0000
0100
0000
0010
0000
1000
0010
,
0100
0001
1000
0000
0010
0000
1000
0001
,
1000
0200
0000
0000
,
0300
0000
1000
0000
0000
0001
0100
0000
,
0000
0010
0010
0000
0000
1000
0001
0000
,
1000
0001
1000
0000
0000
0001
0010
0000
,
0100
1000
0001
0000
0000
0100
0010
0000
,
1000
0001
1000
0000
1000
0000
0100
0000
,
0100
0010
0010
0001
,
0001
0000
1000
0001
1000
0001
1000
0001
,
1000
0001
1000
0000
0002
0000
0000
0023
,
0000
0230
0000
0310
,
0100
1000
0001
0000
0100
0000
0100
0000
,
0010
0000
1000
0010
0100
0000
0001
0000
,
1000
0100
0010
0001
2000
0000
0000
3200
,
0000
0320
0000
0031
,
0100
0000
0010
0000
1000
0001
1000
0000
,
0100
0010
0100
0000
1001
0000
0000
0110
,
0000
1001
0000
0000
;

//---------------dance-single - ----------------
#NOTEDATA:;
#CHARTNAME:;
#STEPSTYPE:dance-single;
#DESCRIPTION:;
#CHARTSTYLE:;
#DIFFICULTY:Easy;
#METER:4;
#RADARVALUES:0.197793,0.252012,0.056677,0.121452,0.000000,171.000000,164.000000,7.000000,15.000000,0.000000,0.000000,0.000000,0.000000,0.000000,0.197793,0.252012,0.056677,0.121452,0.000000,171.000000,164.000000,7.000000,15.000000,0.000000,0.000000,0.000000,0.000000,0.000000;
#CREDIT:;
#NOTES:
0000
0000
0000
0000
,
0000
0000
0000
0000
,
0000
0000
0000
0000
,
0000
0000
0000
0000
,
0001
0001
1000
1000
,
0010
0010
0100
0100
,
0001
0001
1000
1000
,
0200
0000
0000
0310
,
0001
0000
1000
0000
,
0001
0100
0010
1000
,
0001
0000
1000
0000
,
0001
0010
0100
1000
,
0010
0000
0100
0000
,
0010
1000
0001
0010
,
0100
0000
0010
0000
,
0002
0000
0000
0003
,
1000
0000
0001
0000
,
0000
1000
0001
0000
,
1000
0000
0001
0000
,
2002
0000
0000
3003
,
0001
0000
0001
0000
,
0100
0000
0010
0000
,
1000
0000
1000
0000
,
0100
0000
0010
0000
,
0001
0000
0001
0000
,
1000
0000
0010
0000
,
0100
0000
0100
0000
,
0001
0000
1000
0000
,
0001
0001
1000
1000
,
0001
0001
1000
1000
,
0001
1000
0001
1000
,
0100
1000
0001
1000
,
0001
0000
0100
0010
,
0100
0001
1000
0001
,
1000
0010
0100
0010
,
2000
3001
0010
0001
,
0010
0000
0100
1000
,
0010
1000
0001
1000
,
0001
2002
0000
0000
,
3003
0001
0010
0001
,
0000
0001
0100
0010
,
1000
0001
1001
0000
,
0110
0000
0110
0000
,
1001
1000
0000
0001
,
0000
1000
0100
0010
,
0001
1000
0000
0001
,
0000
0200
0000
0000
,
0300
0010
0000
1000
,
0000
0001
0000
1000
,
0000
0100
0000
1000
,
0000
1001
0000
0001
,
0000
1000
1000
0001
,
0001
1000
1000
0001
,
0001
1000
0001
1000
,
0001
0100
0002
0000
,
2003
0000
3100
0010
,
0100
1000
0020
0000
,
0230
0000
0301
0100
,
0010
1000
0002
0000
,
0023
0000
0130
0010
,
0001
0100
0010
0010
,
1000
1000
0002
0000
,
0000
1003
0000
0000
;

//---------------dance-single - ----------------
#NOTEDATA:;
#CHARTNAME:;
#STEPSTYPE:dance-single;
#DESCRIPTION:;
#CHARTSTYLE:;
#DIFFICULTY:Beginner;
#METER:2;
#RADARVALUES:0.138802,0.252012,0.072871,0.000000,0.000000,120.000000,111.000000,9.000000,0.000000,0.000000,0.000000,0.000000,0.000000,0.000000,0.138802,0.252012,0.072871,0.000000,0.000000,120.000000,111.000000,9.000000,0.000000,0.000000,0.000000,0.000000,0.000000,0.000000;
#CREDIT:;
#NOTES:
0000
0000
0000
0000
,
0000
0000
0000
0000
,
0000
0000
0000
0000
,
0000
0000
0000
0000
,
0001
0000
1000
0000
,
0001
0000
1000
0000
,
0001
0000
1000
0000
,
0100
0000
0000
0000
,
1000
0000
0001
0000
,
0100
0100
0100
0000
,
0001
0000
1000
0000
,
0100
0100
0100
0000
,
1000
0000
0010
0000
,
0100
0100
0100
0000
,
0001
0000
0010
0000
,
0100
0000
0000
0000
,
1001
0000
0000
0000
,
0000
0000
0000
0000
,
0000
0000
0000
0000
,
0110
0000
0000
0000
,
0001
0000
0000
0000
,
1000
0000
0000
0000
,
0001
0000
0000
0000
,
1000
0000
0000
0000
,
0100
0000
0000
0000
,
0010
0000
0000
0000
,
0100
0000
0000
0000
,
0010
0000
0000
0000
,
0001
0000
1000
0000
,
0001
0000
1000
0000
,
0001
1000
0001
1000
,
0001
1000
1000
1000
,
0000
0010
0000
0100
,
0000
0001
0001
0001
,
0000
0010
0010
0010
,
0000
0001
0001
0001
,
0000
0100
0000
0010
,
0000
1000
1000
1000
,
0000
1001
0000
0000
,
0000
0001
0000
0010
,
0000
0001
0000
0100
,
0000
0000
1001
0000
,
1001
0000
1001
0000
,
1001
1001
0000
0001
,
0000
0100
0100
0100
,
0000
0001
0000
1000
,
0000
0100
0000
0000
,
0000
1000
0000
0000
,
0000
0001
0000
0000
,
0000
1000
0000
0000
,
0000
0001
0000
0000
,
0000
1000
0000
0001
,
0000
1000
0000
0001
,
0000
1000
0001
1000
,
0001
1000
0001
0000
,
1000
0000
0100
0100
,
0100
0000
0010
0000
,
0100
0000
0010
0000
,
0001
0000
1000
0000
,
0010
0000
0100
0100
,
0100
0000
0001
0000
,
1000
0000
0100
0000
,
0000
1001
0000
0000
;

//---------------dance-single - ----------------
#NOTEDATA:;
#CHARTNAME:;
#STEPSTYPE:dance-single;
#DESCRIPTION:;
#CHARTSTYLE:;
#DIFFICULTY:Challenge;
#METER:12;
#RADARVALUES:0.492746,0.630030,0.137645,0.404839,0.275290,426.000000,409.000000,17.000000,50.000000,0.000000,3.000000,0.000000,0.000000,0.000000,0.492746,0.630030,0.137645,0.404839,0.275290,426.000000,409.000000,17.000000,50.000000,0.000000,3.000000,0.000000,0.000000,0.000000;
#CREDIT:;
#NOTES:
// measure 0
0000
0000
0000
0000
,  // measure 1
0000
0000
0000
0000
,  // measure 2
0000
0000
0000
0000
,  // measure 3
0000
0000
0000
0000
,  // measure 4
0001
0000
0000
0000
0010
0000
0000
0000
0001
1000
0001
1000
0001
0000
0000
0000
,  // measure 5
1000
0000
0010
0100
0010
0000
1000
0000
0010
0000
0001
0000
0010
0000
1000
0000
,  // measure 6
0100
0000
0000
0000
0010
0000
0000
0000
0001
1000
0001
1000
0001
0000
0000
0000
,  // measure 7
0200
0000
0300
0110
,  // measure 8
0010
0000
0000
0000
1001
0000
0000
0000
0001
1000
0001
1000
0001
0000
0000
0000
,  // measure 9
1000
0000
0001
0010
0001
0000
0100
0000
0010
0000
1000
0000
0001
0010
0001
0000
,  // measure 10
0100
0000
0000
0000
1001
0000
0000
0000
1000
0001
1000
0001
1000
0000
0000
0000
,  // measure 11
0010
0000
1000
0000
0100
0000
0010
0000
0001
0100
0001
0000
2000
0000
0000
0000
,  // measure 12
3010
0000
1000
0001
1000
0000
0001
0000
1000
0100
1000
0100
1000
0000
0000
0000
,  // measure 13
0001
0000
0100
0010
0100
0000
0001
0000
0010
0000
1000
0000
0010
0100
0010
0000
,  // measure 14
0001
0000
1000
0001
1000
0000
0001
0000
1000
0010
1000
0010
1000
0000
0000
0000
,  // measure 15
0002
0000
0000
0003
,  // measure 16
1001
0000
0001
1000
0001
1000
0100
0010
,  // measure 17
0000
0100
0010
0001
0200
0000
1000
0000
,  // measure 18
0301
0000
1000
0001
1000
0001
0010
0100
,  // measure 19
0000
0000
1100
0000
0000
1001
0000
0000
1010
0000
0000
0000
1010
0000
0000
0000
,  // measure 20
0002
0000
1003
0010
1000
0010
0100
0001
,  // measure 21
0000
0001
0010
0100
2000
0000
3020
0000
,  // measure 22
2030
0000
3001
0010
0001
0010
0100
1000
,  // measure 23
0000
0000
0002
0000
0000
0200
0000
0000
0020
0000
0000
0000
0333
0000
0000
0000
,  // measure 24
2000
0000
3001
0100
0001
0100
0010
1000
,  // measure 25
0000
1000
0100
0010
0002
0000
0203
0000
,  // measure 26
0302
0000
1003
0100
1000
0100
0010
0001
,  // measure 27
0000
0000
2000
0000
0000
0200
0000
0000
0020
0000
0000
0000
3330
0000
0000
0000
,  // measure 28
1000
1000
0100
0100
,  // measure 29
0010
0010
0001
0001
,  // measure 30
1000
0100
0010
0001
1000
0100
0001
0100
,  // measure 31
1000
0000
1002
0000
0013
0001
0010
0001
,  // measure 32
0100
0000
1000
0000
0000
0000
1000
0000
0100
0000
0001
0000
0010
0100
0010
0000
,  // measure 33
0002
0000
2003
0000
3010
1000
0010
1000
,  // measure 34
0100
0001
1000
0010
0001
0100
1000
0100
,  // measure 35
0020
0030
2001
0000
3100
1000
0100
1000
,  // measure 36
0010
0000
0001
0000
0000
0000
0001
0000
0010
0000
1000
0000
0100
0010
0100
0000
,  // measure 37
2000
0000
3002
0000
0013
0001
0010
0001
,  // measure 38
0100
0010
1010
1000
0001
0011
0001
1000
,  // measure 39
2001
0000
0000
0000
3100
0010
0100
0010
0001
0000
0010
0000
0200
0000
0000
0000
,  // measure 40
1300
0002
0203
0320
,  // measure 41
2030
0000
0000
0000
3002
0000
0000
0000
1003
0100
1000
0100
2000
0000
0000
0000
,  // measure 42
3001
0010
0001
0010
0002
0000
0000
0000
1003
0010
1000
0010
0100
0001
0100
0001
,  // measure 43
1000
0000
0001
0000
0010
0000
0001
1000
0001
0000
1000
0000
0001
0010
0001
0010
,  // measure 44
0001
0000
0000
0000
1000
0000
0010
0100
0010
0000
1000
0000
0100
0000
0001
0000
,  // measure 45
0100
0010
0100
0000
1000
0000
0001
1000
0001
0000
1000
0000
0001
0100
0001
0100
,  // measure 46
0001
2000
0000
0000
,  // measure 47
3000
0000
1002
0000
0103
1000
0100
1000
,  // measure 48
0100
0000
0001
1000
0001
0000
0000
0100
0000
0000
0010
0000
2010
0000
0000
0000
,  // measure 49
3001
0001
2000
0000
3100
0001
0100
0001
,  // measure 50
0100
0000
1000
0000
0010
0000
2000
0000
0000
0002
0000
0000
0010
0000
3000
0000
,  // measure 51
1003
0001
1000
0001
1000
0000
0000
0000
1000
0000
0000
0000
0010
0000
0000
0000
,  // measure 52
0010
0100
0100
0001
,  // measure 53
0001
0000
1000
0010
0100
0001
1000
0010
,  // measure 54
0001
0010
1000
0000
2001
0000
3010
2000
,  // measure 55
0100
0000
0000
0000
3002
0000
0000
0000
1003
0000
0010
0100
0010
0100
0010
0100
,  // measure 56
0001
0000
1000
0000
0200
0000
0000
0000
0310
0000
0000
0010
0000
0000
0001
0000
,  // measure 57
2000
0000
0000
0000
3001
0010
0001
0010
0001
0000
0100
0000
1000
0000
0100
0000
,  // measure 58
0001
0100
0001
0100
0010
1000
0010
1000
0002
0000
0000
0000
0013
0000
0002
0000
,  // measure 59
0100
0000
0000
0000
2003
0000
0000
0000
3010
0000
0001
0010
0001
0000
0010
0000
,  // measure 60
1000
0000
0100
0000
0020
0000
0000
0000
0031
0010
0001
0010
0001
1000
0001
1000
,  // measure 61
0001
0100
0001
0100
0001
1000
0001
0000
1000
0001
1000
0001
1000
0000
0200
0000
,  // measure 62
0000
0310
0110
0000
0000
0000
0000
0000
;

//---------------dance-single - Another----------------
#NOTEDATA:;
#CHARTNAME:;
#STEPSTYPE:dance-single;
#DESCRIPTION:Another;
#CHARTSTYLE:;
#DIFFICULTY:Edit;
#METER:14;
#RADARVALUES:0.572558,0.680432,0.469613,0.461516,0.344113,495.000000,437.000000,58.000000,57.000000,29.000000,3.000000,0.000000,0.000000,0.000000,0.572558,0.680432,0.469613,0.461516,0.344113,495.000000,437.000000,58.000000,57.000000,29.000000,3.000000,0.000000,0.000000,0.000000;
#CREDIT:Another;
#NOTES:
// measure 0
0000
0000
0000
0000
,  // measure 1
0000
0000
0000
0000
,  // measure 2
0000
0000
0000
0000
,  // measure 3
0000
0000
0000
0000
,  // measure 4
1010
0000
0000
0000
1001
0000
0000
0001
1000
0100
1000
0100
1000
0000
0001
0100
,  // measure 5
0001
0000
1000
0100
0010
0000
0001
0000
0100
0000
1000
0000
0100
0010
0100
0000
,  // measure 6
0101
0000
0000
0000
1001
0000
0000
1000
0001
0010
0001
0010
0001
0000
1000
0001
,  // measure 7
0200
0000
0000
0000
0300
0000
0110
MMMM
,  // measure 8
1000
0000
0001
0010
0001
0000
1000
0000
0001
0100
0001
0100
0001
0000
1000
0100
,  // measure 9
1000
0000
1000
0010
1000
0000
0100
0000
0010
0000
0001
0000
0100
0010
0100
0000
,  // measure 10
0001
0000
1000
0010
1000
0000
0001
0000
1000
0100
1000
0100
1000
0000
0001
0100
,  // measure 11
0010
1000
0010
1000
0001
1000
0001
1000
0100
1000
0001
0000
0200
0000
0000
0000
,  // measure 12
0310
0000
1000
0001
1000
0000
0100
0000
0010
0001
0010
0001
0010
0000
0001
0100
,  // measure 13
0001
0000
0001
1000
0001
0000
0010
0000
1000
0000
0010
0000
0001
1000
0001
0000
,  // measure 14
0010
0000
0001
1000
0001
0000
0100
0000
0010
1000
0010
1000
0010
0000
1000
0001
,  // measure 15
0020
0000
0000
0030
,  // measure 16
1001
0000
0001
0100
0001
0100
0010
0100
,  // measure 17
0000
0100
1000
0001
0020
0000
2030
0000
,  // measure 18
3001
0000
0001
0100
0001
0100
0010
0100
,  // measure 19
M00M
0000
1010
0000
0000
1001
0MM0
0000
0011
0000
0000
0000
MM11
0000
0000
0000
,  // measure 20
2000
0000
3010
1000
0010
1000
0100
0001
,  // measure 21
0000
0001
1000
0010
0002
0000
0203
0000
,  // measure 22
0302
0000
0013
0001
0010
0001
0100
1000
,  // measure 23
0000
0000
0200
0000
0000
0002
0000
0000
0020
0000
0000
0000
0333
0000
0000
0000
,  // measure 24
0002
0000
0013
0001
0010
0001
0100
1000
,  // measure 25
0000
1000
0001
0010
2000
0000
3200
0000
,  // measure 26
2300
0000
3010
1000
0010
1000
0100
0001
,  // measure 27
0000
0000
0200
0000
0000
2000
0000
0000
0020
0000
0000
0000
3330
0000
0000
0000
,  // measure 28
1100
1100
0011
0011
,  // measure 29
0101
0101
1010
1010
,  // measure 30
1001
1000
1100
0100
0110
0010
0011
0001
,  // measure 31
2002
3003
M00M
0000
1002
0000
0000
0000
0013
0000
0001
0000
0010
0000
0001
0000
,  // measure 32
0100
0000
1000
0000
0000
0000
1000
0000
0001
0000
0010
0000
1000
0100
0010
0000
,  // measure 33
0200
0000
2300
0000
3010
1000
0010
1000
,  // measure 34
0100
0001
1000
0010
0001
0100
1000
0100
,  // measure 35
0220
0330
2001
0000
3100
1000
0100
1000
,  // measure 36
0010
0000
0001
0000
0000
0000
0001
0000
1000
0000
0100
0000
0001
0010
0100
0000
,  // measure 37
0020
0000
0032
0000
0103
0001
0100
0001
,  // measure 38
0010
0100
1100
0010
0001
0101
0010
1000
,  // measure 39
2001
0000
0000
0000
3001
0010
0100
1000
0001
0000
0100
0000
0220
0000
0000
0000
,  // measure 40
0330
2000
3020
0230
,  // measure 41
0302
0000
0000
0000
2003
0000
0000
0000
3M01
0010
0100
1000
0020
0000
0000
0000
,  // measure 42
1M30
0010
0100
0001
0020
0000
0000
0000
M130
0010
0001
1000
0010
0100
0001
1000
,  // measure 43
010M
0000
0010
0000
0001
0000
1000
0010
1000
0000
0001
0000
0010
0100
0010
0100
,  // measure 44
0010
0000
0001
0100
0001
0000
0001
1000
0001
0000
0010
0000
1000
0000
0010
0000
,  // measure 45
0001
0100
0001
0000
1000
0000
0001
0010
0001
0000
1000
0000
0010
0100
0010
0100
,  // measure 46
0010
0000
1000
0001
0020
0000
0000
0000
0000
0000
0000
0000
0000
0000
0000
0000
,  // measure 47
0030
0000
1002
0000
0103
0010
1010
0010
,  // measure 48
0100
0000
0001
1000
0001
0000
0000
0100
0000
0000
0010
0000
2010
0000
0000
0000
,  // measure 49
3001
0110
2000
0000
3100
0010
0011
0100
,  // measure 50
1000
0000
1010
0000
M1M1
0000
0002
0000
0000
2000
0MM0
0000
0010
0000
3000
0000
,  // measure 51
10M3
0100
0010
0001
1000
0000
0000
0000
1010
0000
0000
0000
0101
0000
0000
0000
,  // measure 52
0101
0011
0011
1100
,  // measure 53
1100
0000
0101
0100
0110
0010
1010
1000
,  // measure 54
1001
0000
0001
0000
0022
0033
00MM
0000
2001
0000
0000
0000
3010
0000
1002
0000
,  // measure 55
0100
0000
0000
0000
2003
0000
0000
0000
3100
0000
0010
0001
0010
0001
0100
0010
,  // measure 56
1000
0000
0001
0000
0200
0000
0300
0000
1010
0000
0000
1001
0000
0000
0011
0000
,  // measure 57
1002
0000
0000
0000
1003
0010
0100
0001
1000
0000
0100
0000
0001
0000
0100
0000
,  // measure 58
1000
0100
1000
0100
0010
0001
1000
0001
0200
0000
0000
0000
0310
0000
2001
0000
,  // measure 59
0100
0000
0000
0000
3002
0000
0000
0000
0013
0000
1000
0010
0100
0000
0010
0000
,  // measure 60
0001
0000
0100
0000
2000
0000
0000
0000
3100
0010
0100
0001
1000
0100
1000
0001
,  // measure 61
1000
0010
0100
0001
0010
0100
1000
0000
M0M1
0100
0001
0100
0010
0000
2M1M
0000
,  // measure 62
0000
3001
MM11
0000
0000
0000
0000
0000
;
