#VERSION:0.83;
#TITLE:Rolling Girl;
#SUBTITLE:;
#ARTIST:wowaka feat. Hatsune Miku;
#TITLETRANSLIT:;
#SUBTITLETRANSLIT:;
#ARTISTTRANSLIT:;
#GENRE:Vocaloid Rock;
#ORIGIN:;
#CREDIT:;
#BANNER:Rolling Girl.png;
#BACKGROUND:Rolling Girl-bg.png;
#PREVIEWVID:;
#JACKET:Rolling Girl-jacket.png;
#CDIMAGE:;
#DISCIMAGE:;
#LYRICSPATH:;
#CDTITLE:cdtitle.png;
#MUSIC:Rolling Girl.ogg;
#OFFSET:-0.372103;
#SAMPLESTART:73.910561;
#SAMPLELENGTH:19.692314;
#SELECTABLE:YES;
#BPMS:0.000=97.500,
7.000=195.000;
#STOPS:;
#DELAYS:;
#WARPS:;
#TIMESIGNATURES:0.000=4=4;
#TICKCOUNTS:0.000=4;
#COMBOS:0.000=1;
#SPEEDS:0.000=1.000=0.000=0;
#SCROLLS:0.000=1.000;
#FAKES:;
#LABELS:0.000=Song Start;
#BGCHANGES:;
#KEYSOUNDS:;
#ATTACKS:
;

//---------------dance-single - ----------------
#NOTEDATA:;
#CHARTNAME:;
#STEPSTYPE:dance-single;
#DESCRIPTION:;
#CHARTSTYLE:;
#DIFFICULTY:Challenge;
#METER:13;
#RADARVALUES:0.703766,0.739769,0.191146,0.547374,0.065164,567.000000,545.000000,22.000000,63.000000,12.000000,0.000000,0.000000,0.000000,0.000000,0.703766,0.739769,0.191146,0.547374,0.065164,567.000000,545.000000,22.000000,63.000000,12.000000,0.000000,0.000000,0.000000,0.000000;
#CREDIT:;
#NOTES:
// measure 0
0000
0000
0000
0000
,  // measure 1
0000
0000
0000
0000
,  // measure 2
0011
0M00
1010
0000
0010
1000
0001
0010
,  // measure 3
0000
0000
0010
0000
0001
0000
1000
0000
0010
0000
1000
0001
1000
0000
0010
1000
,  // measure 4
0010
0M00
0011
0000
0010
0001
1000
0010
,  // measure 5
0000
0010
1000
0001
0010
0100
0100
0000
,  // measure 6
1100
00M0
0101
0000
0100
0001
1000
0100
,  // measure 7
0000
0000
0100
0000
1000
0000
0001
0000
0100
0000
0001
1000
0001
0000
0100
0001
,  // measure 8
0100
00M0
1100
0000
0100
1000
0001
0100
,  // measure 9
0000
0100
0001
1000
0100
0010
0001
0100
,  // measure 10
1010
0000
0M00
0000
0011
0000
0000
0000
0001
0000
0100
0000
0010
1000
0010
0000
,  // measure 11
0000
0000
0010
0000
1000
0000
0100
0000
0010
0000
0001
1000
0001
0000
0010
0001
,  // measure 12
0010
0M00
1010
0000
1000
0100
0010
0001
,  // measure 13
0000
0000
0001
0000
0010
0000
0001
1000
0001
0000
0100
0000
0100
0000
0000
0000
,  // measure 14
0101
0000
00M0
0000
1100
0000
0000
0000
1000
0000
0100
0000
0010
0001
0010
0000
,  // measure 15
0000
0000
0010
0000
0001
0000
0100
0000
0010
0000
1000
0001
1000
0000
0100
1000
,  // measure 16
0100
00M0
0101
0000
0001
0100
0010
1000
,  // measure 17
0000
1000
0100
0010
0001
0100
1000
0100
,  // measure 18
0001
0000
0100
0001
0020
0000
0130
1000
,  // measure 19
0020
0000
0100
0000
0130
0000
0010
1000
,  // measure 20
0001
0000
1000
0000
0100
0010
0001
0200
,  // measure 21
0000
0001
0301
0000
0100
0010
1000
0100
,  // measure 22
0010
0000
0100
1000
0020
0000
0130
0001
,  // measure 23
0020
0000
0100
0000
0130
0000
0010
0002
,  // measure 24
1000
0000
1003
0000
0001
0000
0100
0020
,  // measure 25
0000
1000
1030
0000
0010
0100
0001
0000
,  // measure 26
2001
0000
0100
0000
3100
0000
0010
0002
,  // measure 27
0000
1000
1003
0000
0001
0100
0010
0000
,  // measure 28
1000
0000
1000
0000
0001
0010
0100
2000
,  // measure 29
0000
0001
3001
0000
0100
0010
1000
0000
,  // measure 30
1002
0000
1000
0000
1003
0100
0010
0002
,  // measure 31
0000
1000
1003
0000
0001
1000
0001
0000
,  // measure 32
2001
0000
0001
0000
3001
0100
0010
2000
,  // measure 33
0000
0001
3001
0000
0001
0010
0100
1000
,  // measure 34
1010
0M00
0011
0000
0001
0010
0100
1000
,  // measure 35
0000
0000
0001
0000
0100
0000
0010
0000
1000
0000
0001
1000
0001
0000
0010
0001
,  // measure 36
0010
0M00
1010
0000
1000
0100
0010
0001
,  // measure 37
0000
0001
0100
0010
1000
0001
0001
0000
,  // measure 38
0101
00M0
1100
0000
1000
0100
0010
0001
,  // measure 39
0000
0000
0100
0000
0010
0000
1000
0000
0100
0000
1000
0001
1000
0000
0100
1000
,  // measure 40
0100
00M0
0101
0000
0001
0100
0010
1000
,  // measure 41
0000
0100
0010
0001
1000
0010
0001
0010
,  // measure 42
1000
0000
0001
0100
2000
0000
3100
0001
,  // measure 43
0020
0000
0001
0000
0031
0000
0010
0100
,  // measure 44
1000
0000
0010
0000
0100
0001
0000
2000
,  // measure 45
0000
0001
3001
0000
0100
0010
1000
0001
,  // measure 46
1000
0000
0001
0010
0200
0000
1300
0010
,  // measure 47
0200
0310
1000
1002
,  // measure 48
0100
0000
0103
0000
0100
0010
1000
0002
,  // measure 49
0000
0010
0013
0000
0001
0100
0010
0000
,  // measure 50
1000
0000
1000
0000
0001
0100
0010
2000
,  // measure 51
0000
3100
1000
0000
0001
0100
0010
2000
,  // measure 52
0000
3010
1000
0010
0001
0010
1000
0002
,  // measure 53
0000
1003
0200
0000
0310
0001
0100
0000
,  // measure 54
0010
0000
0100
0001
2000
0000
3100
1000
,  // measure 55
0002
0000
0103
0001
0020
0000
0130
1000
,  // measure 56
0001
0100
0001
0100
1000
0100
1000
0100
,  // measure 57
0001
0010
0001
0100
1000
0100
0001
0010
,  // measure 58
0001
0000
0001
0000
0010
0001
0100
0020
,  // measure 59
0000
1030
0001
0000
0010
0001
1000
0020
,  // measure 60
0000
1030
0010
0001
0010
1000
0100
0002
,  // measure 61
0000
0103
1000
0010
1000
0001
0010
0000
,  // measure 62
0100
0000
0010
0001
0100
0000
0010
2000
,  // measure 63
0000
3100
0010
0001
0100
0000
0010
2000
,  // measure 64
0000
3001
0100
1000
0100
0001
0010
0200
,  // measure 65
0000
0301
0100
1000
0010
2000
0100
0000
,  // measure 66
3001
0000
0001
0000
0100
0001
0010
2000
,  // measure 67
0000
3010
1000
0010
0001
0000
0100
0020
,  // measure 68
0000
1030
0010
0100
1000
0100
0001
0020
,  // measure 69
0000
0130
0010
0001
1000
0010
0100
0000
,  // measure 70
0002
0000
0103
0010
2000
0000
3100
0010
,  // measure 71
0002
0000
0103
0001
2000
0000
3001
0010
,  // measure 72
2000
0000
3001
0100
2000
0000
3002
0000
,  // measure 73
2003
3010
0200
0320
,  // measure 74
1030
0000
1000
0000
0010
1000
0100
0020
,  // measure 75
0000
0031
1000
0000
0010
1000
0001
0020
,  // measure 76
0000
0031
0010
1000
0010
0001
0100
2000
,  // measure 77
0000
3100
0001
0010
0001
1000
0010
0000
,  // measure 78
0100
0000
0010
1000
0100
0000
0010
0002
,  // measure 79
0000
0103
0010
1000
0100
0000
0010
0002
,  // measure 80
0000
1003
0100
0001
0100
1000
0010
0200
,  // measure 81
0000
1300
0100
0001
0010
0002
0100
0000
,  // measure 82
1003
0000
1000
0000
0100
1000
0010
0002
,  // measure 83
0000
0013
0001
0010
1000
0000
0100
0020
,  // measure 84
0000
0031
0010
0100
0001
0100
1000
0020
,  // measure 85
0000
0130
0010
1000
0001
0010
0100
0000
,  // measure 86
2000
0000
3100
0010
0002
0000
0103
0010
,  // measure 87
2000
0000
3100
1000
0020
0000
1030
0100
,  // measure 88
0002
0000
0100
0000
0103
0000
0001
0100
,  // measure 89
1000
0010
0001
0010
1000
0100
0000
0000
;

//---------------dance-single - ----------------
#NOTEDATA:;
#CHARTNAME:;
#STEPSTYPE:dance-single;
#DESCRIPTION:;
#CHARTSTYLE:;
#DIFFICULTY:Hard;
#METER:11;
#RADARVALUES:0.585851,0.622964,0.503932,0.608193,0.000000,472.000000,414.000000,58.000000,70.000000,0.000000,0.000000,0.000000,0.000000,0.000000,0.585851,0.622964,0.503932,0.608193,0.000000,472.000000,414.000000,58.000000,70.000000,0.000000,0.000000,0.000000,0.000000,0.000000;
#CREDIT:;
#NOTES:
0000
0000
0000
0000
,
0000
0000
0000
0000
,
1001
0000
1001
0000
0001
0100
0010
1000
,
0000
1000
0010
0100
0001
1000
0100
0000
,
1001
0000
1001
0000
1000
0100
0010
0001
,
0000
0001
0100
0010
1000
0001
0001
0000
,
1001
0000
1001
0000
0001
0010
0100
1000
,
0000
1000
0010
0100
0001
1000
0100
0000
,
1001
0000
1001
0000
0001
0100
0010
1000
,
0000
1000
0100
0010
0001
0100
0100
0000
,
1001
0000
1001
0000
1000
0010
1000
0100
,
0000
0100
0010
0001
0100
0001
1000
0000
,
1001
0000
1001
0000
0001
0010
0001
0100
,
0000
0100
0001
1000
0100
0010
0010
0000
,
1001
0000
1001
0000
0001
0100
0001
0010
,
0000
0010
0100
1000
0010
0100
0001
0000
,
1001
0000
1001
0000
1000
0100
1000
0010
,
0000
0010
1000
0001
0010
0100
0100
0000
,
2001
0000
3002
0000
,
0200
0000
0000
0000
0303
0000
0001
0100
,
0010
0000
1000
0000
0001
0010
0000
0220
,
0000
0000
0330
0110
,
1002
0000
0203
0000
,
0020
0000
0000
0000
0330
0000
1000
0002
,
0000
0000
0000
0000
1003
0000
0001
2000
,
0000
0000
3100
0000
,
1002
0000
0000
0000
1003
0000
0001
0200
,
0000
0000
0310
1000
,
0001
0000
0001
0000
1000
0000
1000
0200
,
0000
0000
0310
0001
,
2000
0000
0000
0000
3010
1000
0001
0200
,
0000
0000
0301
1000
,
0002
0000
0000
0000
0013
0001
1000
0200
,
0000
0000
0000
0000
1300
0100
0010
0001
,
1000
0000
1001
0000
0001
0100
0010
1000
,
0000
0010
1000
0001
0010
0100
1000
0000
,
1001
0000
1001
0000
1000
0010
0100
0001
,
0000
0100
0001
0010
0100
1000
1000
0000
,
1001
0000
1001
0000
0001
0010
0100
1000
,
0000
0010
0100
0001
0010
0100
1000
0000
,
1001
0000
1001
0000
1000
0100
0010
0001
,
0000
0100
0010
1000
0100
0010
0010
0000
,
1002
0000
2003
0000
,
0200
0000
0000
0000
3300
0000
1000
0100
,
0010
0000
0001
0000
1000
0010
0000
0220
,
0000
0000
0330
0110
,
2001
0000
3200
0000
,
0320
0000
0031
1002
,
0000
0000
0000
0000
0013
0001
0100
0020
,
0000
0000
2030
0000
,
3001
0000
0001
0000
1000
0100
0000
2000
,
0000
3001
0100
0000
0001
0100
0000
0020
,
0000
1030
0010
0000
1000
0010
0100
0002
,
0000
1003
0200
0000
0320
0000
0032
0000
,
2003
0000
3020
0000
,
0032
0000
0203
0000
,
1300
1000
1000
0010
,
0100
0010
0100
0010
0100
0010
0100
0000
,
1001
0000
1001
0000
1000
0010
0000
1002
,
0000
0000
1003
0000
0001
0010
0000
2001
,
0000
3100
0010
0001
1000
0100
0010
0002
,
0000
0103
0010
1000
0001
0000
0110
0000
,
1001
0000
0001
1000
0100
0000
0000
1002
,
0000
0000
1003
0001
0100
0000
0000
2001
,
0000
3010
0100
0010
0100
0001
0010
0200
,
0000
0310
0001
0100
0010
1000
0100
0000
,
1001
0000
1001
0000
0001
0100
0000
0120
,
0000
0130
0010
1000
0001
0000
0000
2001
,
0000
3100
1000
0100
0010
0100
1000
0002
,
0000
0103
0010
1000
0001
0000
0010
0000
,
0002
0013
0020
0130
,
0200
1300
2000
3001
,
0002
0103
0020
2030
,
3002
1003
0200
0310
,
1001
0000
1001
0000
0001
0100
0000
2001
,
0000
0000
3001
0000
1000
0100
0000
1002
,
0000
1003
0010
1000
0100
0010
0001
0200
,
0000
0310
1000
0001
0010
0000
0110
0000
,
1001
0000
1000
0001
0010
0000
0000
2001
,
0000
0000
3001
1000
0010
0000
0000
1002
,
0000
0103
0010
0100
0010
1000
0100
0020
,
0000
0031
0010
0100
1000
0010
0100
0000
,
1001
0000
1001
0000
1000
0100
0000
0120
,
0000
0130
0010
0001
1000
0000
0000
1002
,
0000
0103
0001
0100
0001
1000
0100
0020
,
0000
0031
0100
0010
1000
0000
0010
0000
,
2000
3100
0200
0310
,
0020
0031
0002
1003
,
1002
0000
0100
0000
0100
0000
1003
0001
,
0010
0100
0010
0100
1000
0001
0000
0000
;

//---------------dance-single - ----------------
#NOTEDATA:;
#CHARTNAME:;
#STEPSTYPE:dance-single;
#DESCRIPTION:;
#CHARTSTYLE:;
#DIFFICULTY:Medium;
#METER:9;
#RADARVALUES:0.451801,0.584028,0.382293,0.573439,0.000000,364.000000,320.000000,44.000000,66.000000,0.000000,0.000000,0.000000,0.000000,0.000000,0.451801,0.584028,0.382293,0.573439,0.000000,364.000000,320.000000,44.000000,66.000000,0.000000,0.000000,0.000000,0.000000,0.000000;
#CREDIT:;
#NOTES:
0000
0000
0000
0000
,
0000
0000
0000
0000
,
0001
0001
0100
0010
,
1000
0000
1000
0000
0100
0010
0001
0000
,
1000
1000
0010
0100
,
0001
0000
0001
0000
0010
0001
0100
0000
,
0010
0010
1000
0001
,
0010
0000
0010
0000
0100
1000
0001
0000
,
0100
0100
0001
1000
,
0100
0000
0100
0000
0010
0001
0100
0000
,
0010
0000
0010
0000
1000
0001
0000
1000
,
0000
0001
1000
0000
0001
0100
0010
0000
,
1000
0000
1000
0000
0100
0010
0000
0100
,
0000
0010
0100
0000
0010
0001
1000
0000
,
0001
0000
0001
0000
0100
0010
0000
0100
,
0000
0010
0100
0000
0010
1000
0001
0000
,
1000
0000
1000
0000
0001
0010
0000
0001
,
0000
0010
0001
0000
0100
0010
1000
0000
,
1002
0000
0203
0000
,
0020
0000
0330
0010
,
1000
0000
0001
0000
0020
0000
0000
0200
,
0000
0000
0330
0100
,
2000
0000
3002
0000
,
0200
0000
0000
0000
0303
0000
0001
2000
,
0000
0000
0000
0000
3100
0000
1000
0002
,
0000
0000
0100
0003
,
2002
0000
0000
0000
3003
0000
1000
0020
,
0000
0000
1030
0010
,
0100
0000
0001
0000
1000
0000
0100
0020
,
0000
0000
0031
0010
,
0002
0000
0000
0000
0000
1003
0010
2000
,
0000
0000
3001
0001
,
0002
0000
0000
0000
0000
0013
0100
0020
,
0000
0000
0000
0000
0031
1000
0001
1000
,
0001
0001
0100
0010
,
1000
0000
1000
0000
0100
1000
0001
0000
,
1000
1000
0100
0010
,
0001
0000
0001
0000
0100
0001
0010
0000
,
0100
0100
0010
0001
,
0100
0000
0100
0000
0010
1000
0001
0000
,
1000
1000
0010
0100
,
0001
0000
0001
0000
0010
0001
0100
0000
,
2002
3003
0022
0033
,
2200
0000
3300
1000
,
0010
0000
0100
0000
0002
0000
0000
2000
,
0000
0000
3003
0001
,
2002
3003
2200
3300
,
0022
0033
0001
2002
,
0000
0000
3000
0000
0000
0103
0010
2000
,
0000
0000
3002
0000
,
1003
0000
1000
0000
0100
0010
0000
0002
,
0000
0000
0103
0000
0100
0010
0000
2000
,
0000
0000
3010
0000
1000
0000
0001
2000
,
0000
3100
0010
0001
,
1001
0000
0101
0000
,
1010
0000
1100
0000
,
1002
1000
1003
0110
,
1001
0000
0001
1000
0001
1000
0001
0000
,
2001
0000
0001
0000
3010
0000
0000
1002
,
0000
0000
1000
0000
0013
0000
0000
2001
,
0000
0000
0100
0000
3100
0000
0010
0002
,
0000
0000
1003
0001
1000
0000
0001
0000
,
1002
0000
0013
0001
0010
0000
0000
2001
,
0000
0000
3010
1000
0010
0000
0000
1002
,
0000
0000
0013
0100
0010
0000
0001
2000
,
0000
0000
3010
0000
0010
1000
0001
0000
,
1001
0000
1000
0000
1000
0100
0000
1002
,
0000
0000
0100
0000
1003
0000
0000
2001
,
0000
0000
0010
0000
3010
0000
0100
0002
,
0000
0013
0100
0010
,
1001
0000
1100
0000
,
0101
0000
0011
0000
,
2010
0000
0100
0000
,
3002
0000
0100
0103
,
1002
0000
1000
0000
0013
0000
0000
2001
,
0000
0000
0001
0000
3010
0000
0000
1002
,
0000
0000
0100
0000
0103
0000
0010
2000
,
0000
0000
3001
1000
0001
0000
1000
0000
,
2001
0000
3010
1000
0010
0000
0000
1002
,
0000
0000
0013
0001
0010
0000
0000
2001
,
0000
0000
3010
0100
0010
0000
1000
0002
,
0000
0000
0013
0000
0010
0001
1000
0000
,
1001
0000
0001
0000
0001
0100
0000
2001
,
0000
0000
0100
0000
3001
0000
0000
1002
,
0000
0000
0010
0000
0013
0000
0100
2000
,
0000
3010
0100
0010
,
1001
0000
0101
0000
,
1100
0000
1010
0000
,
0012
0000
0000
0000
1003
0000
0001
2000
,
0000
0000
3100
0000
0010
0001
0000
0000
;

//---------------dance-single - ----------------
#NOTEDATA:;
#CHARTNAME:;
#STEPSTYPE:dance-single;
#DESCRIPTION:;
#CHARTSTYLE:;
#DIFFICULTY:Easy;
#METER:7;
#RADARVALUES:0.345057,0.349928,0.147704,0.286720,0.000000,278.000000,261.000000,17.000000,33.000000,0.000000,0.000000,0.000000,0.000000,0.000000,0.345057,0.349928,0.147704,0.286720,0.000000,278.000000,261.000000,17.000000,33.000000,0.000000,0.000000,0.000000,0.000000,0.000000;
#CREDIT:;
#NOTES:
0000
0000
0000
0000
,
0000
0000
0000
0000
,
1000
1000
0001
0000
,
0001
0010
0100
1000
,
0001
0001
1000
0000
,
0001
0100
0001
0010
,
0001
0001
0100
0000
,
0100
0010
1000
0001
,
1000
1000
0100
0000
,
1000
0010
0100
0010
,
1000
0000
1000
0000
0100
0000
0000
0010
,
0000
0010
0100
1000
,
0001
0000
0001
0000
0100
0000
0000
0010
,
0000
0010
0100
0001
,
1000
0000
1000
0000
0010
0000
0000
0100
,
0000
0100
0010
1000
,
0001
0000
0001
0000
0010
0000
0000
0100
,
0000
0100
0010
0001
,
1000
0000
0020
0000
,
0200
0000
0330
0001
,
1000
0000
0100
0000
0010
0000
0000
0220
,
0000
0000
0330
1000
,
0001
0000
0200
0000
,
0020
0000
0330
1000
,
0002
0000
0000
0013
,
0200
0000
0000
0300
,
2001
0000
0000
3010
,
0200
0000
0301
0010
,
0001
0000
0001
0000
1000
0000
0000
0002
,
0000
0003
1000
0100
,
0020
0000
0000
0130
,
0200
0000
1300
0010
,
0200
0000
0000
0301
,
0002
0000
1000
0000
,
1003
1000
0100
0000
,
0100
1000
0010
0100
,
0001
0001
0100
0000
,
0010
0100
0001
0010
,
0001
0001
0100
0000
,
0100
0001
0010
0100
,
1000
1000
0100
0000
,
1000
0010
0100
0010
,
1000
0000
1002
0000
,
0020
0000
0033
0100
,
1000
0000
0000
0000
0010
0000
0000
0220
,
0000
0000
0330
1000
,
0001
0000
2001
0000
,
3020
0000
0130
0220
,
0000
0000
0330
0001
,
2000
0000
3200
0000
,
0310
0000
0010
0000
0001
0000
0000
1000
,
0000
0000
0001
0000
0010
0000
0000
0001
,
0000
1000
0001
0001
,
0100
0010
1000
0001
,
1000
0000
1100
0000
,
0011
0000
0101
0000
,
2001
0000
0000
0001
,
0002
3003
1000
0001
,
0100
0000
0100
0000
0010
0000
0000
0100
,
0000
0000
0100
0000
0010
0000
0000
0100
,
0000
0010
1000
0001
,
0010
0001
0100
0010
,
1000
0000
0001
0000
0001
0000
0000
1000
,
0000
0000
0001
0000
0001
0000
0000
1000
,
0000
0100
1000
0100
,
0010
0001
1000
0001
,
0100
0000
0100
0000
0010
0000
0000
1000
,
0000
0000
0001
0000
1000
0000
0000
0100
,
0000
1000
0100
0010
,
0001
0100
0010
1000
,
0001
0000
1002
0000
,
0103
0000
0110
0000
,
2001
0000
0001
0001
,
3002
0000
1003
0001
,
0010
0000
0010
0000
0100
0000
0000
0010
,
0000
0000
0010
0000
0100
0000
0000
0010
,
0000
0001
0100
0010
,
1000
0100
1000
0010
,
1000
0000
0001
0000
0001
0000
0000
1000
,
0000
0000
0001
0000
0001
0000
0000
0100
,
0000
0001
0100
0001
,
0010
0100
1000
0010
,
1000
0000
1000
0000
0001
0000
0000
0010
,
0000
0000
0100
0000
0010
0000
0000
0001
,
0000
0100
0001
0100
,
0010
1000
0100
0010
,
0001
0000
1002
0000
,
0103
0000
0110
0000
,
2001
0000
0000
0010
,
0020
3030
0101
0000
;

//---------------dance-single - ----------------
#NOTEDATA:;
#CHARTNAME:;
#STEPSTYPE:dance-single;
#DESCRIPTION:;
#CHARTSTYLE:;
#DIFFICULTY:Beginner;
#METER:2;
#RADARVALUES:0.152669,0.194405,0.104262,0.208523,0.000000,123.000000,111.000000,12.000000,24.000000,0.000000,0.000000,0.000000,0.000000,0.000000,0.152669,0.194405,0.104262,0.208523,0.000000,123.000000,111.000000,12.000000,24.000000,0.000000,0.000000,0.000000,0.000000,0.000000;
#CREDIT:;
#NOTES:
0000
0000
0000
0000
,
0000
0000
0000
0000
,
1000
0000
0000
0000
,
0001
0000
0000
0000
,
1000
0000
0000
0000
,
0010
0000
0000
0000
,
1000
0000
0000
0000
,
0001
0000
0000
0000
,
1000
0000
0000
0000
,
0100
0000
0000
0000
,
0010
0000
0000
0000
,
0001
0000
0000
0000
,
1000
0000
0000
0000
,
0001
0000
0000
0000
,
0010
0000
0000
0000
,
0001
0000
0000
0000
,
1000
0000
0000
0000
,
0010
0000
0000
0000
,
1000
0000
1000
0000
,
2000
0000
3000
0000
,
0001
0000
0001
0000
,
0002
0000
0003
0000
,
1000
0000
1000
0000
,
2000
0000
3000
0000
,
0200
0000
0300
0000
,
0020
0000
0030
0000
,
0002
0000
0003
0000
,
2000
0000
3000
0000
,
0010
0000
0010
0000
,
0020
0000
0030
0000
,
0200
0000
0300
0000
,
0002
0000
0003
0000
,
2000
0000
3000
0000
,
0200
0000
0300
0000
,
1000
0000
0000
0000
,
0100
0000
0000
0000
,
0010
0000
0000
0000
,
0100
0000
0000
0000
,
1000
0000
0000
0000
,
0100
0000
0000
0000
,
0010
0000
0000
0000
,
0001
0000
0000
0000
,
1000
0000
0001
0000
,
2000
0000
3000
0000
,
0001
0000
0001
0000
,
0002
0000
0003
0000
,
1000
0000
0001
0000
,
2000
0000
3000
0000
,
0020
0000
0030
0000
,
0100
0000
0100
0000
,
0002
0000
0003
0000
,
2000
0000
3000
0000
,
0001
0000
0001
0000
,
0002
0000
0003
0000
,
0010
0000
0010
0000
,
0100
0000
0100
0000
,
0020
0000
0030
0000
,
0200
0000
0300
0000
,
1001
0000
0000
0000
,
1001
0000
0000
0000
,
0001
0000
1000
0000
,
0001
0000
0000
0000
,
0110
0000
0000
0000
,
0110
0000
0000
0000
,
1000
0000
0001
0000
,
1000
0000
0000
0000
,
1001
0000
0000
0000
,
0110
0000
0000
0000
,
1000
0000
0001
0000
,
0010
0000
0000
0000
,
0001
0000
0001
0000
,
1000
0000
1000
0000
,
0010
0000
0010
0000
,
0200
0000
0300
0000
,
1001
0000
0000
0000
,
1001
0000
0000
0000
,
1000
0000
0001
0000
,
1000
0000
0000
0000
,
0110
0000
0000
0000
,
0110
0000
0000
0000
,
0001
0000
1000
0000
,
0001
0000
0000
0000
,
1001
0000
0000
0000
,
0110
0000
0000
0000
,
0001
0000
1000
0000
,
0010
0000
0000
0000
,
1000
0000
1000
0000
,
0001
0000
0001
0000
,
0020
0000
0030
0000
,
0200
0000
0310
0000
;
