#TITLE:Rock The Club;
#SUBTITLE:;
#ARTIST:Expander;
#TITLETRANSLIT:;
#SUBTITLETRANSLIT:;
#ARTISTTRANSLIT:;
#GENRE:Complextro;
#CREDIT:;
#BANNER:Rock The Club.png;
#BACKGROUND:Rock The Club-bg.png;
#LYRICSPATH:;
#CDTITLE:cdtitle.png;
#MUSIC:Rock The Club.ogg;
#OFFSET:-0.029625;
#SAMPLESTART:86.799553;
#SAMPLELENGTH:14.769234;
#SELECTABLE:YES;
#DISPLAYBPM:130.000000;
#BPMS:0.000000=130.000000
,44.000000=26.200001
,44.125000=50.000000
,44.250000=75.000000
,44.375000=100.000000
,44.500000=124.999992
,44.625000=150.000000
,44.750000=175.000000
,44.875000=200.000000
,45.000000=225.000000
,45.125000=249.999985
,45.250000=260.000000
,47.500000=65.000000
,48.000000=130.000000
,79.000000=260.000000
,79.500000=130.000000
,79.750000=65.000000
,80.000000=130.000000
,97.000000=260.000000
,98.000000=130.000000
,112.000000=86.667000
,114.000000=130.000000
,138.000000=65.000000
,138.250000=195.000000
,139.000000=130.000000
,150.000000=260.000000
,151.000000=130.000000
,185.000000=260.000000
,186.000000=130.000000
,218.000000=26.200001
,218.125000=50.000000
,218.250000=75.000000
,218.375000=100.000000
,218.500000=124.999992
,218.625000=150.000000
,218.750000=175.000000
,218.875000=200.000000
,219.000000=225.000000
,219.125000=249.999985
,219.250000=260.000000
,221.500000=65.000000
,222.000000=130.000000
,237.000000=260.000000
,238.000000=130.000000
;
#STOPS:97.000000=0.231000,
150.000000=0.231000,
171.812500=0.231000,
173.312500=0.231000,
185.000000=0.231000,
237.000000=0.231000
;
#BGCHANGES:;
#KEYSOUNDS:;
#ATTACKS:;

//---------------dance-single - ----------------
#NOTES:
     dance-single:
     :
     Challenge:
     17:
     0.822515,0.860655,0.406138,1.059145,1.114889,723.000000,672.000000,51.000000,133.000000,51.000000,0.000000,0.822515,0.860655,0.406138,1.059145,1.114889,723.000000,672.000000,51.000000,133.000000,51.000000,0.000000:
// measure 0
0000
0000
0000
0000
,  // measure 1
0000
0000
0000
0000
,  // measure 2
0000
0000
0000
0000
,  // measure 3
0000
0000
0000
0000
,  // measure 4
1001
0000
0000
0000
1000
0100
0010
0001
1000
0000
0001
0100
0000
0010
0000
1000
,  // measure 5
0000
0000
0000
0000
0001
0100
0010
1000
0001
0000
0100
0001
0000
0010
0000
1000
,  // measure 6
0000
0000
0010
0000
0001
0010
0100
1000
0001
0000
0100
0010
0000
1000
0000
0001
,  // measure 7
0000
0000
0004
0000
1003
0100
0010
0001
1000
0000
0001
0100
M02M
0000
0M00
0030
,  // measure 8
1001
0000
0000
0000
0000
0000
0000
0000
1001
0000
0000
0000
0000
0000
0000
0000
1001
0000
0000
0000
1000
0000
0200
0000
0000
M000
0000
0000
0340
0000
0000
0000
,  // measure 9
0130
0000
0000
0000
1001
0000
0000
0000
1001
0000
0000
0000
0000
0000
0000
0000
1001
0000
0000
0000
0001
0000
0200
0000
0000
000M
0000
0000
0310
0000
0000
0000
,  // measure 10
2000
0100
0000
0100
3000
0000
0000
0000
0002
0100
0000
0100
0003
0000
0000
0000
,  // measure 11
2M02
00M0
0M00
00M0
0M00
00M0
0M00
00M0
0M00
00M0
3M03
00M0
0M00
00M0
1MM1
0000
,  // measure 12
1001
0000
0000
1000
0200
0000
0301
0000
0100
0010
0100
1000
0001
0000
0200
0000
,  // measure 13
2300
0000
0000
0000
0000
0000
3100
0000
0000
0001
0000
0000
0020
0000
0000
0000
0000
0000
2030
0000
0000
0000
0000
0000
3010
0000
0000
0001
0000
0000
0100
0000
0000
0010
0000
0000
1000
0000
0000
0000
0000
0000
1000
0000
0100
0000
0010
0000
,  // measure 14
0001
0000
0001
0100
0020
0000
2030
0000
3001
0100
0010
0100
1000
0100
0010
0100
,  // measure 15
0001
0010
0001
0010
0100
0000
1000
0100
1000
0010
2000
3020
0032
0000
0023
0000
,  // measure 16
1030
0000
0100
0000
0002
0000
0103
0000
1000
0100
0010
0001
1000
0000
1001
0000
,  // measure 17
0001
0000
0000
0100
0000
0000
0010
0000
0000
0000
0000
0000
0002
0000
0000
0000
0000
0000
0023
0000
0000
0000
0000
0000
1030
0000
0000
0100
0000
0000
0010
0000
0000
0000
0000
0000
0002
0000
0000
0000
0000
0000
1003
0000
0010
0000
0100
0000
,  // measure 18
0001
1000
0010
1000
0100
0000
0010
0001
1000
0100
0010
0100
0001
0100
0010
0100
,  // measure 19
1000
0001
0100
0000
0220
0000
0030
00M0
0301
0100
0010
1000
0002
0000
0000
0000
,  // measure 20
1003
0000
0001
0000
0102
0000
0100
0000
1003
0000
1000
0100
0010
0000
0200
0000
,  // measure 21
0302
0000
0103
1000
0020
0000
0032
0000
0013
1000
0100
0000
0020
0000
0031
0100
,  // measure 22
0010
0000
0000
0000
0000
0000
0010
0000
0000
0000
0000
0000
2001
0000
0000
0000
0000
0000
0100
0000
0000
0000
0000
0000
3001
0000
0000
0100
0000
0000
0001
0000
0100
0000
0010
0000
1000
0000
0000
0100
0000
0000
0010
0000
0000
0001
0000
0000
,  // measure 23
0100
0000
0010
1000
0100
0000
0100
1000
0010
0100
0001
0010
0200
0000
0320
0000
,  // measure 24
0031
0000
1000
0000
1001
0000
0000
0000
0001
1000
0001
0000
0100
0000
2000
0000
,  // measure 25
3100
0000
0000
0010
0000
0000
0100
0000
0000
0001
0000
0000
0020
0000
0000
0000
0000
0000
2030
0000
0000
0000
0000
0000
3010
0000
0000
0001
0000
0000
0100
0000
0001
0000
0100
0000
0010
0000
0000
0000
0000
0000
1000
0000
0000
0000
0000
0000
,  // measure 26
0200
0000
0000
0000
0000
0000
0310
0000
0000
0000
0000
0000
0001
0000
0000
1000
0000
0000
0001
0000
1000
0000
0001
0000
1000
0000
0000
0010
0000
0000
0100
0000
0000
0010
0000
0000
0001
0000
0000
0010
0000
0000
0100
0000
0000
0010
0000
0000
,  // measure 27
1000
0100
1000
0100
0020
0000
0130
0010
0001
0100
0010
1000
0002
0000
0003
0000
,  // measure 28
1000
0000
0000
0000
0000
0000
0000
0000
0000
0000
0000
0100
0000
0000
0000
0000
0000
0000
0000
0000
0000
0000
0010
0000
0000
0000
0000
0000
0000
0000
0000
0000
0001
0000
0000
0000
0000
0000
0000
0000
0000
0000
0000
0100
0000
0000
0000
0000
0000
0000
0000
0000
0000
0010
0000
0000
0000
0000
0000
0000
0000
0000
0000
0000
1000
0000
0000
0000
0000
0000
0000
0000
0000
0000
0100
0000
0000
0000
0000
0000
0000
0000
0000
0000
0000
0010
0000
0000
0000
0000
0000
0000
0000
0000
0000
0000
2002
0000
0000
0000
0000
0000
0000
0000
0000
0000
0000
0000
0000
0000
0000
0000
0000
0000
0000
0000
0000
0000
0000
0000
3003
0000
0000
0000
0000
0000
0000
0000
0000
0000
0000
0000
0000
0000
0000
0000
0000
0000
0000
0000
0000
0000
0000
0000
1000
0000
0000
0000
0000
0000
0000
0000
0000
0000
0000
0000
0000
0000
0000
0000
0000
0000
0000
0000
0000
0000
0000
0000
1000
0000
0000
0000
0000
0000
0000
0000
0000
0000
0000
0000
0000
0000
0000
0000
0000
0000
0000
0000
0000
0000
0000
0000
,  // measure 29
0100
0000
0000
0000
0000
0100
0000
0000
0010
0000
0000
0000
0000
0010
0000
0000
0001
0000
0000
0000
0000
0000
0000
0000
0001
0000
0000
0000
0000
0000
0000
0000
0100
0000
0000
0000
0000
0100
0000
0000
0010
0000
0000
0000
0000
0010
0000
0000
2000
0000
0000
0000
0000
0000
0000
0000
3020
0000
0000
0000
0000
0000
0000
0000
,  // measure 30
0032
0000
0023
0230
0320
0000
2030
0000
3200
0000
0320
0000
0031
0000
0001
0000
,  // measure 31
0100
0000
0000
0000
0000
0000
0000
0000
0000
0000
0000
0000
0000
0000
0000
0100
0000
0000
0000
0000
0000
0000
0000
0000
0001
0000
0000
0000
0000
0000
0000
1000
0000
0000
0000
0000
0000
0000
0000
0001
0000
0000
0000
0000
0000
0000
0000
0000
0010
0000
0000
0000
0000
0000
0000
0000
0000
0000
0000
0000
0000
0000
0000
0000
0000
0000
0000
0000
0000
0000
0000
0000
0100
0000
0000
0000
0000
0000
0000
0000
0000
0000
0000
0000
0000
0000
0000
0000
0000
0000
0000
0000
0000
0000
0000
0000
1000
0000
0000
0000
0000
0000
0000
0000
0000
0000
0000
0000
0000
0000
0000
0010
0000
0000
0000
0000
0000
0000
0000
0000
0100
0000
0000
0000
0000
0000
0000
0000
0000
0000
0000
0000
0000
0000
0000
0100
0000
0000
0000
0000
0000
0000
0000
0000
0002
0000
0000
0000
0000
0000
0000
0000
0000
0000
0000
0000
0000
0000
0000
0000
0000
0000
0000
0000
0000
0000
0000
0000
0203
0000
0000
0000
0000
0000
0000
0000
0000
0000
0000
0000
0000
0000
0000
0000
0000
0000
0000
0000
0000
0000
0000
0000
,  // measure 32
2300
0000
0000
0000
0000
0000
0000
0000
3200
0000
0000
0000
0320
0000
0000
0000
0230
0000
0000
0000
0000
0000
0000
0000
0302
0000
0000
0000
0000
1003
0000
0000
0200
0000
0000
0000
0000
0000
0000
0000
0320
0000
0000
0000
0000
0000
0000
0000
0031
0000
0000
0000
0000
0000
0000
0000
0001
0000
0000
0000
0000
0000
0000
0000
,  // measure 33
0100
0000
0000
0000
0000
0100
0000
0000
0010
0000
0000
0000
0000
0010
0000
0000
1000
0000
0000
0000
0000
0000
0000
0000
0010
0000
0000
0000
0000
0000
0000
0000
0001
0000
0000
0000
0000
0010
0000
0000
0100
0000
0000
0000
0000
0100
0000
0000
0002
0000
0000
0000
0000
0000
0000
0000
0023
0000
0000
0000
0000
0000
0000
0000
,  // measure 34
2030
0000
3020
0230
0320
0000
0031
0000
1002
0000
MMM0
0000
0103
0000
0100
0000
,  // measure 35
0010
0000
0000
0000
0000
0000
0000
0000
0000
0000
0000
0000
0000
0000
0000
0010
0000
0000
0000
0000
0000
0000
0000
0000
1000
0000
0000
0000
0000
0000
0000
0001
0000
0000
0000
0000
0000
0000
0000
1000
0000
0000
0000
0000
0000
0000
0000
0000
0100
0000
0000
0000
0000
0000
0000
0000
0000
0000
0000
0000
0000
0000
0000
0000
0000
0000
0000
0000
0000
0000
0000
0000
0100
0000
0000
0000
0000
0000
0000
0000
0000
0000
0000
0000
0000
0000
0000
0000
0000
0000
0000
0000
0000
0000
0000
0000
0010
0000
0000
0000
0000
0000
0000
0000
0000
0000
0000
0000
0000
0000
0000
0001
0000
0000
0000
0000
0000
0000
0000
0000
0100
0000
0000
0000
0000
0000
0000
0000
0000
0000
0000
0000
0000
0000
0000
0100
0000
0000
0000
0000
0000
0000
0000
0000
0020
0000
0000
0000
0000
0000
0000
0000
0000
0000
0000
0000
0000
0000
0000
0000
0000
0000
0000
0000
0000
0000
0000
0000
0230
0000
0000
0000
0000
0000
0000
0000
0000
0000
0000
0000
0000
0000
0000
0000
0000
0000
0000
0000
0000
0000
0000
0000
,  // measure 36
2300
0000
0000
0000
3200
0000
0302
0000
0203
0000
0000
0000
0320
0000
0000
0030
2010
0000
0000
0000
0MM1
0000
0000
0000
3100
0000
0000
0000
0000
0000
0000
0000
,  // measure 37
0100
0000
0000
0000
1000
0000
0000
0000
0001
0000
0000
0000
0000
0000
0000
0000
0100
0000
0000
0000
0001
0000
0000
0000
1000
0000
0000
0000
0100
0000
0000
0000
0020
0000
0000
0000
0000
0000
0000
0000
0000
0000
0000
0000
0000
0000
0000
0000
0031
0000
0000
0000
0000
0001
0000
0000
0100
0000
0000
0000
0000
0100
0000
0000
,  // measure 38
0010
0000
0000
0000
0000
0010
0000
0000
1000
0000
0000
0000
0000
1000
0000
0000
0100
0000
0000
0000
0000
0100
0000
0000
0010
0000
0000
0000
0000
0001
0000
0000
0000
0000
0000
0000
0000
1000
0000
0000
0010
0000
0000
0000
0000
0100
0000
0000
0001
0000
0000
0000
0000
0001
0000
0000
0000
0000
0000
0000
0000
0101
0000
0000
,  // measure 39
0000
0000
0000
0000
0000
0001
0000
0000
0010
0000
0000
0000
0000
0100
0000
0000
1000
0000
0000
0000
0000
1000
0000
0000
0000
0000
0000
0000
0000
1100
0000
0000
0000
0000
0000
0000
0000
0001
0000
0000
0100
0000
0000
0000
0000
0010
0000
0000
1000
0000
0000
0000
0000
1000
0000
0000
0100
0000
0000
0000
0000
0100
0000
0000
,  // measure 40
0010
0000
0000
0000
0000
0010
0000
0000
0001
0000
0000
0000
0000
0001
0000
0000
0100
0000
0000
0000
0000
0001
0000
0000
1000
0000
0000
0000
0000
0001
0000
0000
0000
0000
0000
0000
0000
0010
0000
0000
0001
0000
0000
0000
0000
0001
0000
0000
0100
0000
0000
0000
0000
0100
0000
0000
0000
0000
0000
0000
0000
2010
0000
0000
,  // measure 41
0000
0000
0000
0000
0000
3010
0000
0000
1000
0000
0000
0000
0000
1000
0000
0000
0100
0000
0000
0000
0000
0100
0000
0000
0000
0000
0000
0000
0000
0012
0000
0000
0000
0000
0000
0000
0000
1003
0000
0000
0001
0000
0000
0000
0000
0001
0000
0000
1000
0000
0000
0000
0000
1000
0000
0000
0010
0000
0000
0000
0000
0010
0000
0000
,  // measure 42
0001
0000
0000
0000
0000
0001
0000
0000
0010
0000
0000
0000
0000
0010
0000
0000
1000
0000
0000
0000
0000
1000
0000
0000
0100
0000
0000
0000
0000
0010
0000
0000
0000
0000
0000
0000
0000
0001
0000
0000
0100
0000
0000
0000
0000
0100
0000
0000
0010
0000
0000
0000
0000
1010
0000
0000
0000
0000
0000
0000
0000
2MM2
0000
0000
,  // measure 43
3003
0000
0000
0000
0000
0000
0000
0000
0010
0000
0000
0000
0000
0011
0000
0000
0000
0000
0000
0000
0000
2MM2
0000
0000
3003
0000
0000
0000
0000
0000
0000
0000
0001
0000
0000
0000
0000
0001
0000
0000
0010
0000
0000
0000
0000
0010
0000
0000
1000
0000
0000
0000
0000
1000
0000
0000
0010
0000
0000
0000
0000
0010
0000
0000
,  // measure 44
0001
0000
0000
0000
0000
1000
0000
0000
0001
0000
0000
0000
0000
0100
0000
0000
0000
0000
0000
0000
0000
0010
0000
0000
1000
0000
0000
0000
0000
1000
0000
0000
0100
0000
0000
0000
0000
0100
0000
0000
0000
0000
0000
0000
0000
0012
0000
0000
0000
0000
0000
0000
0000
0013
0000
0000
0001
0000
0000
0000
0000
0001
0000
0000
,  // measure 45
0100
0000
0000
0000
0000
0100
0000
0000
0010
0000
0000
0000
0000
2002
0000
0000
0000
0000
0000
0000
0000
0000
0000
0000
0003
0000
0000
0000
0000
0000
0000
0000
3100
0000
0000
0000
0000
0000
0000
0000
0000
0000
0000
0000
0100
0000
0000
0000
0010
0000
0000
0000
0000
0000
0000
0000
0002
0000
0000
0000
0000
0000
0000
0000
,  // measure 46
0000
0000
0000
0000
0000
0000
0000
0000
0103
0000
0000
0000
0000
0000
0000
0000
1001
0000
0000
0000
0000
0000
0000
0000
MMMM
0000
0000
0000
0000
0000
0000
0000
0101
0000
0000
0000
0000
0000
0000
0000
1010
0000
0000
0000
0000
0000
0000
0000
0010
0000
0000
0000
0000
1000
0000
0000
0001
0000
0000
0000
0000
1000
0000
0000
,  // measure 47
0100
0000
0000
0000
0000
0000
0000
0000
0011
0000
0000
0000
0000
0000
0000
0000
0001
0000
0000
0000
0000
1000
0000
0000
0010
0000
0000
0000
0000
0100
0000
0000
0002
0000
0000
0000
0000
0000
0000
0000
0023
0000
0000
0000
0000
0000
0000
0000
2030
0000
0000
0000
0000
0000
0000
0000
3002
0000
0000
0000
0203
0000
0000
0000
,  // measure 48
2300
0000
0000
0000
0000
0000
0000
0000
0000
0000
0000
0000
0000
0000
0000
0000
0000
0000
0000
0000
0000
0000
0000
0000
3020
0000
0000
0000
0000
0000
0000
0000
0000
0000
0000
0000
0000
0000
0000
0000
0000
0000
0000
0000
0000
0000
0000
0000
0032
0000
0000
0000
0000
0000
0000
0000
0000
0000
0000
0000
0000
0000
0000
0000
0000
0000
0000
0000
0000
0000
0000
0000
0013
0000
0000
0000
0000
0000
0000
0000
0000
0000
0000
0000
0000
0000
0000
0000
0000
0000
0000
0000
0000
0000
0000
0000
1010
0000
0000
0000
0000
0000
0000
0000
0000
0000
0000
0000
0000
0000
0000
0000
0000
0000
0000
0000
0000
0000
0000
0000
0101
0000
0000
0000
0000
0000
0000
0000
0000
0000
0000
0000
0000
0000
0000
0000
0000
0000
0000
0000
0000
0000
0000
0000
0001
0000
0000
0000
0000
0000
0000
0000
0000
0000
0000
0000
0000
0000
0000
0100
0000
0000
0000
0000
0000
0000
0000
0000
0010
0000
0000
0000
0000
0000
0000
1000
0000
0000
0000
0000
0000
0000
0000
0001
0000
0000
0000
0000
0000
0000
0000
0000
,  // measure 49
0010
0000
0000
0000
0000
0000
0000
0000
1100
0000
0000
0000
0000
0000
0000
0000
1000
0000
0000
0000
0000
0010
0000
0000
0100
0000
0000
0000
0000
0001
0000
0000
2000
0000
0000
0000
0000
0000
0000
0000
3200
0000
0000
0000
0000
0310
0000
0000
0002
0000
0000
0000
0000
0000
0000
0000
0203
0000
0000
0000
0320
0000
0000
0000
,  // measure 50
2030
0000
0000
0000
0000
0000
0000
0000
3002
0000
0000
0000
0000
0013
0000
0000
0200
0000
0000
0000
0000
0000
0000
0000
1300
0000
0000
0000
0000
0000
0000
0000
1100
0000
0000
0000
0000
0000
0000
0000
0011
0000
0000
0000
0000
0000
0000
0000
0010
0000
0000
0000
0000
0001
0000
0000
0100
0000
0000
0000
0000
0001
0000
0000
,  // measure 51
0010
0000
0000
0000
0000
0000
0000
0000
1100
0000
0000
0000
0000
0000
0000
0000
1000
0000
0000
0000
0000
0010
0000
0000
0100
0000
0000
0000
0000
0001
0000
0000
2000
0000
0000
0000
0000
0000
0000
0000
3200
0000
0000
0000
0000
0000
0000
0000
0302
0000
0000
0000
0000
0000
0000
0000
2003
0000
0000
0000
3020
0000
0000
0000
,  // measure 52
0032
0000
0000
0000
0000
0000
0000
0000
0000
0000
0000
0000
0000
0000
0000
0000
0000
0000
0000
0000
0000
0000
0000
0000
0203
0000
0000
0000
0000
0000
0000
0000
0000
0000
0000
0000
0000
0000
0000
0000
0000
0000
0000
0000
0000
0000
0000
0000
2300
0000
0000
0000
0000
0000
0000
0000
0000
0000
0000
0000
0000
0000
0000
0000
0000
0000
0000
0000
0000
0000
0000
0000
3100
0000
0000
0000
0000
0000
0000
0000
0000
0000
0000
0000
0000
0000
0000
0000
0000
0000
0000
0000
0000
0000
0000
0000
0101
0000
0000
0000
0000
0000
0000
0000
0000
0000
0000
0000
0000
0000
0000
0000
0000
0000
0000
0000
0000
0000
0000
0000
1010
0000
0000
0000
0000
0000
0000
0000
0000
0000
0000
0000
0000
0000
0000
0000
0000
0000
0000
0000
0000
0000
0000
0000
1000
0000
0000
0000
0000
0000
0000
0000
0000
0000
0000
0000
0000
0000
0000
0100
0000
0000
0000
0000
0000
0000
0000
0000
0010
0000
0000
0000
0000
0000
0000
0001
0000
0000
0000
0000
0000
0000
0000
1000
0000
0000
0000
0000
0000
0000
0000
0000
,  // measure 53
0010
0000
0000
0000
0000
0000
0000
0000
0101
0000
0000
0000
0000
0000
0000
0000
0001
0000
0000
0000
0000
0010
0000
0000
0100
0000
0000
0000
0000
1000
0000
0000
0002
0000
0000
0000
0000
0000
0000
0000
0203
0000
0000
0000
0000
0310
0000
0000
2000
0000
0000
0000
0000
0000
0000
0000
3200
0000
0000
0000
0320
0000
0000
0000
,  // measure 54
0031
0000
0001
0000
0101
0000
1001
0000
22M0
000M
00M0
000M
00M0
000M
00M0
000M
,  // measure 55
00M0
0000
0000
0000
000M
0000
0000
0000
33M0
0000
0000
0000
000M
0000
0000
0000
00M0
0000
0000
0000
000M
0000
0000
0000
11MM
0000
0000
0000
0000
0000
0000
0000
2001
0000
0000
0000
0000
0000
0000
0000
3001
0000
0000
0000
0000
1000
0000
0000
0010
0000
0000
0000
0000
0010
0000
0000
1000
0000
0000
0000
0000
1000
0000
0000
,  // measure 56
0200
0000
0000
0000
0000
0000
0000
0000
0301
0000
0000
0000
0000
0100
0000
0000
0000
0000
0000
0000
0000
0100
0000
0000
1000
0000
0000
0000
0000
0001
0000
0000
0200
0000
0000
0000
0000
0000
0000
0000
0310
0000
0000
0000
0000
1000
0000
0000
0010
0000
0000
0000
0000
0100
0000
0000
0010
0000
0000
0000
0000
0001
0000
0000
,  // measure 57
0010
0000
0000
0000
0000
0000
0000
0000
0000
0000
0000
0000
0000
0000
0000
0100
0000
0000
0000
0000
0000
0000
0000
0000
0010
0000
0000
0000
0000
0000
0000
0000
0000
0000
0000
0000
0000
0000
0000
1000
0000
0000
0000
0000
0000
0000
0000
0000
0100
0000
0000
0000
0000
0000
0000
0000
0000
0000
0000
0000
0000
0000
0000
0100
0000
0000
0000
0000
0000
0000
0000
0000
0010
0000
0000
0000
0000
0000
0000
0000
0000
0000
0000
0000
0000
0000
0000
0000
0000
0000
0000
0000
0000
0000
0000
0000
0001
0000
0000
0000
0000
0000
0000
0100
0000
0000
0000
0000
0000
0000
0000
0010
0000
0000
0000
0000
0000
0000
0000
0000
1000
0000
0000
0000
0000
0000
0000
0010
0000
0000
0000
0000
0000
0000
0000
0100
0000
0000
0000
0000
0000
0000
0000
0000
0001
0000
0000
0000
0000
0000
0000
0000
0000
0000
0000
0000
0000
0000
0000
0001
0000
0000
0000
0000
0000
0000
0000
0000
0100
0000
0000
0000
0000
0000
0000
0000
0000
0000
0000
0000
0000
0000
0000
0010
0000
0000
0000
0000
0000
0000
0000
0000
,  // measure 58
1000
0000
0000
0000
0000
1000
0000
0000
0100
0000
0000
0000
0000
0010
0000
0000
0001
0000
0000
0000
0000
0001
0000
0000
0100
0000
0000
0000
0000
0000
0000
0000
2000
0000
0000
0000
0000
0000
0000
0000
3100
0000
0000
0000
0000
0100
0000
0000
0010
0000
0000
0000
0000
1000
0000
0000
0001
0000
0000
0000
0000
0001
0000
0000
,  // measure 59
1000
0000
0000
0000
0000
0100
0000
0000
0010
0000
0000
0000
0000
0000
0000
0000
0220
0000
0000
0000
0330
0000
0000
0000
0000
0000
0000
0000
0000
0000
0000
0000
1002
0000
0000
0000
0000
0000
0000
0000
1003
0000
0000
0000
0000
0001
0000
0000
0010
0000
0000
0000
0000
0010
0000
0000
0001
0000
0000
0000
0000
0001
0000
0000
,  // measure 60
0200
0000
0000
0000
0000
0000
0000
0000
0000
0000
0000
0000
0000
0000
0000
0000
0000
0000
0000
0000
0000
0000
0000
0000
1300
0000
0000
0000
0000
0000
0000
0000
0000
0000
0000
0000
0000
0000
0000
0200
0000
0000
0000
0000
0000
0000
0000
0000
0000
0000
0000
0000
0000
0000
0000
0000
0000
0000
0000
0000
0000
0000
0000
0001
0300
0000
0000
0000
0000
0000
0000
0000
0010
0000
0000
0000
0000
0000
0000
0100
0000
0000
0000
0000
0000
0000
0000
1000
0000
0000
0000
0000
0000
0000
0000
0000
0002
0000
0000
0000
0000
0000
0000
0000
0000
0000
0000
0000
0000
0000
0000
0000
0000
0000
0000
0000
0000
0000
0000
0000
1003
0000
0000
0000
0000
0000
0000
0000
0000
0000
0000
0000
0000
0000
0000
0001
0000
0000
0000
0000
0000
0000
0000
0000
0100
0000
0000
0000
0000
0000
0000
0000
0000
0000
0000
0000
0000
0000
0000
0010
0000
0000
0000
0000
0000
0000
0000
0000
0100
0000
0000
0000
0000
0000
0000
0000
0000
0000
0000
0000
0000
0000
0000
1000
0000
0000
0000
0000
0000
0000
0000
0000
,  // measure 61
0100
0000
0000
0000
0000
0010
0000
0000
0100
0000
0000
0000
0000
0001
0000
0000
0010
0000
0000
0000
0000
0010
0000
0000
0100
0000
0000
0000
0000
0000
0000
0000
2000
0000
0000
0000
0000
0000
0000
0000
3001
0000
0000
0000
0000
1000
0000
0000
0010
0000
0000
0000
0000
1000
0000
0000
0001
0000
0000
0000
0000
0010
0000
0000
,  // measure 62
0001
0000
0000
0000
0000
0001
0000
0000
0100
0000
0000
0000
0000
0010
0000
0000
1000
0000
0000
0000
0000
1000
0000
0000
0100
0000
0000
0000
0000
0000
0000
0000
0002
0000
0000
0000
0000
0000
0000
0000
0103
0000
0000
0000
0000
0100
0000
0000
0010
0000
0000
0000
0000
0010
0000
0000
0001
0000
0000
0000
0000
0100
0000
0000
,  // measure 63
0010
0000
0000
0000
0000
0010
0000
0000
1000
0000
0000
0000
0000
0000
0000
0000
0001
0000
0000
0000
0000
1000
0000
0000
0100
0000
0000
0000
0000
0000
0000
0000
0120
0000
0000
0000
0000
0000
0000
0000
0000
0000
0000
0030
0000
0001
0000
0000
0100
0000
0000
0000
0000
0020
0000
0000
0000
0000
0000
0000
0000
1030
0000
0000
,  // measure 64
0100
0000
0000
0000
0000
0000
0000
0010
0000
0000
0000
0000
0000
0000
0000
0001
0000
0000
0000
0000
0000
0000
0000
0000
0100
0000
0000
0000
0000
0000
0000
0000
0000
0000
0000
0000
0000
0000
0000
0001
0000
0000
0000
0000
0000
0000
0000
0000
1000
0000
0000
0000
0000
0000
0000
0000
0000
0000
0000
0000
0000
0000
0000
0000
0000
0000
0000
0000
0000
0000
0000
0000
1001
0000
0000
0000
0000
0000
0000
0000
0000
0000
0000
0000
0000
0000
0000
2002
0000
0000
0000
0000
0000
0000
0000
0000
0000
0000
0000
0000
0000
0000
0000
0000
0000
0000
0000
0000
0000
0000
0000
0000
0000
0000
0000
0000
0000
0000
0000
0000
0000
0000
0000
0000
0000
0000
0000
0000
0000
0000
0000
0000
0000
0000
0000
0000
0000
0000
0000
0000
0000
0000
0000
0000
0000
0000
0000
0000
0000
0000
0000
0000
0000
0000
0000
0000
0000
0000
0000
0000
0000
0000
0000
0000
0000
0000
0000
0000
0000
0000
0000
0000
0000
0000
0000
0000
0000
0000
0000
0000
0000
0000
0000
0000
0000
0000
0000
0000
0000
0000
0000
0000
,  // measure 65
0000
0000
3003
0000
;

//---------------dance-single - ----------------
#NOTES:
     dance-single:
     :
     Medium:
     11:
     0.474397,0.469448,0.382248,0.366321,0.063708,417.000000,369.000000,48.000000,46.000000,6.000000,0.000000,0.474397,0.469448,0.382248,0.366321,0.063708,417.000000,369.000000,48.000000,46.000000,6.000000,0.000000:
0000
0000
0000
0000
,
0000
0000
0000
0000
,
0000
0000
0000
0000
,
0000
0000
0000
0000
,
1001
0000
1000
0100
0010
0100
1000
0000
,
1001
0000
0001
0100
1000
0100
0001
0000
,
1001
0000
0001
0010
0100
0010
0001
0000
,
1001
0000
1000
0010
0001
0010
2000
0000
,
3100
0000
0000
0000
0100
0000
0000
0000
0100
0000
1000
0002
0000
0000
0103
0000
,
0010
0000
0100
0000
0100
0000
0000
0000
0100
0000
0001
2000
0000
0000
3100
0000
,
2200
3300
0022
0033
,
2002
0000
0000
0000
0000
0000
0000
3MM3
,
1001
0000
0201
0000
0310
1000
0001
1000
,
0100
0010
0001
0100
1000
0100
0002
0003
,
1000
0000
0100
0000
0001
0000
0100
0000
4000
0000
0000
3000
0004
0000
0000
0003
,
1000
0010
0100
0001
1000
0100
0110
0000
,
1001
0000
1200
0000
0310
0001
0100
1000
,
0100
0001
0010
0100
1000
0001
0200
0300
,
0001
0000
0100
0000
1000
0000
0100
0000
0004
0000
0000
0003
4000
0000
0000
3000
,
0100
0010
0210
0000
1300
0001
1002
0000
,
0103
0000
2001
0000
3010
1000
0100
1000
,
0001
0100
1000
0100
0001
0010
0200
0300
,
1000
0000
1000
0000
1002
0000
0000
0000
0403
0000
0000
0300
0040
0000
0000
0030
,
1000
0001
0100
0001
1000
0100
0010
0001
,
1000
0000
1001
0000
0001
0010
1000
0010
,
0100
1000
0001
1000
0010
0100
0002
0003
,
1000
0000
0010
0000
0001
0000
0010
0000
4000
0000
0000
3000
0400
0000
0000
0300
,
0010
0001
0200
0000
0310
2000
3200
0000
,
0020
0000
0000
0000
0000
0000
0000
0000
0330
0000
0000
0000
0110
0000
0000
0000
0000
0000
1001
0000
0000
1000
0000
0000
,
0100
0000
1001
0001
0100
0000
0001
0100
,
0010
1000
0010
0100
0001
0000
1001
0001
,
0010
0000
1001
1000
0010
0000
1000
0100
,
0010
0001
0010
0100
1000
0000
1010
1000
,
0100
0000
0011
0001
0100
0000
0010
1000
,
0001
1000
0100
1000
0010
0000
0101
0001
,
0010
0000
1100
1000
0010
0000
1000
0001
,
0100
0001
1000
0100
0120
0000
0031
0000
,
1000
0000
0000
0001
0000
0000
0100
0000
0020
0000
0000
0000
1030
0000
0010
0000
,
0100
0000
0000
0000
0000
0000
0000
0000
0001
0000
0000
0000
0000
0000
0000
0000
0010
0000
0000
0000
0000
0000
0000
0000
0001
0000
0000
0000
0000
0000
0000
0000
0100
0000
0000
0000
0000
0000
0000
0000
0010
0000
0000
0000
0000
0000
0000
0000
1000
0000
0000
0000
0000
0000
0000
0000
0000
0000
0000
0000
0000
1000
0000
0000
,
0000
0000
0000
0000
0000
0000
0000
0000
0001
0000
0000
0000
0000
0000
0000
0000
0100
0000
0000
0000
0000
0000
0000
0000
0000
0000
0000
0000
0000
0100
0000
0000
0000
0000
0000
0000
0000
0000
0000
0000
0001
0000
0000
0000
0000
0000
0000
0000
1000
0000
0000
0000
0000
0000
0000
0000
0100
0000
0000
0000
0000
0000
0000
0000
,
0010
0000
0000
0000
0000
0000
0000
0000
0001
0000
0000
0000
0000
0000
0000
0000
0100
0000
0000
0000
0000
0000
0000
0000
0010
0000
0000
0000
0000
0000
0000
0000
1000
0000
0000
0000
0000
0000
0000
0000
0001
0000
0000
0000
0000
0000
0000
0000
0001
0000
0000
0000
0000
0000
0000
0000
0000
0000
0000
0000
0000
0012
0000
0000
,
0000
0000
0000
0000
0000
0000
0000
0000
1000
0000
0000
0000
0000
0000
0000
0000
1003
0000
0000
0000
0000
0000
0000
0000
0000
0000
0000
0000
0000
2010
0000
0000
0000
0000
0000
0000
0000
0000
0000
0000
0001
0000
0000
0000
0000
0000
0000
0000
3001
0000
0000
0000
0000
0000
0000
0000
0010
0000
0000
0000
0000
0000
0000
0000
,
0100
0000
0000
0000
0000
0000
0000
0000
0010
0000
0000
0000
0000
0000
0000
0000
1000
0000
0000
0000
0000
0000
0000
0000
0010
0000
0000
0000
0000
0000
0000
0000
0100
0000
0000
0000
0000
0000
0000
0000
0010
0000
0000
0000
0000
0000
0000
0000
0001
0000
0000
0000
0000
0000
0000
0000
0000
0000
0000
0000
0000
1001
0000
0000
,
0000
0000
0000
0000
0000
0000
0000
0000
1000
0000
0000
0000
0000
0000
0000
0000
0000
0000
0000
0000
0000
1001
0000
0000
0000
0000
0000
0000
0000
0000
0000
0000
0001
0000
0000
0000
0000
0000
0000
0000
0100
0000
0000
0000
0000
0000
0000
0000
0010
0000
0000
0000
0000
0000
0000
0000
0100
0000
0000
0000
0000
0000
0000
0000
,
1000
0000
0000
0000
0000
0000
0000
0000
0100
0000
0000
0000
0000
0000
0000
0000
0010
0000
0000
0000
0000
0000
0000
0000
1000
0000
0000
0000
0000
0000
0000
0000
1000
0000
0000
0000
0000
0000
0000
0000
0000
0000
0000
0000
0000
2010
0000
0000
0000
0000
0000
0000
0000
0000
0000
0000
0001
0000
0000
0000
0000
0000
0000
0000
,
3001
0000
0000
0000
0000
0000
0000
0000
0000
0000
0000
0000
0000
0012
0000
0000
0000
0000
0000
0000
0000
0000
0000
0000
0000
0000
0000
0000
0000
0000
0000
0000
1003
0000
0000
0000
0000
0000
0000
0000
0000
0000
0000
0000
0000
0000
0000
0000
0010
0000
0000
0000
0000
0000
0000
0000
0200
0000
0000
0000
0000
0000
0000
0000
,
0000
0301
1MM1
0000
1100
0010
0001
0000
,
0101
0010
1000
0000
0010
1000
0100
0001
,
0100
1000
0010
0000
1010
0100
0001
0000
,
0011
0100
1000
0000
0002
0003
0200
0300
,
0020
0030
1010
0000
0101
0010
1000
0000
,
1100
0010
0001
0000
0010
0001
0100
1000
,
0100
0001
0010
0000
0011
0100
1000
0000
,
1010
0100
0001
0000
2000
3000
0200
0300
,
0010
0001
1000
0001
2002
0000
0000
0000
,
0000
0000
0000
3MM3
1001
0000
0001
0100
,
0020
0000
0000
0000
0000
0000
0000
0000
0000
0000
0000
0000
0000
1030
0000
0000
0000
0000
0000
0000
0000
0000
0000
0000
0100
0000
0000
0000
0000
0000
0000
0000
0020
0000
0000
0000
0000
0000
0000
0000
0000
0000
0000
0000
0000
0031
0000
0000
0000
0000
0000
0000
0000
0000
0000
0000
0001
0000
0000
0000
0000
0000
0000
0000
,
0100
0000
0010
0000
4000
0000
0000
3000
0100
0000
0010
0000
0100
0000
1000
0000
,
0010
0100
0010
1000
0001
1000
0100
0001
,
0100
0000
1000
0000
0002
0003
0000
0000
1001
0000
0000
0000
1000
0000
0100
0000
,
0020
0000
0000
0000
0000
0000
0000
0000
0000
0000
0000
0000
0000
0031
0000
0000
0000
0000
0000
0000
0000
0000
0000
0000
0100
0000
0000
0000
0000
0000
0000
0000
0020
0000
0000
0000
0000
0000
0000
0000
0000
0000
0000
0000
0000
1030
0000
0000
0000
0000
0000
0000
0000
0000
0000
0000
1000
0000
0000
0000
0000
0000
0000
0000
,
0100
0010
0001
1000
0001
0100
0010
0100
,
0001
0010
0100
0010
0001
0100
0010
1000
,
0001
0010
0100
1000
0002
0000
2003
0000
,
3010
0000
0000
0000
0000
0000
0000
0000
0000
0000
0000
0000
0000
0110
0000
0000
0000
0000
0000
0000
0000
0000
0000
0000
2002
0000
0000
0000
0000
0000
0000
0000
0000
0000
0000
0000
0000
0000
0000
0000
0000
0000
0000
0000
0000
0000
0000
0000
0000
0000
0000
0000
0000
0000
0000
0000
0000
0000
0000
0000
0000
0000
0000
0000
,
0000
0000
3003
0000
;

//---------------dance-single - ----------------
#NOTES:
     dance-single:
     :
     Hard:
     14:
     0.624566,0.625931,0.286686,0.828203,0.437992,549.000000,513.000000,36.000000,104.000000,4.000000,0.000000,0.624566,0.625931,0.286686,0.828203,0.437992,549.000000,513.000000,36.000000,104.000000,4.000000,0.000000:
0000
0000
0000
0000
,
0000
0000
0000
0000
,
0000
0000
0000
0000
,
0000
0000
0000
0000
,
1001
0000
0000
0000
1000
0000
0100
0000
0010
0000
0100
1000
0000
0001
0000
0100
,
0000
0000
0000
0000
0001
0000
0100
0000
0010
0000
1000
0001
0000
0010
0000
0100
,
0000
0000
0010
0000
0100
0000
1000
0000
0010
0000
0100
0001
0000
1000
0000
0100
,
0000
1000
0100
0010
0001
0100
1002
0000
,
1003
0000
0000
0000
1000
0000
0000
0000
1000
0000
0001
0200
0000
0000
0301
0000
,
0001
0000
1000
0000
0001
0000
0000
0000
0001
0000
1000
0200
0000
0000
1300
0000
,
0002
0100
0000
0100
0003
0000
0000
0000
2000
0100
0000
0100
3000
0000
0000
0000
,
2002
0000
0000
0000
0000
3MM3
0000
1001
,
1001
0000
0000
1000
0200
0000
0310
0000
0001
0000
0100
0000
0001
0000
1000
0000
,
0020
0000
1030
0001
1000
0000
0100
0000
0010
0001
0100
0000
0002
0000
1003
0000
,
0100
0100
0020
0230
1300
0010
0001
0010
,
1000
0001
1000
0001
1000
0000
0100
0000
0010
0000
0100
1000
0020
0000
2030
0000
,
3001
0010
0200
1300
0010
1000
0001
0010
,
0100
0010
0100
0000
1000
0000
0001
0000
0100
0001
0010
0000
0002
0000
0103
0000
,
0010
1000
0001
0000
0010
0000
0100
0000
1000
0000
0010
0000
0001
0000
0010
0000
,
1000
0000
0100
0000
0020
0000
0000
0000
0031
1000
0001
0000
1002
0000
0000
0000
,
0103
0000
0000
0000
2001
0000
0000
0000
3100
0000
0010
0100
0010
0000
0001
0000
,
2000
0000
3010
0000
1000
0000
0001
0000
0100
0001
0010
0000
0200
0000
1300
0001
,
1000
1000
0020
0130
0001
0010
1000
0010
,
0001
1000
0001
1000
0001
0000
0100
0000
0010
0000
1000
0000
0100
0000
0010
0000
,
0100
0000
1000
0000
1001
0000
0000
0000
1000
0001
1000
0000
0001
0000
0010
0000
,
1000
0000
0010
0100
0010
0000
0001
0000
0100
0001
0010
0000
0200
0000
0310
0000
,
0001
0000
1000
0010
0100
0000
0010
0000
1000
0000
0100
0000
0001
0000
0100
0000
,
1000
0001
1000
0000
0002
0000
0000
0000
0103
0010
0100
0000
0002
0000
0000
0000
,
2000
0000
0000
0000
0000
0000
0000
0000
3003
0000
0000
0000
1001
0000
0000
0000
0000
0000
0001
0000
0000
0001
0000
0000
,
0100
0000
0000
0000
0000
0100
0000
0000
0001
0000
0000
0000
0000
0000
0000
0000
1000
0000
0000
0000
0000
0000
0000
0000
1000
0000
0000
0000
0000
0000
0000
0000
0100
0000
0000
0000
0000
0100
0000
0000
1000
0000
0000
0000
0000
0000
0000
0000
0002
0000
0000
0000
0000
0000
0000
0000
0203
0000
0000
0000
0000
0000
0000
0000
,
0320
0000
2030
3002
2003
0000
3200
0000
0320
0000
0032
0000
1003
0000
1000
0000
,
0010
0000
0000
0000
0000
0000
0000
0000
0001
0000
0000
0000
0000
0000
0000
0000
0010
0000
0000
0000
0000
0000
0000
0000
1000
0000
0000
0000
0000
0000
0000
0000
0100
0000
0000
0000
0000
0010
0000
0000
0100
0000
0000
0000
0000
0000
0000
0000
2000
0000
0000
0000
0000
0000
0000
0000
3020
0000
0000
0000
0000
0000
0000
0000
,
2030
0000
3002
2003
3002
0000
0023
0000
0032
0000
0203
0000
0301
0000
0001
0000
,
0010
0000
0000
0000
0000
0010
0000
0000
0100
0000
0000
0000
0000
0000
0000
0000
1000
0000
0000
0000
0000
0000
0000
0000
0001
0000
0000
0000
0000
0000
0000
0000
0100
0000
0000
0000
0000
0100
0000
0000
0010
0000
0000
0000
0000
0000
0000
0000
2000
0000
0000
0000
0000
0000
0000
0000
3200
0000
0000
0000
0000
0000
0000
0000
,
0320
0000
0032
2003
3002
0000
0203
0000
0320
0000
0000
0000
1030
0000
1000
0000
,
0100
0000
0000
0000
0000
0000
0000
0000
0001
0000
0000
0000
0000
0000
0000
0000
0100
0000
0000
0000
0000
0000
0000
0000
1000
0000
0000
0000
0000
0000
0000
0000
0001
0000
0000
0000
0000
1000
0000
0000
0001
0000
0000
0000
0000
0000
0000
0000
0200
0000
0000
0000
0000
0000
0000
0000
0320
0000
0000
0000
0000
0000
0000
0000
,
0230
0000
0302
2003
3002
0000
0023
0000
0230
0000
2300
0000
3001
0000
0000
0000
,
0001
0000
0000
0100
0000
0000
0010
0000
1001
0000
0000
0000
1000
0000
0100
0000
,
0010
0000
0000
0000
0000
0100
0000
0000
1000
0000
0000
0000
0000
0000
0000
0000
0010
0000
0000
0000
0000
0000
0000
0000
0001
0000
0000
0000
0000
0010
0000
0000
0000
0000
0000
0000
0000
0010
0000
0000
1000
0000
0000
0000
0000
0000
0000
0000
0100
0000
0000
0000
0000
1000
0000
0000
0000
0000
0000
0000
0000
0100
0000
0000
,
0000
0000
0000
0000
0000
0010
0000
0000
0001
0000
0000
0000
0000
0000
0000
0000
0100
0000
0000
0000
0000
0001
0000
0000
0000
0000
0000
0000
0000
0100
0000
0000
0000
0000
0000
0000
0000
0001
0000
0000
1000
0000
0000
0000
0000
0000
0000
0000
0001
0000
0000
0000
0000
0000
0000
0000
0010
0000
0000
0000
0000
0000
0000
0000
,
0100
0000
0000
0000
0000
0010
0000
0000
0001
0000
0000
0000
0000
0000
0000
0000
0100
0000
0000
0000
0000
0000
0000
0000
1000
0000
0000
0000
0000
0100
0000
0000
0000
0000
0000
0000
0000
0100
0000
0000
0001
0000
0000
0000
0000
0000
0000
0000
0010
0000
0000
0000
0000
0100
0000
0000
0000
0000
0000
0000
0000
0210
0000
0000
,
0000
0000
0000
0000
0000
0000
0000
0000
1300
0000
0000
0000
0000
0000
0000
0000
0010
0000
0000
0000
0000
0100
0000
0000
0000
0000
0000
0000
0000
0210
0000
0000
0000
0000
0000
0000
0000
0000
0000
0000
0301
0000
0000
0000
0000
0000
0000
0000
0010
0000
0000
0000
0000
0000
0000
0000
0100
0000
0000
0000
0000
0000
0000
0000
,
0010
0000
0000
0000
0000
0001
0000
0000
0100
0000
0000
0000
0000
0000
0000
0000
1000
0000
0000
0000
0000
0000
0000
0000
0100
0000
0000
0000
0000
0001
0000
0000
0000
0000
0000
0000
0000
0001
0000
0000
0010
0000
0000
0000
0000
0000
0000
0000
0001
0000
0000
0000
0000
0100
0000
0000
0000
0000
0000
0000
0000
0101
0000
0000
,
0000
0000
0000
0000
0000
0000
0000
0000
1000
0000
0000
0000
0000
0100
0000
0000
0000
0000
0000
0000
0000
1100
0000
0000
0000
0000
0000
0000
0000
0000
0000
0000
1000
0000
0000
0000
0000
0000
0000
0000
0010
0000
0000
0000
0000
0000
0000
0000
0100
0000
0000
0000
0000
0010
0000
0000
1000
0000
0000
0000
0000
0000
0000
0000
,
0100
0000
0000
0000
0000
0000
0000
0000
0010
0000
0000
0000
0000
0001
0000
0000
0000
0000
0000
0000
0000
0001
0000
0000
0100
0000
0000
0000
0000
0000
0000
0000
0010
0000
0000
0000
0000
1000
0000
0000
0000
0000
0000
0000
0000
1002
0000
0000
0000
0000
0000
0000
0000
1003
0000
0000
0100
0000
0000
0000
0000
0000
0000
0000
,
0010
0000
0000
0000
0000
0001
0000
0000
0000
0000
0000
0000
0000
2001
0000
0000
0000
0000
0000
0000
0000
0000
0000
0000
0000
0000
0000
0000
0000
0000
0000
0000
3010
0000
0000
0000
0000
0000
0000
0000
0000
0000
0000
0000
0010
0000
0000
0000
1000
0000
0000
0000
0000
0000
0000
0000
0200
0000
0000
0000
0000
0000
0000
0000
,
0000
0310
1001
0000
0101
1001
1000
0100
,
1100
0000
1001
0000
0001
0000
0100
0000
0020
0000
2030
0000
3200
0000
0320
0032
,
2003
3002
0203
0310
1010
1001
0001
0010
,
0011
0000
1001
0000
1000
0000
0010
0000
2000
0000
3002
0000
2003
0000
3200
0320
,
0032
0023
0230
1300
1100
0110
0010
0001
,
0101
0000
0110
0000
0010
0000
1000
0000
0200
0000
2300
0000
3020
0000
0230
0302
,
2003
3002
0023
0130
0110
0011
0001
0100
,
0110
0000
1010
0000
1000
0000
0100
0000
0020
0000
0032
0000
0023
0000
0032
2003
,
3001
0001
0100
0020
2000
0000
0000
0000
,
0000
0000
0000
0000
0000
0000
0000
0000
3M3M
0000
0000
0000
0000
0000
0000
0000
0000
0000
0000
0000
0000
0000
0000
0000
1010
0000
0000
0000
0000
0000
0000
0000
1000
0000
0000
0000
0000
0000
0000
0000
0100
0000
0000
0000
0000
0000
0000
0000
0010
0000
0000
0000
0000
0001
0000
0000
1000
0000
0000
0000
0000
0000
0000
0000
,
0001
0000
0000
0000
0000
0000
0000
0000
0100
0000
0000
0000
0000
0020
0000
0000
0000
0000
0000
0000
0000
0000
0000
0000
0130
0000
0000
0000
0000
0001
0000
0000
1000
0000
0000
0000
0000
0000
0000
0000
0100
0000
0000
0000
0000
0010
0000
0000
0100
0000
0000
0000
0000
0010
0000
0000
0100
0000
0000
0000
0000
0000
0000
0000
,
0010
0000
0000
0000
0000
0000
0000
0000
0001
0000
0000
0000
0000
0000
0000
0000
0100
0000
0000
0000
0000
0010
0000
0000
1000
0000
0000
0000
0000
0000
0000
0000
0001
0000
0000
0000
0000
0000
0000
0000
0010
0000
0000
0000
0000
0000
0000
0000
0100
0000
0000
0000
0000
0010
0000
0000
0001
0000
0000
0000
0000
0000
0000
0000
,
1000
0000
0000
0000
0000
0001
0000
0000
0100
0000
0000
0000
0000
0000
0000
0000
0001
0000
0000
0000
0000
1000
0000
0000
0100
0000
0000
0000
0000
0000
0000
0000
0010
0000
0000
0000
0000
0000
0000
0000
0001
0000
0000
0000
0000
1000
0000
0000
0001
0000
0000
0000
0000
0000
0000
0000
0100
0000
0000
0000
0000
0000
0000
0000
,
1000
0000
0000
0000
0000
0000
0000
0000
0100
0000
0000
0000
0000
0000
0000
0000
0210
0000
0000
0000
0000
0000
0000
0000
0000
0000
0000
0000
0000
0000
0000
0000
0301
0000
0000
0000
0000
0000
0000
0000
0010
0000
0000
0000
0000
0000
0000
0000
0100
0000
0000
0000
0000
1000
0000
0000
0001
0000
0000
0000
0000
0000
0000
0000
,
1000
0000
0000
0000
0000
0000
0000
0000
0010
0000
0000
0000
0000
0200
0000
0000
0000
0000
0000
0000
0000
0000
0000
0000
0310
0000
0000
0000
0000
1000
0000
0000
0001
0000
0000
0000
0000
0000
0000
0000
0010
0000
0000
0000
0000
0100
0000
0000
0010
0000
0000
0000
0000
0100
0000
0000
0010
0000
0000
0000
0000
0000
0000
0000
,
0001
0000
0000
0000
0000
0000
0000
0000
0100
0000
0000
0000
0000
0000
0000
0000
0010
0000
0000
0000
0000
1000
0000
0000
0001
0000
0000
0000
0000
0000
0000
0000
1000
0000
0000
0000
0000
0000
0000
0000
0100
0000
0000
0000
0000
0000
0000
0000
0010
0000
0000
0000
0000
0100
0000
0000
1000
0000
0000
0000
0000
0000
0000
0000
,
0010
0000
0000
0000
0000
0100
0000
0000
0001
0000
0000
0000
0000
0000
0000
0000
0010
0000
0000
0000
0000
0100
0000
0000
1000
0000
0000
0000
0000
0000
0000
0000
0001
0000
0000
0000
0000
0000
0000
0000
1000
0000
0000
0000
0000
0001
0000
0000
0100
0000
0000
0000
0000
0000
0000
0000
0010
0000
0000
0000
0000
0000
0000
0000
,
0100
0000
0000
0000
0000
0001
0000
0000
0010
0000
0000
0000
0000
0000
0000
0000
0100
0000
0000
0000
0000
1000
0000
0000
0010
0000
0000
0000
0000
0000
0000
0000
0120
0000
0000
0000
0000
0000
0000
0000
0000
0000
0000
0000
0000
1030
0000
0000
0001
0000
0000
0000
0000
2000
0000
0000
0000
0000
0000
0000
0000
3100
0000
0000
,
0010
0000
0000
0000
0000
0000
0000
0000
0100
0000
0000
0000
0000
0010
0000
0000
0100
0000
0000
0000
0000
0000
0000
0000
2000
0000
0000
0000
0000
0002
0000
0000
0000
0000
0000
0000
0000
0000
0000
0000
0000
0000
0000
0000
0000
0000
0000
0000
0000
0000
0000
0000
0000
0000
0000
0000
0000
0000
0000
0000
0000
0000
0000
0000
,
0000
0000
3003
0000
;

//---------------dance-single - ----------------
#NOTES:
     dance-single:
     :
     Easy:
     8:
     0.391349,0.391207,0.159270,0.597262,0.000000,344.000000,324.000000,20.000000,75.000000,0.000000,0.000000,0.391349,0.391207,0.159270,0.597262,0.000000,344.000000,324.000000,20.000000,75.000000,0.000000,0.000000:
0000
0000
0000
0000
,
0000
0000
0000
0000
,
0000
0000
0000
0000
,
0000
0000
0000
0000
,
1000
0000
0100
1000
0010
0000
1000
0000
,
0001
0000
0100
0001
0010
0000
0100
0000
,
1000
0000
0010
0100
0001
0000
1000
0000
,
0001
0000
0010
0100
1000
0000
2001
0000
,
3010
0000
0010
0000
0010
1000
0100
0000
,
0010
0100
0010
0000
0010
0001
0100
0000
,
2020
3030
0202
0303
,
2002
0000
0000
0000
0000
0000
0000
3003
,
0100
0000
1002
0000
0103
0001
1000
0000
,
0001
0010
0100
0000
1000
0010
0100
0000
,
0001
0000
1000
0000
0001
0010
0100
1000
,
0001
0000
1000
0000
0010
1000
0100
1000
,
0010
0000
2001
0000
3100
1000
0001
0000
,
1000
0010
0100
0000
0001
0010
0100
0000
,
1000
0000
0001
0000
1000
0010
0100
0001
,
1000
0000
1002
0000
0013
0001
0100
0000
,
0010
0000
2001
0000
3100
0010
0001
0000
,
1000
0010
0100
0000
0001
0010
0100
0000
,
0010
0000
1002
0000
0103
0010
1000
0001
,
0010
0000
0100
0000
0010
0000
0001
1000
,
0001
0100
0010
0000
1000
0001
1000
0000
,
0110
0000
1001
0000
1000
0100
0010
0000
,
0001
0000
1000
0000
0010
0100
0001
1000
,
0100
0000
0020
0000
0130
1000
0020
0000
,
0200
0000
0000
0000
0000
0000
0000
0000
0330
0000
0000
0000
0110
0000
0000
0000
0000
0000
1000
0000
0000
1000
0000
0000
,
0100
0000
0010
0010
0001
0000
2000
0000
,
3020
0230
0320
0000
2030
0000
3001
0001
,
0010
0000
0100
0100
1000
0000
0002
0000
,
0203
0320
0230
0000
0302
0000
1003
1000
,
0100
0000
1000
1000
0010
0000
2000
0000
,
3200
0320
0032
0000
2003
0000
3001
0001
,
0100
0000
0001
0001
0010
0000
0002
0000
,
0203
0320
2030
0000
3002
0000
1003
0000
,
1000
0000
0100
0000
1001
0000
1000
0001
,
1000
0001
1000
0001
1000
0000
0010
0100
,
0001
0000
0010
0100
1000
0000
0001
1000
,
0001
1000
0001
1000
0001
0000
0100
0001
,
0020
0000
0130
1000
0020
0000
0130
0001
,
0100
0000
0000
0000
0000
0000
0000
0000
0001
0000
0000
0000
0000
0000
0000
0000
0100
0000
0000
0000
0000
0000
0000
0000
0001
0000
0000
0000
0000
0000
0000
0000
0100
0000
0000
0000
0000
0000
0000
0000
0000
0000
0000
0000
0000
0000
0000
0000
2002
0000
0000
0000
0000
0000
0000
0000
0000
0000
0000
0000
0000
3003
0000
0000
,
0000
0000
0000
0000
0000
0000
0000
0000
0220
0000
0000
0000
0000
0000
0000
0000
0000
0000
0000
0000
0000
0330
0000
0000
0000
0000
0000
0000
0000
0000
0000
0000
1000
0000
0000
0000
0000
0000
0000
0000
0100
0000
0000
0000
0000
0000
0000
0000
1000
0000
0000
0000
0000
0000
0000
0000
0100
0000
0000
0000
0000
0000
0000
0000
,
1000
0100
1000
0000
0010
0100
0002
0000
,
0013
0100
2000
0000
3001
0000
0100
0020
,
0000
0030
1001
0000
1000
0100
0001
0000
,
0001
0100
1000
0000
2000
0000
3200
0320
,
0032
0000
2003
0000
3001
0100
1000
0000
,
1000
0100
0001
0000
0020
0000
0032
2003
,
3002
0000
0203
0000
0301
0010
1000
0000
,
1000
0010
0001
0000
0002
0000
0023
0230
,
2300
0000
3002
0000
1003
0010
0001
0000
,
0001
0010
1000
0000
0020
0000
2030
0000
,
3100
0010
0100
2000
0002
0000
0000
0000
,
0000
0000
0000
3003
2000
0000
3010
1000
,
0200
0000
0310
0001
0200
0000
0310
1000
,
0001
1000
0200
0000
0310
0100
1000
0000
,
1000
0010
0100
0000
0001
0100
0010
1000
,
0100
0000
0120
0000
0032
0000
0013
0001
,
0200
0000
0310
1000
0200
0000
0310
0001
,
1000
0001
0200
0000
0310
0100
0001
0000
,
0010
0100
1000
0000
0002
0000
1003
0010
,
0100
0001
0010
0000
0011
0000
1100
0000
,
1010
0000
2000
0002
0000
0000
0000
0000
,
0000
0000
3003
0000
;

//---------------dance-single - ----------------
#NOTES:
     dance-single:
     :
     Beginner:
     4:
     0.212739,0.286885,0.103525,0.151306,0.000000,187.000000,174.000000,13.000000,19.000000,0.000000,0.000000,0.212739,0.286885,0.103525,0.151306,0.000000,187.000000,174.000000,13.000000,19.000000,0.000000,0.000000:
0000
0000
0000
0000
,
0000
0000
0000
0000
,
0000
0000
0000
0000
,
0000
0000
0000
0000
,
1000
0010
1000
0000
,
0001
0010
0001
0000
,
1000
0100
1000
0000
,
0001
0100
0001
0000
,
0010
0010
0010
0000
,
0010
0010
0010
0000
,
1001
0000
0110
0000
,
2002
0000
0000
0000
0000
0000
0000
3003
,
1000
0000
0010
0000
,
1000
0100
0010
0001
,
0100
0000
0010
0000
,
0100
0100
0001
1000
,
0001
0000
0010
0000
,
0001
0100
0010
1000
,
0100
0000
0010
0000
,
0220
0330
2002
3003
,
1000
0001
1000
0000
,
0100
0010
0100
0010
,
0001
1000
0001
0000
,
0100
0100
0010
1000
,
0001
0000
1000
0000
,
0001
0010
0100
1000
,
0001
0000
0100
0000
,
0220
0330
2002
3003
,
0200
0000
0300
1000
,
0000
0001
0000
0010
,
0010
0001
1000
0001
,
0000
1000
0000
0010
,
0010
1000
0001
1000
,
0000
0100
0000
0010
,
0010
0100
1000
0001
,
0000
0100
0000
0010
,
0010
0100
0001
1000
,
0000
0100
0000
1000
,
0010
1000
0100
0010
,
0000
0001
0000
0001
,
0010
0001
0100
0010
,
0000
1000
0000
0010
,
1000
0000
0000
0000
0000
0000
0000
0000
0000
0000
0000
0000
0000
0000
0000
0000
0001
0000
0000
0000
0000
0000
0000
0000
0000
0000
0000
0000
0000
0000
0000
0000
1000
0000
0000
0000
0000
0000
0000
0000
0000
0000
0000
0000
0000
0000
0000
0000
0200
0000
0000
0000
0000
0000
0000
0000
0000
0000
0000
0000
0000
0300
0000
0000
,
0000
0000
0000
0000
0000
0000
0000
0000
0020
0000
0000
0000
0000
0000
0000
0000
0000
0000
0000
0000
0000
0030
0000
0000
0000
0000
0000
0000
0000
0000
0000
0000
0010
0000
0000
0000
0000
0000
0000
0000
0000
0000
0000
0000
0000
0000
0000
0000
0001
0000
0000
0000
0000
0000
0000
0000
0000
0000
0000
0000
0000
0000
0000
0000
,
1000
0001
0100
0000
,
0010
0000
0200
0000
,
0300
1001
1000
0000
,
0100
0000
0010
0001
,
0100
0001
0010
0000
,
0001
0000
1000
1000
,
0010
0100
0001
0000
,
0100
0000
0010
1000
,
0100
1000
0010
0000
,
1000
0000
0100
0100
,
0010
0001
2002
0000
,
0000
0000
0000
3003
1000
0000
0010
0000
,
0100
0000
0010
0100
,
0001
0000
0010
0001
,
0100
0000
0010
1000
,
0100
0020
0130
1000
,
0001
0000
0100
0001
,
1000
0000
0100
1000
,
0010
0000
0100
0001
,
0010
0000
0110
1001
,
1001
0220
0000
0000
,
0000
0000
0330
0000
;
