#TITLE:Road to G6;
#SUBTITLE:;
#ARTIST:Far East Movement vs. Mutato Muzika (mashup by Psychosis);
#TITLETRANSLIT:;
#SUBTITLETRANSLIT:;
#ARTISTTRANSLIT:;
#GENRE:Atmospheric Trap;
#CREDIT:;
#BANNER:Road to G6.png;
#BACKGROUND:Road to G6-bg.png;
#LYRICSPATH:;
#CDTITLE:cdtitle.png;
#MUSIC:Road to G6.ogg;
#OFFSET:-0.206270;
#SAMPLESTART:65.006271;
#SAMPLELENGTH:15.839996;
#SELECTABLE:YES;
#BPMS:0.000000=124.999992
;
#STOPS:
;
#BGCHANGES:;
#KEYSOUNDS:;
#ATTACKS:;

//---------------dance-single - ----------------
#NOTES:
     dance-single:
     :
     Challenge:
     11:
     0.530899,0.526187,0.162639,0.203298,0.215496,457.000000,437.000000,20.000000,25.000000,0.000000,0.000000,0.530899,0.526187,0.162639,0.203298,0.215496,457.000000,437.000000,20.000000,25.000000,0.000000,0.000000:
// measure 0
0000
0000
0000
0000
,  // measure 1
0000
0000
0000
0000
,  // measure 2
0001
0010
0000
0100
1000
0010
0000
0100
,  // measure 3
0001
0010
0100
0010
0001
0000
0000
0000
,  // measure 4
0010
0001
0000
0100
0010
1000
0000
0100
,  // measure 5
0010
0000
0001
0000
0100
0000
1000
0000
0001
0000
0010
1000
0100
0000
0010
0000
,  // measure 6
0004
0400
0000
0003
0340
0000
0000
0000
4030
0004
0000
3000
0013
0000
0001
0000
,  // measure 7
2000
3001
0110
2001
,  // measure 8
3001
0000
1000
1000
0100
0010
0001
0000
,  // measure 9
2000
0000
3010
0100
0002
0000
2003
0000
,  // measure 10
3001
0010
0100
0010
0001
0010
0100
0010
,  // measure 11
0001
0000
0100
0000
1000
0000
0100
0000
0001
0000
1000
0000
0100
0000
0100
0010
,  // measure 12
0000
0100
0010
0000
0001
0000
1000
0000
0010
0000
1000
0000
0001
0000
1000
0000
,  // measure 13
0010
0001
1000
0100
0001
0010
0100
1000
,  // measure 14
0004
0400
0000
0003
0340
0000
0000
0000
4030
0004
0000
3000
0023
0000
0000
0000
,  // measure 15
0031
0000
1000
0000
0010
0000
0000
0000
2010
0000
0000
0000
3001
0000
0001
0100
,  // measure 16
0000
0001
0100
0000
0010
0000
1000
0000
0001
0000
0010
0000
0001
0000
0000
0000
,  // measure 17
0001
0000
1000
0000
0001
0000
0100
0010
0000
1000
0000
0100
0010
0000
0001
0000
,  // measure 18
1000
0010
1000
0000
0001
0000
0010
0000
1100
0000
0000
0011
0000
0000
0000
0000
,  // measure 19
0001
0010
0001
0000
1000
0000
0010
0000
0101
0000
0000
1010
0000
0000
0000
0000
,  // measure 20
0001
0000
0100
0010
0100
0000
0010
0000
1002
0000
0000
0003
1000
0000
0100
0000
,  // measure 21
0010
0000
0001
0100
0000
0100
0020
0000
0000
0030
1000
0001
0000
1000
0001
0000
,  // measure 22
1000
0000
0100
0010
0000
0010
0001
0000
0100
0000
1000
0000
0100
0000
0001
0000
,  // measure 23
0010
0100
1000
0002
0000
1003
0000
1000
,  // measure 24
0001
0100
0001
0010
1000
0010
0001
0100
,  // measure 25
0010
0000
1000
0000
0001
0000
0000
0000
4000
0004
0000
0000
3003
0000
0000
0000
,  // measure 26
2002
0000
3003
2010
0001
3100
0000
1001
,  // measure 27
0000
1100
0000
0010
0001
0100
0010
1000
,  // measure 28
0001
0001
0010
0100
1000
1000
0010
1000
,  // measure 29
0100
0001
0100
1000
0020
0000
0130
0001
,  // measure 30
0010
0000
1000
0000
0010
0000
0001
0000
0200
0000
0000
0000
0310
0000
1000
0100
,  // measure 31
1000
0000
0010
0000
0001
0000
0010
0000
2000
0000
3100
0010
0000
0000
0100
0000
,  // measure 32
1000
1000
0010
0100
0001
0001
0010
0001
,  // measure 33
0100
1000
0100
0001
0010
0010
0001
0100
,  // measure 34
0010
1000
0001
1000
0010
1000
0001
1000
,  // measure 35
0100
0010
0100
1000
0010
0100
0101
0000
,  // measure 36
1000
0010
0100
0010
1000
0010
0100
0010
,  // measure 37
1000
0100
0001
1000
0010
0001
0100
0010
,  // measure 38
4000
0400
0000
3000
0340
0000
0000
0000
0034
4000
0000
0003
3010
0000
1000
0000
,  // measure 39
0002
1003
0110
1002
,  // measure 40
1003
0000
0001
0001
0100
0010
2000
0000
,  // measure 41
3002
0000
0013
0100
2000
0000
3002
0000
,  // measure 42
1003
0010
0100
0010
1000
0010
0100
0010
,  // measure 43
1000
0000
0100
0000
0001
0000
0100
0000
1000
0000
0001
0000
0100
0000
0100
0010
,  // measure 44
0000
0100
0010
0000
1000
0000
0001
0000
0010
0000
0001
0000
1000
0000
0001
0000
,  // measure 45
0010
1000
0001
0100
1000
0010
0100
0001
,  // measure 46
4000
0400
0000
3000
0340
0000
0000
0000
0034
4000
0000
0003
3020
0000
0000
0000
,  // measure 47
1030
0000
0001
0000
0010
0000
0000
0000
0012
0000
0000
0000
1003
0000
1000
0100
,  // measure 48
0000
1000
0100
0000
0010
0000
0001
0000
1000
0000
0010
0000
1000
0000
0000
0000
,  // measure 49
1000
0000
0001
0000
1000
0000
0100
0010
0000
0001
0000
0100
0010
0000
1000
0000
,  // measure 50
0001
0000
0000
0000
1000
0001
1000
0001
1000
0000
0001
0000
0100
0000
0010
0000
,  // measure 51
1000
0000
0000
0000
0001
1000
0001
1000
0001
0000
0010
0000
1000
0000
0010
0000
,  // measure 52
0001
0000
0000
0000
1000
0010
1000
0010
1000
0000
0001
0000
0010
0000
0001
0000
,  // measure 53
1000
0000
0000
0000
0001
0010
0001
0010
0001
0000
0100
0000
1000
0000
0100
0000
,  // measure 54
0001
0000
1000
0000
0001
0010
0001
0010
0100
0000
0010
0000
0001
0000
0100
0000
,  // measure 55
0010
0000
1000
0000
0100
0010
0100
0010
0001
0000
0010
0000
1000
0000
0010
0000
,  // measure 56
0001
0000
0100
0000
0010
1000
0010
1000
0001
0000
0100
0000
0001
0000
1000
0000
,  // measure 57
0100
0000
0010
0000
0100
1000
0100
1000
0001
0000
0100
0000
1000
0000
0100
0000
,  // measure 58
0001
0000
0000
0100
0001
0010
0000
1100
,  // measure 59
0000
1001
0000
0001
0010
0001
0100
0010
,  // measure 60
1000
0100
1001
0002
,  // measure 61
0003
1000
0010
0100
0000
0011
0000
0000
;

//---------------dance-single - ----------------
#NOTES:
     dance-single:
     :
     Hard:
     10:
     0.440286,0.476074,0.073187,0.357805,0.085385,379.000000,370.000000,9.000000,44.000000,0.000000,0.000000,0.440286,0.476074,0.073187,0.357805,0.085385,379.000000,370.000000,9.000000,44.000000,0.000000,0.000000:
0000
0000
0000
0000
,
0000
0000
0000
0000
0000
0000
0001
1000
,
0001
1000
0100
0010
0002
0000
0003
0000
,
0000
0000
0001
0100
0010
2000
0000
3000
,
0000
0000
1000
0001
1000
0001
0010
0100
,
2000
0000
3001
0100
0010
1000
0100
0010
,
0004
0000
0403
0000
0020
0000
0330
0010
,
2000
3001
0020
0130
,
1000
0000
0001
0100
0010
1000
0001
0000
,
2000
0000
3100
0010
0002
0000
1003
0000
,
0001
0000
1000
0100
0002
0000
0103
0000
,
0001
0000
0100
0000
2000
0000
0000
0000
3100
0000
0000
0000
0010
0000
0001
1000
,
0000
0001
1000
0000
0010
0000
0100
0000
0010
0000
1000
0000
0001
0000
0000
0000
,
0020
0000
1030
0010
0002
0000
0103
0000
,
0004
0403
0020
0330
,
0010
0000
1000
0000
0200
0000
0000
0000
0310
0000
0000
0000
0001
0000
1000
0010
,
0000
1000
0010
0000
0100
0000
0001
0000
1000
0000
0100
0000
0010
0000
0000
0000
,
0200
0000
0301
0100
2000
0000
3001
0000
,
1000
0010
1000
0000
0010
0000
0100
0000
0001
0000
0000
0101
0000
0000
0000
0000
,
0001
0010
0001
0000
0010
0000
0100
0000
1000
0000
0000
1100
0000
0000
0000
0000
,
1000
0000
0001
0100
0001
0000
1000
0000
0010
0000
0000
0000
1000
0000
0001
0000
,
0010
0000
0100
1000
0000
1000
0001
0000
0000
0000
1000
0001
0000
1000
0001
0000
,
1000
0000
0100
0010
0000
0100
0010
0000
0001
0000
0100
0000
0010
0000
1000
0000
,
0001
1000
0100
0020
0000
0031
0000
0001
,
1000
0010
1000
0010
0100
0001
1000
0100
,
0010
0001
1000
0000
2004
0000
3003
0000
,
2200
0000
3300
0022
0000
0033
0001
0010
,
2000
0000
3010
0000
1000
0010
0002
0000
,
0103
0010
0100
0010
1000
0001
0010
0100
,
0010
0100
1000
0001
0200
0000
0301
0100
,
0010
0000
1000
0000
0100
0000
0010
0000
0002
0000
0000
0000
1003
0000
0010
1000
,
0010
0000
1000
0000
0001
0000
0010
0000
0200
0300
1000
0001
0000
0000
1000
0000
,
0010
0100
0010
0100
0001
1000
0100
0010
,
0100
0010
0001
1000
0010
0010
1000
0100
,
1000
0100
0010
0001
2000
0000
3010
1000
,
0100
0000
0010
0001
1000
0020
0100
0000
,
1030
0000
0100
0010
0100
0010
0001
0100
,
0020
0000
1030
0100
0010
0001
1000
0010
,
4000
0000
3400
0000
0020
0000
0330
0010
,
0002
1003
0020
0130
,
0001
0000
1000
0100
0010
0001
1000
0000
,
0002
0000
0103
0010
2000
0000
3001
0000
,
1000
0000
0001
0100
2000
0000
3100
0000
,
1000
0000
0100
0000
0002
0000
0000
0000
0103
0000
0000
0000
0010
0000
1000
0001
,
0000
1000
0001
0000
0010
0000
0100
0000
0010
0000
0001
0000
1000
0000
0000
0000
,
0020
0000
0031
0010
2000
0000
3100
0000
,
4000
3400
0020
0330
,
0010
0000
0001
0000
0200
0000
0000
0000
0310
0000
0000
0000
1000
0000
0001
0010
,
0000
0001
0010
0000
0100
0000
1000
0000
0001
0000
0100
0000
0010
0000
0000
0000
,
0200
0000
1300
0100
0002
0000
1003
0000
,
0001
0000
0100
0001
1000
0010
1000
0001
,
0100
0000
0001
1000
0100
0010
0001
1000
,
0100
0000
1000
0001
0100
0010
0100
0001
,
1000
0000
0100
0010
0001
1000
0100
0010
,
0001
0000
1000
0100
0001
0100
1000
0010
,
0100
0000
0001
0100
1000
0100
0001
0010
,
0100
0000
1000
0010
0001
0010
1000
0001
,
0010
0000
0001
0010
1000
0010
0001
0100
,
0010
0000
0000
1000
0001
0010
0000
0011
,
0000
1100
0000
1000
0010
0100
0001
1000
,
0100
0010
1001
2000
,
3000
0010
1000
0100
0000
0011
0000
0000
;

//---------------dance-single - ----------------
#NOTES:
     dance-single:
     :
     Medium:
     6:
     0.315984,0.350791,0.081319,0.300882,0.008132,272.000000,262.000000,10.000000,37.000000,0.000000,0.000000,0.315984,0.350791,0.081319,0.300882,0.008132,272.000000,262.000000,10.000000,37.000000,0.000000,0.000000:
0000
0000
0000
0000
,
0000
0000
0000
0000
,
0001
0000
0001
0000
,
0001
0100
0010
0000
,
1000
0000
1000
0000
,
0010
1000
0100
0010
,
0004
4003
3040
1030
,
0002
0013
0200
0310
,
0001
1000
0010
1000
,
0002
1003
0200
1300
,
0001
0000
0100
0010
0200
0000
0301
0000
,
0010
0100
0020
0000
0031
0000
1000
1000
,
1000
0010
0100
0001
,
2000
0000
3100
0010
0200
0000
1300
0000
,
0004
0403
0340
1030
,
0001
1000
0002
0000
1003
0000
0100
0000
,
0010
0001
0100
0010
,
2000
0000
3100
0010
0200
0000
1300
0000
,
0001
0000
0100
0000
0001
0000
0000
0000
1000
0000
0000
1000
0000
0000
0000
0000
,
1000
0000
0100
0000
1000
0000
0000
0000
0001
0000
0000
0001
0000
0000
0000
0000
,
1000
0001
1000
0000
0001
0000
0100
0010
,
0100
0000
0010
1000
0000
0001
0000
0001
,
1000
0000
0001
0100
0001
0000
1000
0000
,
0100
0000
0010
0002
0000
1003
0000
1000
,
0001
0000
0100
0010
1000
0000
0001
0000
,
1000
0001
0010
0000
0220
0000
0330
0000
,
2002
0000
3000
0200
0000
0303
0001
1000
,
0002
0000
1003
0000
1000
0001
2000
0000
,
3010
0100
0010
1000
,
0001
0010
0001
0010
0002
0000
1003
0000
,
1000
0010
1000
0010
2000
0000
3001
0001
,
0001
0000
1000
0001
2000
0000
3001
0000
,
0100
0010
1000
0001
,
0010
0100
0010
0100
0010
0000
0001
0000
,
1000
0100
0020
0031
,
1000
0001
0200
0301
,
1000
0100
0010
0001
,
2000
3010
0200
0301
,
4000
3004
0043
0031
,
2000
3010
0200
0310
,
1000
0001
0010
0001
,
2000
3001
0200
0301
,
1000
0000
0100
0010
0200
0000
1300
0000
,
0010
0100
0020
0000
1030
0000
0001
0001
,
0001
0010
0100
1000
,
0002
0000
0103
0010
0200
0000
0301
0000
,
4000
3400
0340
0031
,
1000
0001
2000
0000
3001
0000
0100
0000
,
0010
1000
0100
0010
,
0002
0000
0103
0010
0200
0000
0301
0000
,
0001
0000
1001
0010
,
1000
0000
1001
0100
,
0001
0000
1001
0100
,
1000
0000
1001
0010
,
0001
0100
0010
1000
,
0100
1000
0010
0100
,
0001
0010
0001
0100
,
0010
1000
0100
1000
,
0001
0000
0000
1000
0001
1000
0000
0110
,
0000
1001
0000
0001
1000
0000
0001
1000
,
0100
0010
0001
1001
,
0000
0001
1000
0001
0000
0110
0000
0000
;

//---------------dance-single - ----------------
#NOTES:
     dance-single:
     :
     Easy:
     4:
     0.227694,0.275622,0.154507,0.081319,0.000000,196.000000,177.000000,19.000000,10.000000,0.000000,0.000000,0.227694,0.275622,0.154507,0.081319,0.000000,196.000000,177.000000,19.000000,10.000000,0.000000,0.000000:
0000
0000
0000
0000
,
0000
0000
0000
0000
,
0001
0000
0001
0000
,
0001
0010
0100
0000
,
1000
0000
1000
0000
,
0001
0100
0010
1000
,
0004
0003
4000
3000
,
0001
0100
0010
1000
,
0000
1000
0001
1000
,
0001
0010
0100
1000
,
0001
0000
0001
0000
,
0001
0100
1000
0000
,
0100
0000
0100
0000
,
0010
1000
0001
0010
,
0400
0300
0040
0030
,
0100
1000
0001
0000
,
0100
0100
0010
1000
,
0001
1000
0100
0010
,
0001
0000
0101
0000
,
1000
0000
1100
0000
,
0001
0000
0011
0000
,
1000
0000
1010
1000
,
0001
0010
0011
0000
,
1000
0010
1010
0000
,
0001
0100
0101
0000
,
1000
0100
0220
0330
,
2002
0000
0000
3003
0000
0000
0001
0000
,
0200
0301
1000
0200
,
0310
0010
0100
0100
,
1000
0001
0200
0300
,
0001
1000
0200
0310
,
0100
1000
0002
0003
,
0100
0100
0010
0010
,
1000
0001
0020
0031
,
1000
1000
0010
0000
,
0010
1000
0100
0000
,
0010
0001
0001
0100
,
0010
1000
0001
0000
,
4000
3000
0004
0003
,
1000
0100
0010
0001
,
0000
0001
1000
0001
,
1000
0010
0100
0001
,
1000
0000
1000
0000
,
1000
0100
0001
0000
,
0100
0000
0100
0000
,
0010
0001
1000
0010
,
0400
0300
0040
0030
,
0100
0001
1000
0000
,
0100
0100
0010
0001
,
1000
0001
0100
0010
,
1000
0000
1010
0000
,
0001
0000
0101
0000
,
1000
0000
1100
0000
,
0001
0000
0011
0000
,
0001
0100
0110
0000
,
1000
0100
0110
0000
,
0010
0001
1001
0000
,
0010
1000
1001
0000
,
1000
0000
0100
0000
,
0010
0000
0001
1000
,
0001
0000
0110
0000
,
1000
0000
0001
0000
0000
1001
0000
0000
;

//---------------dance-single - ----------------
#NOTES:
     dance-single:
     :
     Beginner:
     2:
     0.125464,0.148814,0.000000,0.073187,0.000000,108.000000,108.000000,0.000000,9.000000,0.000000,0.000000,0.125464,0.148814,0.000000,0.073187,0.000000,108.000000,108.000000,0.000000,9.000000,0.000000,0.000000:
0000
0000
0000
0000
,
0000
0000
0000
0000
,
0001
0000
0001
0000
,
0001
0001
0001
0000
,
1000
0000
1000
0000
,
1000
1000
1000
0000
,
0200
0000
0300
0000
,
0010
0000
0010
0000
,
0001
0000
0001
0000
,
1000
0000
1000
0000
,
0001
0000
0001
0000
,
0001
0001
0001
0000
,
1000
0000
1000
0000
,
1000
1000
1000
0000
,
0020
0000
0030
0000
,
0010
0000
0010
0000
,
1000
0000
1000
0000
,
0001
0000
0001
0000
,
2000
0000
3000
0000
,
0002
0000
0003
0000
,
2000
0000
3000
0000
,
0002
0000
0003
0000
,
1000
0000
1000
0000
,
0001
0000
0001
0000
,
1000
0000
1000
0000
,
0001
0000
0001
0000
,
0020
0000
0030
0000
,
0001
0000
0000
0000
,
0100
0000
0000
0000
,
0010
0000
0000
0000
,
1000
0000
1000
0000
,
0001
0000
0001
0000
,
1000
0000
0001
0000
,
1000
0000
0001
0000
,
0010
0000
0010
0000
,
0010
0010
0010
0000
,
0100
0000
0100
0000
,
0100
0100
0100
0000
,
2000
0000
3000
0000
,
0001
0000
0001
0000
,
0100
0000
0100
0000
,
0010
0000
0010
0000
,
1000
0000
1000
0000
,
1000
1000
1000
0000
,
0001
0000
0001
0000
,
0001
0001
0001
0000
,
0020
0000
0030
0000
,
0100
0000
0100
0000
,
1000
0000
1000
0000
,
0001
0000
0001
0000
,
0100
0000
0000
0000
,
0010
0000
0000
0000
,
1000
0000
0000
0000
,
0001
0000
0000
0000
,
1000
0000
1000
0000
,
0001
0000
0001
0000
,
1000
0000
1000
0000
,
0001
0000
0001
0000
,
0010
0000
0000
0000
,
0100
0000
0000
0000
,
1000
0000
0000
0000
,
0001
0000
0000
0000
;
