#VERSION:0.83;
#TITLE:Retro City;
#SUBTITLE:;
#ARTIST:Adventure Club;
#TITLETRANSLIT:;
#SUBTITLETRANSLIT:;
#ARTISTTRANSLIT:;
#GENRE:Electrostep;
#ORIGIN:;
#CREDIT:;
#BANNER:Retro City.png;
#BACKGROUND:Retro City-bg.png;
#PREVIEWVID:;
#JACKET:Retro City-jacket.png;
#CDIMAGE:;
#DISCIMAGE:;
#LYRICSPATH:;
#CDTITLE:cdtitle.png;
#MUSIC:Retro City.ogg;
#OFFSET:-1.714123;
#SAMPLESTART:15.428409;
#SAMPLELENGTH:13.714287;
#SELECTABLE:YES;
#BPMS:0.000=140.000,
164.000=135.600,
168.000=131.400,
172.000=127.200,
176.000=123.000,
180.000=120.000,
184.000=117.000,
188.000=113.000,
192.000=110.000;
#STOPS:;
#DELAYS:;
#WARPS:;
#TIMESIGNATURES:0.000=4=4;
#TICKCOUNTS:0.000=4;
#COMBOS:0.000=1;
#SPEEDS:0.000=1.000=0.000=0;
#SCROLLS:0.000=1.000;
#FAKES:;
#LABELS:0.000=Song Start;
#BGCHANGES:;
#KEYSOUNDS:;
#ATTACKS:
;

//---------------dance-single - ----------------
#NOTEDATA:;
#CHARTNAME:;
#STEPSTYPE:dance-single;
#DESCRIPTION:;
#CHARTSTYLE:;
#DIFFICULTY:Challenge;
#METER:15;
#RADARVALUES:0.692597,0.818524,0.425003,0.346299,0.905098,616.000000,562.000000,54.000000,44.000000,35.000000,4.000000,0.000000,0.000000,0.000000,0.692597,0.818524,0.425003,0.346299,0.905098,616.000000,562.000000,54.000000,44.000000,35.000000,4.000000,0.000000,0.000000,0.000000;
#CREDIT:;
#NOTES:
// measure 0
0000
0000
0000
0000
,  // measure 1
0000
0000
0000
0000
,  // measure 2
0000
0000
0000
0000
,  // measure 3
0000
0000
0000
0000
,  // measure 4
0001
0000
0000
0001
0000
0000
0001
0000
0100
0000
1000
0000
0100
0000
0010
0000
,  // measure 5
1000
0000
0000
1000
0000
0000
1000
0000
0100
0000
0001
0000
0100
0000
0010
0000
,  // measure 6
0001
0000
0000
0001
0000
0000
0001
0000
1000
0000
0000
1000
0000
0000
0010
0000
,  // measure 7
0001
0000
0000
0001
0000
0000
0010
0000
1000
0000
0000
1000
0000
0000
0100
0000
,  // measure 8
0011
0000
0000
0011
0000
0000
0011
0000
1001
0000
1000
0000
0001
0000
0100
0000
,  // measure 9
0010
0000
1000
0001
0000
1000
0001
1000
0001
0010
0000
0100
0000
0010
0001
0000
,  // measure 10
1000
0000
0010
1000
0000
0010
1000
0000
0010
0100
0010
0000
0001
0000
0010
0000
,  // measure 11
1000
0000
0100
0010
0100
0000
1000
0000
0100
0010
0100
0010
0001
1000
0001
1000
,  // measure 12
0010
0000
0000
0010
0000
0000
0010
0000
1010
0000
0001
0000
0100
0000
0010
0000
,  // measure 13
1000
0000
0100
0010
0000
0100
0010
0100
0010
0001
0000
0100
0000
0010
1000
0000
,  // measure 14
0001
0000
1000
0001
0000
1000
0001
0000
0010
0100
0010
0000
0001
0000
0100
0000
,  // measure 15
1000
0000
0100
0010
0100
0000
0001
0000
1000
0100
1000
0100
0010
0001
0010
0001
,  // measure 16
1000
0000
0000
1001
0000
0000
0110
0000
1001
0000
0001
0000
1000
0000
0100
0000
,  // measure 17
0010
0000
0010
0001
0000
1000
0010
1000
0010
0100
0000
0001
0000
1000
0100
0000
,  // measure 18
0010
0000
0001
0100
0000
0001
0100
0000
0010
1000
0010
0000
0100
0000
0010
0000
,  // measure 19
0001
0000
0010
0100
0010
0000
1000
0000
0001
0100
0001
0100
0010
1000
0010
1000
,  // measure 20
0100
0000
0000
0100
0000
0000
0100
0000
1001
0000
1000
0000
0001
0000
0100
0000
,  // measure 21
0010
0000
1000
0010
0000
1000
0010
1000
0010
0100
0000
0001
0000
1000
0100
0000
,  // measure 22
0010
0000
0001
1000
0000
0001
1000
0000
0010
1000
0010
0000
1000
0000
0100
0000
,  // measure 23
0001
0000
0100
0010
0100
0000
1000
0000
0010
0100
0010
0100
0001
1000
0001
1000
,  // measure 24
0100
0000
0000
0110
0000
0000
0011
0000
1001
0000
0000
2020
0M00
000M
0030
0000
,  // measure 25
3001
0100
0010
0100
0000
0010
0000
0100
0010
1000
0001
0010
0000
0010
0100
0000
,  // measure 26
1000
0000
0001
1000
0000
0000
1001
0000
2200
0000
0000
0000
0001
0000
0300
0000
,  // measure 27
3001
1000
0001
1000
0100
0000
1000
0001
0100
0010
0100
0010
1000
0001
1000
0001
,  // measure 28
M020
0M00
000M
0000
0000
0000
0000
0000
0031
1000
0001
0200
M000
00M0
000M
0000
,  // measure 29
0310
1000
0001
1000
0000
0100
0000
0010
0001
0100
0010
0100
0000
0010
1000
0000
,  // measure 30
0001
0000
1000
0001
0000
0000
1001
0000
0202
0000
0000
0000
1000
0000
0300
0000
,  // measure 31
0103
0000
0001
0100
0001
0100
0010
1000
0001
0100
0010
1000
0001
1000
0100
1000
,  // measure 32
0001
0000
0000
0000
0000
0000
0000
0000
0000
0000
0000
0000
1100
0000
0000
0000
0000
0000
0110
0000
0000
0000
0000
0000
0021
0000
0000
0M00
0000
0000
M000
0000
000M
0000
0000
0000
0000
0000
0000
0000
0000
0000
000M
0000
0000
0000
0000
0000
,  // measure 33
0031
0010
0100
1000
0000
0001
0000
1000
0010
0100
0010
0001
0000
0010
0100
0000
,  // measure 34
0010
0000
1000
0010
0000
0000
0110
0000
2002
0000
0000
0000
0010
0000
3003
0000
,  // measure 35
0001
0100
0001
0100
0010
0000
1000
0100
0010
0001
0010
0001
1000
0010
1000
0010
,  // measure 36
0200
M000
00M0
000M
0000
0000
0000
0000
0301
1000
0100
0020
000M
M000
0M00
0000
,  // measure 37
0031
1000
0001
0100
0000
0001
0000
1000
0100
0010
0100
0001
0000
0100
1000
0000
,  // measure 38
2100
0002
3003
1001
2002
0000
0010
3003
,  // measure 39
1000
0000
0001
1000
0001
1000
0100
0010
0001
1000
0100
0010
0001
0100
0010
1000
,  // measure 40
0002
0000
0023
0000
,  // measure 41
0230
0000
2300
0000
,  // measure 42
3002
0000
0203
0000
,  // measure 43
0320
0000
2030
0000
,  // measure 44
3001
0001
0100
0100
,  // measure 45
0010
0010
1000
1000
,  // measure 46
0100
0100
0010
0010
,  // measure 47
0001
1000
0001
1000
,  // measure 48
2001
0000
0000
0000
0000
0000
0000
0000
3001
0000
0100
0000
1000
0000
0100
0000
0001
0000
0010
0000
0000
0000
01MM
1000
0100
0000
0000
0000
1000
0000
0010
0000
,  // measure 49
0001
0010
1000
0010
0001
0010
1000
0010
0100
0001
0010
0100
2100
0000
3010
0000
,  // measure 50
1002
0000
0000
0000
0000
0000
0000
0000
1003
0000
0100
0000
0001
0000
0100
0000
1000
0000
0010
0000
0000
0000
M1M0
0001
0100
0000
0000
0000
0001
0000
0010
0000
,  // measure 51
1000
0010
0001
0010
1000
0010
0001
0010
0100
1000
0010
1000
0001
0100
0001
0010
,  // measure 52
0210
0000
0000
0000
0000
0000
0000
0000
1300
0000
0010
0000
0001
0000
0010
0000
1000
0000
0100
0000
0000
0000
MM10
0001
0010
0000
0000
0000
0001
0000
0100
0000
,  // measure 53
1000
0100
0001
0100
1000
0100
0001
0100
0010
1000
0001
0010
0012
0000
0103
0000
,  // measure 54
0210
0000
0000
0000
0000
0000
0000
0000
0301
0000
0010
0000
1000
0000
0010
0000
0001
0000
0100
0000
0000
0000
0M1M
1000
0010
0000
0000
0000
1000
0000
0100
0000
,  // measure 55
0001
0100
1000
0100
0001
0100
1000
0100
0010
0001
0100
0001
0010
0100
1000
0010
,  // measure 56
0220
0000
0330
0000
1001
0000
0011
0000
1100
0000
0010
0001
0100
0001
0010
0001
,  // measure 57
1000
0000
0010
0000
0101
0000
0000
0000
1010
0000
0000
0000
0010
0000
1000
0000
0100
0000
0001
0000
0100
0000
1000
0000
0M20
000M
M000
0000
0030
0000
0000
0000
,  // measure 58
2002
0000
0000
0000
3003
0000
0000
0000
1100
0000
0000
0000
0011
0000
0000
0000
0101
0000
0000
0000
0010
0000
1000
0000
0100
0000
1000
0000
0001
0000
0010
0100
,  // measure 59
1000
0000
0000
0000
0011
0000
0000
0000
1100
0000
0000
0000
0010
0000
0001
0000
1000
0000
0100
0000
0001
0000
0100
0000
20M0
000M
0M00
0000
3000
0000
0000
0000
,  // measure 60
2002
0000
3003
0000
0101
0000
1010
0000
0101
0000
0010
1000
0100
1000
0010
1000
,  // measure 61
0001
0000
0010
0000
1100
0000
0000
0000
0011
0000
0000
0000
0010
0000
0001
0000
1000
0000
0010
0000
0001
0000
0010
0000
M200
000M
00M0
0000
0300
0000
0000
0000
,  // measure 62
2002
0000
0000
0000
3003
0000
0000
0000
0011
0000
0000
0000
0101
0000
0000
0000
1010
0000
0000
0000
0100
0000
0001
0000
0010
0000
0001
0000
0100
0000
0010
1000
,  // measure 63
0001
1000
0001
1000
0000
0001
1000
0001
0100
0010
0100
0001
1000
0100
0010
0001
,  // measure 64
2002
0000
0000
0000
,  // measure 65
3003
0000
0000
0000
;

//---------------dance-single - ----------------
#NOTEDATA:;
#CHARTNAME:;
#STEPSTYPE:dance-single;
#DESCRIPTION:;
#CHARTSTYLE:;
#DIFFICULTY:Hard;
#METER:11;
#RADARVALUES:0.471101,0.562735,0.330558,0.393521,0.362039,419.000000,377.000000,42.000000,50.000000,0.000000,0.000000,0.000000,0.000000,0.000000,0.471101,0.562735,0.330558,0.393521,0.362039,419.000000,377.000000,42.000000,50.000000,0.000000,0.000000,0.000000,0.000000,0.000000;
#CREDIT:;
#NOTES:
0000
0000
0000
0000
,
0000
0000
0000
0000
,
0000
0000
0000
0000
,
0000
0000
0000
0000
,
0001
0000
0000
0001
0000
0000
0001
0000
1000
0000
0100
0000
0010
0000
0100
0000
,
1000
0000
0000
1000
0000
0000
1000
0000
0001
0000
0100
0000
0010
0000
0100
0000
,
0001
0000
0000
0001
0000
0000
1000
0000
0100
0000
0000
0100
0000
0000
0010
0000
,
0001
0000
0000
0001
0000
0000
0100
0000
0010
0000
0000
0010
0000
0000
1000
0000
,
1001
0000
0000
1001
0000
0000
1001
0000
1001
0000
0000
0000
1000
0000
0100
0000
,
0010
0000
0000
0010
0000
0000
0100
0000
1000
0000
0000
0010
0000
0000
0100
0000
,
0001
0000
0000
0001
0000
0000
0100
0000
0010
0000
1000
0000
0100
0000
0001
0000
,
0100
0000
0000
1000
0000
0000
0010
0000
0200
0000
0000
0000
0310
0000
1000
0000
,
2002
0000
3003
0000
1001
0000
0001
0100
,
0010
0000
0000
0010
0000
0000
1000
0000
0001
0000
0000
0010
0000
0000
0100
0000
,
1000
0000
0000
1000
0000
0000
0010
0000
0100
0000
0001
0000
0010
0000
1000
0000
,
0010
0000
0000
0001
0000
0000
0100
0000
0002
0000
0000
0000
1003
0000
0000
0000
,
1100
0000
0000
1100
0000
0000
0011
0000
0011
0000
0000
0000
0001
0000
0010
0000
,
1000
0000
0000
1000
0000
0000
0010
0000
0001
0000
0000
0100
0000
0000
0010
0000
,
1000
0000
0000
1000
0000
0000
0001
0000
0100
0000
1000
0000
0100
0000
0010
0000
,
1000
0000
0000
0100
0000
0000
0010
0000
0002
0000
0000
0000
1003
0000
0001
0000
,
0202
0000
0303
0000
1010
0000
1000
0010
,
0001
0000
0000
0001
0000
0000
0010
0000
1000
0000
0000
0100
0000
0000
0010
0000
,
0001
0000
0000
0001
0000
0000
1000
0000
0100
0000
0001
0000
0100
0000
0010
0000
,
0001
0000
0000
0100
0000
0000
0010
0000
2000
0000
0000
0000
3001
0000
0000
0000
,
1001
0000
0000
0101
0000
0000
1001
0000
1002
0000
0000
0023
0000
0000
0000
0000
,
0031
0000
0000
0100
0000
0000
0010
0000
1000
0100
0000
0010
0000
0000
0001
0000
,
1000
0000
0000
1000
0000
0000
0001
0000
0201
0000
0000
0000
1000
0000
0000
0000
,
0301
0100
1000
0000
1000
0100
0001
0010
,
0220
0000
0000
0000
0330
0000
0000
0000
0011
0000
0000
2001
0000
0000
0000
0000
,
3010
0000
0000
0100
0000
0000
0001
0000
0010
0100
0000
1000
0000
0000
0001
0000
,
0100
0000
0000
0100
0000
0000
0010
0000
1020
0000
0000
0000
0001
0000
0000
0000
,
1030
0010
0100
0001
1000
0100
0010
0001
,
2001
0000
0010
3010
0202
0000
0300
0000
,
1003
0000
0000
0100
0000
0000
0010
0000
0001
0100
0000
0010
0000
0000
1000
0000
,
0001
0000
0000
0001
0000
0000
1000
0000
1200
0000
0000
0000
0001
0000
0000
0000
,
1300
0100
0001
0000
0001
0100
1000
0010
,
0220
0000
0000
0000
0330
0000
0000
0000
1010
0000
0000
1002
0000
0000
0000
0000
,
0013
0000
0000
0100
0000
0000
1000
0000
0010
0100
0000
0001
0000
0000
1000
0000
,
2001
0000
0000
3001
0021
0000
1000
0000
,
0031
0000
0000
0000
0001
0010
0100
1000
,
0002
0000
0203
0000
,
0320
0000
2030
0000
,
3200
0000
0320
0000
,
0032
0000
2003
0000
,
3001
0001
0100
0100
,
0010
0010
1000
1000
,
0100
0100
0010
0010
,
0001
1000
0001
1000
,
2002
0000
3000
0000
1003
0000
0010
0100
0000
0010
0000
0000
1001
0000
0001
0010
,
0000
0001
0010
0001
0000
0010
0001
0010
0100
0000
1000
0000
0010
0000
1000
0000
,
2002
0000
0003
0000
3001
0000
1000
0100
0000
0010
0000
0000
1001
0000
1000
0010
,
0000
1000
0010
1000
0000
0010
1000
0010
0100
0000
0001
0000
0010
0000
0001
0000
,
0202
0000
0003
0000
1300
0000
0100
0001
0000
0100
0000
0000
1010
0000
1000
0001
,
0000
0010
0001
1000
0000
0010
1000
0001
0010
0000
0100
0000
0010
0000
0001
0000
,
2200
0000
3000
0000
0301
0000
0100
1000
0000
0100
0000
0000
0011
0000
0001
1000
,
0000
0010
1000
0001
0000
0010
0001
1000
0010
0000
0100
0000
0001
0000
0010
0000
,
2001
0000
0000
0000
3010
0000
1000
0000
0100
0000
0010
0001
0000
0010
0001
0010
,
0100
0000
0010
0000
0001
0000
0100
0010
1000
0001
1000
0001
0020
0000
0030
0000
,
1002
0000
0000
0000
0013
0000
0001
0000
0100
0000
0010
1000
0000
0010
1000
0010
,
0100
0000
0010
0000
1000
0000
0100
0010
0001
1000
0001
1000
0020
0000
0030
0000
,
2001
0000
0000
0000
3010
0000
0001
0000
0010
0000
1000
0010
0000
0100
0001
0100
,
0010
0000
0100
0000
1000
0000
0100
0001
1000
0100
1000
0100
0020
0000
0030
0000
,
1002
0000
0000
0000
0013
0000
1000
0000
0010
0000
0001
0010
0000
0100
1000
0001
,
2000
0000
3000
0000
1000
0010
0100
0010
,
2002
0000
0000
0000
,
3003
0000
0000
0000
;

//---------------dance-single - ----------------
#NOTEDATA:;
#CHARTNAME:;
#STEPSTYPE:dance-single;
#DESCRIPTION:;
#CHARTSTYLE:;
#DIFFICULTY:Medium;
#METER:8;
#RADARVALUES:0.347423,0.460420,0.125927,0.369910,0.043287,309.000000,293.000000,16.000000,47.000000,0.000000,0.000000,0.000000,0.000000,0.000000,0.347423,0.460420,0.125927,0.369910,0.043287,309.000000,293.000000,16.000000,47.000000,0.000000,0.000000,0.000000,0.000000,0.000000;
#CREDIT:;
#NOTES:
0000
0000
0000
0000
,
0000
0000
0000
0000
,
0000
0000
0000
0000
,
0000
0000
0000
0000
,
0001
0000
0000
0000
0100
0001
0010
0001
,
1000
0000
0000
0000
0100
1000
0010
1000
,
0001
0000
0000
0001
0100
0000
0010
1000
,
0100
0000
0000
0100
1000
0000
0001
1000
,
0001
0000
0000
0000
0010
0001
0100
0010
,
1000
0000
0000
0000
0010
1000
0100
0010
,
0001
0000
0000
0000
0001
0100
0010
1000
,
0001
0000
0010
0100
1000
0000
0010
0100
,
0002
0000
0000
0003
0100
0001
0010
0100
,
1000
0000
0000
0000
0100
1000
0010
0100
,
0001
0000
0000
0000
0001
0010
0100
1000
,
0001
0000
0010
0001
0100
0000
0010
0000
,
1010
0000
0000
0000
1000
0010
0100
0001
,
0010
0000
0000
0000
0010
0001
0100
0010
,
1000
0000
0000
0000
1000
0010
0100
0001
,
1000
0000
0100
0010
0001
0000
0100
0010
,
2000
0000
0000
3000
0010
1000
0100
0010
,
0001
0000
0000
0000
0010
0001
0100
0010
,
1000
0000
0000
0000
1000
0010
0100
0001
,
1000
0000
0010
1000
0100
0000
0010
0001
,
0100
0000
0000
0000
0000
0000
0000
0000
0002
0000
0000
2003
0000
0000
0000
0000
,
3100
0000
0000
0010
0000
0000
0000
0000
0001
0000
0000
0100
0000
0000
0010
0000
,
1000
0000
0000
0001
2000
0000
3002
0000
,
0013
0100
0010
0000
0010
0100
1000
0000
,
2002
0000
0000
0000
3003
0000
0000
0000
2000
0000
0000
3002
0000
0000
0000
0000
,
0013
0000
0000
0100
0000
0000
0000
0000
1000
0000
0000
0010
0000
0000
0100
0000
,
0001
0000
0000
1000
0002
0000
2003
0000
,
3100
0000
0000
0000
,
1100
0000
0010
0001
2000
0000
0000
0000
,
3010
0000
0000
0100
0000
0000
0000
0000
0001
0000
0000
0100
0000
0000
0010
0000
,
1000
0000
0000
0001
2000
0000
3002
0000
,
1003
0010
1000
0000
1000
0100
0010
0000
,
0012
0000
0000
0000
0000
0000
0000
0000
0203
0000
0000
0320
0000
0000
0000
0000
,
1030
0000
0000
0001
0000
0000
0000
0000
1000
0000
0000
0100
0000
0000
0010
0000
,
0002
0000
0000
0103
0020
0000
2030
0000
,
3001
0000
0000
0000
,
2000
0000
3200
0000
,
0320
0000
0032
0000
,
2003
0000
3020
0000
,
0230
0000
0302
0000
,
2003
0000
3200
0000
,
0302
0000
0023
0000
,
0032
0000
0203
0000
,
2300
0000
0020
3030
,
1002
0000
0013
0001
0100
0000
0100
0010
,
1000
0010
1000
0010
0100
0001
1000
0100
,
0120
0000
0130
1000
0010
0000
0010
0100
,
0001
0100
0001
0100
0010
1000
0001
1000
,
1200
0000
0310
0001
1000
0000
1000
0010
,
0100
0010
0100
0010
1000
0001
0010
0001
,
0201
0000
0310
1000
0001
0000
0001
0010
,
0100
0010
0100
0010
0001
0100
0010
1000
,
1002
0000
0013
0001
0100
0010
0100
0010
,
0100
1000
0100
0001
1000
1000
0110
0000
,
2001
0000
3010
1000
0100
0010
0100
0010
,
0100
0001
0100
1000
0001
0001
0110
0000
,
1002
0000
0103
0001
0010
0100
0010
0100
,
0010
1000
0010
0001
1000
1000
0110
0000
,
2001
0000
3100
1000
0010
0001
0010
1000
,
0100
0000
0000
0000
1000
0100
0010
0001
,
2002
0000
0000
0000
,
3003
0000
0000
0000
;

//---------------dance-single - ----------------
#NOTEDATA:;
#CHARTNAME:;
#STEPSTYPE:dance-single;
#DESCRIPTION:;
#CHARTSTYLE:;
#DIFFICULTY:Easy;
#METER:4;
#RADARVALUES:0.213626,0.281368,0.196761,0.432873,0.000000,190.000000,165.000000,25.000000,55.000000,0.000000,0.000000,0.000000,0.000000,0.000000,0.213626,0.281368,0.196761,0.432873,0.000000,190.000000,165.000000,25.000000,55.000000,0.000000,0.000000,0.000000,0.000000,0.000000;
#CREDIT:;
#NOTES:
0000
0000
0000
0000
,
0000
0000
0000
0000
,
0000
0000
0000
0000
,
0000
0000
0000
0000
,
0001
0000
0100
0010
,
1000
0000
0100
0010
,
0001
0000
0100
0000
,
0010
0000
1000
0000
,
1001
0000
1000
0100
,
0010
0000
0010
0100
,
1000
0000
0001
0000
,
0100
0000
0010
0000
,
1001
0000
0001
0100
,
0010
0000
0010
0100
,
0001
0000
1000
0000
,
0100
0000
0010
0000
,
0011
0000
0010
0001
,
0100
0000
0010
1000
,
0100
0000
1000
0000
,
0001
0000
0100
0000
,
1010
0000
0010
1000
,
0100
0000
0010
0001
,
0100
0000
0010
0000
,
1000
0000
0100
0000
,
1001
0000
0220
0330
,
0001
0000
0100
0010
,
1000
0000
0002
2003
,
3001
0010
0100
1000
,
2002
3003
0220
0330
,
1000
0000
0100
0010
,
0001
0000
0200
0320
,
1030
0000
0000
0000
,
1001
0110
2002
3003
,
0001
0000
0010
0001
,
0100
0000
0020
2030
,
3100
0010
0100
1000
,
2002
3003
0220
0330
,
1000
0000
0010
1000
,
0200
0000
0320
0032
,
1003
0000
0000
0000
,
0002
0000
0203
0000
,
0302
0000
0203
0000
,
0320
0000
2030
0000
,
3020
0000
2030
0000
,
3200
0000
0320
0000
,
0230
0000
0320
0000
,
0032
0000
2003
0000
,
3002
0000
2000
3003
,
2002
3003
0001
0100
,
0010
0100
0010
1000
,
2002
3003
1000
0100
,
0010
0100
0010
0001
,
2002
3003
0001
0100
,
0010
1000
0001
1000
,
2002
3003
1000
0100
,
0010
0001
1000
0001
,
2002
3003
1000
0100
,
1000
0100
0010
0110
,
2002
3003
0001
0100
,
0001
0100
0010
0110
,
2002
3003
1000
0010
,
1000
0010
0100
0110
,
2002
3003
0001
1000
,
0100
0000
0100
0010
,
2002
0000
0000
0000
,
3003
0000
0000
0000
;

//---------------dance-single - ----------------
#NOTEDATA:;
#CHARTNAME:;
#STEPSTYPE:dance-single;
#DESCRIPTION:;
#CHARTSTYLE:;
#DIFFICULTY:Beginner;
#METER:2;
#RADARVALUES:0.122554,0.204631,0.070834,0.173149,0.000000,109.000000,100.000000,9.000000,22.000000,0.000000,0.000000,0.000000,0.000000,0.000000,0.122554,0.204631,0.070834,0.173149,0.000000,109.000000,100.000000,9.000000,22.000000,0.000000,0.000000,0.000000,0.000000,0.000000;
#CREDIT:;
#NOTES:
0000
0000
0000
0000
,
0000
0000
0000
0000
,
0000
0000
0000
0000
,
0000
0000
0000
0000
,
1000
0000
0000
0000
,
0001
0000
0000
0000
,
1000
0000
0001
0000
,
1000
0000
0001
0000
,
1000
0000
0000
0000
,
0010
0000
0000
0000
,
0100
0000
0000
0000
,
0001
0000
1000
0000
,
0001
0000
0000
0000
,
0010
0000
0000
0000
,
0100
0000
0000
0000
,
1000
0000
0001
0000
,
0100
0000
0000
0000
,
0010
0000
0000
0000
,
1000
0000
0000
0000
,
0100
0000
0010
0000
,
0100
0000
0000
0000
,
1000
0000
0000
0000
,
0001
0000
0000
0000
,
0100
0000
0010
0000
,
1000
0000
2000
3000
,
0001
0000
0010
0000
,
0001
0000
0002
0003
,
1000
0000
0001
0000
,
0200
0300
0020
0030
,
1000
0000
0001
0000
,
1000
0000
2000
3000
,
0001
0000
0000
0000
,
2000
3000
0002
0003
,
0010
0000
0001
0000
,
1000
0000
2000
3000
,
0001
0000
0100
0000
,
0020
0030
0200
0300
,
0001
0000
0001
0000
,
2000
3000
0002
0003
,
1000
0000
0000
0000
,
2000
0000
3000
0000
,
0200
0000
0300
0000
,
0020
0000
0030
0000
,
0002
0000
0003
0000
,
0200
0000
0300
0000
,
0020
0000
0030
0000
,
2000
0000
3000
0000
,
0002
0000
0003
0000
,
1001
0000
0001
0000
,
0010
0010
0010
0000
,
1001
0000
1000
0000
,
0010
0010
0010
0000
,
1001
0000
0001
0000
,
0100
0100
0100
0000
,
1001
0000
1000
0000
,
0100
0100
0100
0000
,
1001
0000
0100
0000
,
0010
0000
0100
0000
,
1001
0000
0010
0000
,
0100
0000
0010
0000
,
1001
0000
1000
0000
,
0100
0000
0010
0000
,
1001
0000
0001
0000
,
0100
0000
0000
0000
,
2002
0000
0000
0000
,
3003
0000
0000
0000
;

//---------------dance-single - Mad Trillz----------------
#NOTEDATA:;
#CHARTNAME:;
#STEPSTYPE:dance-single;
#DESCRIPTION:Mad Trillz;
#CHARTSTYLE:;
#DIFFICULTY:Edit;
#METER:15;
#RADARVALUES:0.809529,0.970029,0.401392,0.314817,1.208110,720.000000,669.000000,51.000000,40.000000,26.000000,4.000000,0.000000,0.000000,3.000000,0.809529,0.970029,0.401392,0.314817,1.208110,720.000000,669.000000,51.000000,40.000000,26.000000,4.000000,0.000000,0.000000,3.000000;
#CREDIT:Mad Trillz;
#OFFSET:-1.714123;
#BPMS:0.000000=70.000000
,16.000000=280.000000
,16.500000=70.000000
,16.750000=280.000000
,17.250000=70.000000
,17.500000=280.000000
,17.833334=70.000000
,18.000000=140.000000
,20.000000=280.000000
,20.333334=70.000000
,20.500000=280.000000
,22.000000=140.000000
,24.000000=280.019989
,24.333334=70.000000
,24.500000=280.000000
,25.083334=70.000000
,25.250000=280.000000
,25.833334=70.000000
,26.000000=280.000000
,26.500000=140.000000
,28.500000=280.000000
,30.000000=210.000000
,32.000000=70.000000
,33.000000=140.000000
,35.000000=280.000000
,35.333332=70.000000
,35.500000=280.000000
,37.000000=140.000000
,39.000000=280.000000
,39.333332=70.000000
,39.500000=280.000000
,40.083332=70.000000
,40.250000=280.000000
,40.833332=70.000000
,41.000000=280.000000
,41.500000=140.000000
,43.500000=280.000000
,45.000000=210.000000
,47.000000=280.000000
,47.500000=70.000000
,47.750000=280.000000
,48.250000=70.000000
,48.500000=280.000000
,48.833332=70.000000
,49.000000=140.000000
,51.000000=280.000000
,51.333332=70.000000
,51.500000=280.000000
,53.000000=140.000000
,55.000000=280.019989
,55.333332=70.000000
,55.500000=280.000000
,56.083332=70.000000
,56.250000=280.000000
,56.833332=70.000000
,57.000000=280.000000
,57.500000=140.000000
,59.500000=280.000000
,61.000000=210.000000
,63.000000=70.000000
,64.000000=140.000000
,66.000000=280.000000
,66.333336=70.000000
,66.500000=280.000000
,68.000000=140.000000
,70.000000=280.000000
,70.333336=70.000000
,70.500000=280.000000
,71.083336=70.000000
,71.250000=280.000000
,71.833336=70.000000
,72.000000=280.000000
,72.500000=140.000000
,74.500000=280.000000
,76.000000=210.000000
,78.000000=280.000000
,78.500000=70.000000
,78.750000=280.000000
,79.250000=70.000000
,79.500000=280.000000
,79.833336=70.000000
,80.000000=280.000000
,80.500000=70.000000
,80.750000=280.000000
,81.500000=140.000000
,81.625000=70.000000
,82.000000=280.000000
,83.083336=70.000000
,83.250000=280.000000
,83.583336=70.000000
,83.750000=280.000000
,84.750000=70.000000
,84.916664=280.000000
,85.250000=140.000000
,86.000000=280.000000
,86.333336=70.000000
,86.500000=280.000000
,87.083336=70.000000
,87.250000=280.000000
,87.500000=140.000000
,88.000000=280.000000
,88.500000=140.000000
,88.750000=70.000000
,89.000000=280.000000
,89.500000=140.000000
,89.750000=70.000000
,90.000000=280.000000
,91.000000=140.000000
,91.500000=280.000000
,92.000000=210.000000
,94.000000=280.000000
,95.000000=140.000000
,95.500000=70.000000
,96.000000=280.000000
,97.500000=140.000000
,97.625000=70.000000
,98.000000=280.000000
,99.083336=70.000000
,99.250000=280.000000
,99.583336=70.000000
,99.750000=280.000000
,100.750000=70.000000
,100.916664=280.000000
,101.250000=140.000000
,102.000000=280.000000
,102.333336=70.000000
,102.500000=280.000000
,103.083336=70.000000
,103.250000=280.000000
,103.500000=140.000000
,104.000000=280.000000
,104.500000=140.000000
,104.750000=70.000000
,105.000000=280.000000
,105.500000=140.000000
,105.750000=70.000000
,106.000000=140.000000
,110.000000=280.000000
,110.500000=140.000000
,110.750000=70.000000
,111.000000=140.000000
,112.000000=280.000000
,113.000000=140.000000
,113.500000=70.000000
,114.000000=280.000000
,115.083336=70.000000
,115.250000=280.000000
,115.583336=70.000000
,115.750000=280.000000
,116.750000=70.000000
,116.916664=280.000000
,117.250000=140.000000
,118.000000=280.000000
,118.333336=70.000000
,118.500000=280.000000
,119.083336=70.000000
,119.250000=280.000000
,119.500000=140.000000
,120.000000=280.000000
,120.500000=140.000000
,120.750000=70.000000
,121.000000=280.000000
,121.500000=140.000000
,121.750000=70.000000
,122.000000=280.000000
,123.000000=140.000000
,123.500000=280.000000
,124.000000=210.000000
,126.000000=280.000000
,127.000000=140.000000
,127.500000=70.000000
,128.000000=280.000000
,129.500000=140.000000
,129.625000=70.000000
,130.000000=280.000000
,131.083328=70.000000
,131.250000=280.000000
,131.583328=70.000000
,131.750000=280.000000
,132.750000=70.000000
,132.916672=280.000000
,133.250000=140.000000
,134.500000=280.000000
,135.000000=140.000000
,135.250000=70.000000
,135.500000=140.000000
,136.000000=280.000000
,136.500000=140.000000
,136.750000=70.000000
,137.000000=280.000000
,137.500000=140.000000
,137.750000=70.000000
,138.000000=140.000000
,146.000000=135.600006
,150.000000=131.399994
,154.000000=127.199997
,158.000000=123.000000
,162.000000=120.000000
,166.000000=117.000000
,170.000000=113.000000
,174.000000=220.000000
,174.500000=110.000000
,174.750000=55.000000
,175.000000=110.000000
,176.750000=220.000000
,177.000000=110.000000
,177.500000=220.000000
,178.000000=110.000000
,178.250000=220.000000
,179.000000=110.000000
,179.250000=220.000000
,180.000000=165.000000
,181.000000=55.000000
,181.250000=440.000000
,181.750000=110.000000
,181.875000=55.000000
,182.000000=220.000000
,182.500000=110.000000
,182.750000=55.000000
,183.000000=110.000000
,184.750000=220.000000
,185.000000=110.000000
,185.500000=220.000000
,186.000000=110.000000
,186.250000=220.000000
,187.000000=110.000000
,187.250000=220.000000
,188.000000=165.000000
,190.000000=220.000000
,190.500000=110.000000
,190.750000=55.000000
,191.000000=110.000000
,192.750000=220.000000
,193.000000=110.000000
,193.500000=220.000000
,194.000000=110.000000
,194.250000=220.000000
,195.000000=110.000000
,195.250000=220.000000
,196.000000=165.000000
,197.000000=55.000000
,197.250000=440.000000
,197.750000=110.000000
,197.875000=55.000000
,198.000000=220.000000
,198.500000=110.000000
,198.750000=55.000000
,199.000000=110.000000
,200.750000=220.000000
,201.000000=110.000000
,201.500000=220.000000
,202.000000=110.000000
,202.250000=220.000000
,203.000000=110.000000
,203.250000=220.000000
,204.000000=165.000000
,206.000000=220.000000
,206.500000=110.000000
,206.750000=55.000000
,207.000000=220.000000
,207.250000=110.000000
,207.375000=55.000000
,207.500000=220.000000
,207.750000=110.000000
,207.875000=55.000000
,208.000000=220.000000
,208.250000=110.000000
,208.375000=55.000000
,208.500000=220.000000
,209.000000=110.000000
,209.250000=220.000000
,210.000000=110.000000
,210.500000=220.000000
,210.750000=110.000000
,210.875000=55.000000
,211.000000=220.000000
,211.250000=110.000000
,211.375000=55.000000
,211.500000=220.000000
,212.000000=165.000000
,213.000000=110.000000
,230.000000=220.000000
,230.500000=110.000000
,230.750000=55.000000
,231.000000=220.000000
,231.250000=110.000000
,231.375000=55.000000
,231.500000=220.000000
,231.750000=110.000000
,231.875000=55.000000
,232.000000=220.000000
,232.250000=110.000000
,232.375000=55.000000
,232.500000=220.000000
,233.000000=110.000000
,233.250000=220.000000
,234.000000=110.000000
,234.500000=220.000000
,234.750000=110.000000
,234.875000=55.000000
,235.000000=220.000000
,235.250000=110.000000
,235.375000=55.000000
,235.500000=220.000000
,236.000000=165.000000
,237.000000=110.000000
,254.000000=220.000000
,254.500000=110.000000
,254.750000=55.000000
,255.000000=220.000000
,255.250000=110.000000
,255.375000=55.000000
,255.500000=220.000000
,255.750000=110.000000
,255.875000=55.000000
,256.000000=220.000000
,256.250000=110.000000
,256.375000=55.000000
,256.500000=220.000000
,257.000000=110.000000
,257.250000=220.000000
,258.000000=110.000000
,258.500000=220.000000
,258.750000=110.000000
,258.875000=55.000000
,259.000000=220.000000
,259.250000=110.000000
,259.375000=55.000000
,259.500000=220.000000
,260.000000=165.000000
,261.000000=110.000000
,278.000000=220.000000
,278.500000=110.000000
,278.750000=55.000000
,279.000000=220.000000
,279.250000=110.000000
,279.375000=55.000000
,279.500000=220.000000
,279.750000=110.000000
,279.875000=55.000000
,280.000000=220.000000
,280.250000=110.000000
,280.375000=55.000000
,280.500000=220.000000
,281.000000=110.000000
,281.250000=220.000000
,282.000000=110.000000
,284.000000=220.000000
,286.000000=110.000000
;
#STOPS:20.500000=0.053572
,20.750000=0.107144
,21.250000=0.053572
,21.500000=0.053572
,21.750000=0.053572
,24.500000=0.053572
,25.250000=0.053572
,26.000000=0.053572
,26.250000=0.053572
,28.500000=0.053572
,28.750000=0.053572
,29.000000=0.107144
,29.500000=0.107142
,30.000000=0.035715
,30.250000=0.035715
,30.500000=0.035715
,30.750000=0.035715
,31.000000=0.035715
,31.250000=0.035715
,31.500000=0.035715
,31.750000=0.035715
,35.500000=0.053572
,35.750000=0.107144
,36.250000=0.053572
,36.500000=0.053572
,36.750000=0.053572
,39.500000=0.053572
,40.250000=0.053572
,41.000000=0.053572
,41.250000=0.053572
,43.500000=0.053572
,43.750000=0.053572
,44.000000=0.107144
,44.500000=0.107142
,45.000000=0.035715
,45.250000=0.035715
,45.500000=0.035715
,45.750000=0.035715
,46.000000=0.035715
,46.250000=0.035715
,46.500000=0.035715
,46.750000=0.035715
,51.500000=0.053572
,51.750000=0.107144
,52.250000=0.053572
,52.500000=0.053572
,52.750000=0.053572
,55.500000=0.053572
,56.250000=0.053572
,57.000000=0.053572
,57.250000=0.053572
,59.500000=0.053572
,59.750000=0.053572
,60.000000=0.107144
,60.500000=0.107142
,61.000000=0.035715
,61.250000=0.035715
,61.500000=0.035715
,61.750000=0.035715
,62.000000=0.035715
,62.250000=0.035715
,62.500000=0.035715
,62.750000=0.035715
,66.500000=0.053572
,66.750000=0.107144
,67.250000=0.053572
,67.500000=0.053572
,67.750000=0.053572
,70.500000=0.053572
,71.250000=0.053572
,72.000000=0.053572
,72.250000=0.053572
,74.500000=0.053572
,74.750000=0.053572
,75.000000=0.107144
,75.500000=0.107142
,76.000000=0.035715
,76.250000=0.035715
,76.500000=0.035715
,76.750000=0.035715
,77.000000=0.035715
,77.250000=0.035715
,77.500000=0.035715
,77.750000=0.035715
,82.000000=0.053570
,82.250000=0.053574
,82.500000=0.053574
,83.750000=0.053570
,84.000000=0.053574
,84.250000=0.053574
,84.500000=0.053574
,86.500000=0.053570
,87.250000=0.053570
,90.000000=0.053570
,90.250000=0.053574
,90.500000=0.053574
,90.750000=0.053574
,91.500000=0.053570
,91.750000=0.053574
,92.000000=0.035714
,92.250000=0.035714
,92.500000=0.035714
,92.750000=0.035714
,93.000000=0.035714
,93.250000=0.035714
,93.500000=0.035714
,93.750000=0.035714
,96.000000=0.053570
,96.250000=0.053574
,96.500000=0.053574
,98.000000=0.053570
,98.250000=0.053574
,98.500000=0.053574
,99.750000=0.053570
,100.000000=0.053574
,100.250000=0.053574
,100.500000=0.053574
,102.500000=0.053570
,103.250000=0.053570
,114.000000=0.053570
,114.250000=0.053574
,114.500000=0.053574
,115.750000=0.053570
,116.000000=0.053574
,116.250000=0.053574
,116.500000=0.053574
,118.500000=0.053570
,119.250000=0.053570
,122.000000=0.053570
,122.250000=0.053574
,122.500000=0.053574
,122.750000=0.053574
,123.500000=0.053570
,123.750000=0.053574
,124.000000=0.035714
,124.250000=0.035714
,124.500000=0.035714
,124.750000=0.035714
,125.000000=0.035714
,125.250000=0.035714
,125.500000=0.035714
,125.750000=0.035714
,128.000000=0.053570
,128.250000=0.053574
,128.500000=0.053574
,130.000000=0.053570
,130.250000=0.053574
,130.500000=0.053574
,131.750000=0.053570
,132.000000=0.053574
,132.250000=0.053574
,132.500000=0.053574
,176.750000=0.034089
,176.875000=0.034096
,177.500000=0.068184
,177.750000=0.068177
,178.250000=0.068184
,178.500000=0.068177
,178.750000=0.068177
,179.250000=0.068184
,179.500000=0.068177
,179.750000=0.068177
,180.000000=0.045456
,180.250000=0.045449
,180.500000=0.045449
,180.750000=0.045449
,184.750000=0.034089
,184.875000=0.034096
,185.500000=0.068184
,185.750000=0.068177
,186.250000=0.068184
,186.500000=0.068177
,186.750000=0.068177
,187.250000=0.068184
,187.500000=0.068177
,187.750000=0.068177
,188.000000=0.045456
,188.250000=0.045449
,188.500000=0.045449
,188.750000=0.045449
,189.000000=0.045456
,189.250000=0.045449
,189.500000=0.045449
,189.750000=0.045449
,192.750000=0.034089
,192.875000=0.034096
,193.500000=0.068184
,193.750000=0.068177
,194.250000=0.068184
,194.500000=0.068177
,194.750000=0.068177
,195.250000=0.068184
,195.500000=0.068177
,195.750000=0.068177
,196.000000=0.045456
,196.250000=0.045449
,196.500000=0.045449
,196.750000=0.045449
,200.750000=0.034089
,200.875000=0.034096
,201.500000=0.068184
,201.750000=0.068177
,202.250000=0.068184
,202.500000=0.068177
,202.750000=0.068177
,203.250000=0.068184
,203.500000=0.068177
,203.750000=0.068177
,204.000000=0.045456
,204.250000=0.045449
,204.500000=0.045449
,204.750000=0.045449
,205.000000=0.045456
,205.250000=0.045449
,205.500000=0.045449
,205.750000=0.045449
,208.500000=0.068184
,208.750000=0.068177
,209.250000=0.068184
,209.500000=0.068177
,209.750000=0.068177
,211.500000=0.068184
,211.750000=0.068177
,212.000000=0.045456
,212.250000=0.045449
,212.500000=0.045449
,212.750000=0.045449
,232.500000=0.068184
,232.750000=0.068177
,233.250000=0.068184
,233.500000=0.068177
,233.750000=0.068177
,235.500000=0.068184
,235.750000=0.068177
,236.000000=0.045456
,236.250000=0.045449
,236.500000=0.045449
,236.750000=0.045449
,256.500000=0.068184
,256.750000=0.068177
,257.250000=0.068184
,257.500000=0.068177
,257.750000=0.068177
,259.500000=0.068184
,259.750000=0.068177
,260.000000=0.045456
,260.250000=0.045449
,260.500000=0.045449
,260.750000=0.045449
,280.500000=0.068184
,280.750000=0.068177
,281.250000=0.068184
,281.500000=0.068177
,281.750000=0.068177
,284.000000=0.068184
,284.250000=0.068177
,284.500000=0.068177
,284.750000=0.068177
,285.000000=0.068177
,285.250000=0.068177
,285.500000=0.068177
,285.750000=0.068177
;
#DELAYS:;
#WARPS:213.000000=16.000000
,237.000000=16.000000
,261.000000=16.000000
;
#TIMESIGNATURES:0.000000=4=4
;
#TICKCOUNTS:0.000000=4
;
#COMBOS:0.000000=1
;
#SPEEDS:0.000000=1.000000=0.000000=0
,213.000000=0.000000=0.000000=0
,229.000000=1.000000=1.000000=0
,237.000000=0.000000=0.000000=0
,253.000000=1.000000=1.000000=0
,261.000000=0.000000=0.000000=0
,277.000000=1.000000=1.000000=0
;
#SCROLLS:0.000000=1.000000
;
#FAKES:;
#LABELS:0.000000=Song Start
;
#NOTES:
0000
0000
0000
0000
,
0000
0000
0000
0000
,
0001
0000
0000
0001
0000
0000
0001
0000
0100
0000
1000
0000
0100
0000
0010
0000
1000
0000
0000
1000
0000
0000
1000
0000
0100
0000
0001
0000
0100
0000
0010
0000
,
0001
0000
0000
0001
0000
0000
0001
0000
1000
0000
0000
1000
0000
0000
0010
0000
0001
0000
0000
0001
0000
0000
0010
0000
1000
0000
0000
1000
0000
0000
0100
0000
,
0011
0000
0000
0011
0000
0000
0011
0000
1001
0000
1000
0000
0001
0000
0100
0000
,
0010
0000
1000
0001
0000
1000
0001
1000
0001
0010
0000
0100
0000
0010
0001
0000
,
1000
0000
0010
1000
0000
0010
1000
0000
0010
0100
0010
0000
0001
0000
0010
0000
,
1000
0000
0100
0010
0100
0000
1000
0000
0100
0010
0100
0010
0001
1000
0001
1000
,
0010
0000
0000
0010
0000
0000
0010
0000
1010
0000
0000
0000
0001
0000
0000
0000
0100
0000
0000
0000
0010
0000
0000
0000
1000
0000
0000
0000
0100
0000
0010
0000
,
0000
0100
0010
0100
0010
0001
0000
0100
0000
0010
1000
0000
0001
0000
1000
0001
,
0000
1000
0001
0000
0010
0100
0010
0000
0001
0000
0100
0000
1000
0000
0100
0010
,
0100
0000
0001
0000
1000
0100
1000
0100
0010
0001
0010
0001
1000
0000
0000
1001
,
0000
0000
0110
0000
1001
0000
0001
0000
1000
0000
0100
0000
0010
0000
0010
0001
,
0000
1000
0010
1000
0010
0100
0000
0001
0000
1000
0100
0000
0010
0000
0001
0100
,
0000
0001
0100
0000
0010
1000
0010
0000
0100
0000
0010
0000
0001
0000
0010
0100
,
0010
0000
0000
0000
1000
0000
0000
0000
0001
0000
0100
0000
0001
0000
0100
0000
0010
0000
1000
0000
0010
0000
1000
0000
0100
0000
0000
0100
0000
0000
0100
0000
,
1001
0000
1000
0000
0001
0000
0100
0000
0010
0000
1000
0010
0000
1000
0010
1000
,
0010
0100
0000
0001
0000
1000
0100
0000
0010
0000
0001
1000
0000
0001
1000
0000
,
0010
1000
0010
0000
1000
0000
0100
0000
0001
0000
0100
0010
0100
0000
1000
0000
,
0010
0100
0010
0100
0001
1000
0001
1000
0100
0000
0000
0110
0000
0000
0011
0000
,
1001
0000
0000
0000
0000
0000
2020
0000
0000
0000
0M00
0000
0000
000M
0030
0000
3001
0000
0100
0000
0010
0000
0200
0000
0000
0000
0320
0000
0000
0000
0130
0000
,
0010
1000
0001
0010
0000
0010
0100
0000
1000
0000
0001
1000
0000
0001
1000
0000
,
2200
0000
0000
0000
0001
0000
0000
0300
3001
1000
0001
1000
0200
0000
1300
0001
,
0100
0010
0100
0010
1000
0001
1000
0001
M020
0000
0M00
0000
000M
0000
0000
0000
,
0031
0000
1000
0000
0001
0000
0200
0000
0000
0000
M000
0000
0000
00M0
000M
0000
0310
0000
1000
0000
0001
0000
1000
0000
0000
0000
0100
0000
0000
0000
0010
0000
,
0001
0100
0010
0100
0000
0010
1000
0000
0001
0000
1000
0001
0000
1000
0001
0000
,
0202
0000
0000
0000
1000
0000
0300
0000
0103
0000
0001
0100
0001
0100
0010
1000
,
0001
0100
0010
1000
0001
1000
0100
1000
0002
0000
0000
0003
1100
0000
0110
0000
,
0021
0000
0000
0000
0000
0000
0M00
0000
0000
0000
0000
0000
M000
0000
000M
0000
0000
0000
0000
0000
0000
000M
0000
0000
0031
0000
0000
0010
0000
0000
0100
0000
0000
1000
0000
0000
0000
0000
0000
0001
0000
0000
0000
0000
0000
1000
0000
0000
,
0010
0100
0010
0001
0000
0010
0100
0000
0010
0000
1000
0010
0000
0100
0001
0000
,
2002
0000
0000
0000
0010
0000
3003
0000
0001
0100
0001
0100
0010
0000
1000
0100
,
0010
0001
0010
0001
1000
0010
1000
0010
0200
M000
00M0
000M
0000
0000
0000
0000
,
0301
1000
0100
0020
000M
M000
0M00
0000
0031
1000
0001
0100
0000
0001
0000
1000
,
0100
0010
0100
0001
0000
0100
1000
0000
2100
0000
0002
0000
0000
3003
1001
0000
,
2002
0000
0000
0000
0010
0000
0000
3003
1000
0000
0001
1000
0001
1000
0100
0010
,
0001
1000
0100
0010
0001
0100
0010
1000
0001
1000
0001
1000
0001
1000
0001
1000
,
0010
1000
0010
1000
0010
1000
0010
1000
0001
1000
0001
1000
0001
1000
0001
1000
,
0001
0010
0001
0010
0001
0010
0001
0010
0001
1000
0001
1000
0001
1000
0001
1000
,
0001
0100
0001
0100
0001
0100
0001
0100
0001
1000
0001
1000
0001
1000
0001
1000
,
0100
1000
0100
1000
0100
1000
0100
1000
0001
0100
0001
0100
0001
0100
0001
0100
,
0010
1000
0010
1000
0010
1000
0010
1000
0001
0010
0001
0010
0001
0010
0001
0010
,
0100
1000
0100
1000
0100
1000
0100
1000
0010
0100
0010
0100
0010
0100
0010
0100
,
0001
1000
0001
1000
0001
1000
0001
1000
0100
0010
0100
0010
0100
0010
0100
0010
,
0001
1000
0001
1000
0001
1000
0001
1000
2001
0000
0000
0000
3001
0100
1000
0100
,
0001
0000
0010
0000
0000
0000
01MM
1000
0100
0000
0000
0000
1000
0000
0010
0000
0001
0000
0010
0000
1000
0000
0010
0000
0001
0000
0010
0000
1000
0000
0010
0000
,
0100
0001
0010
0100
2100
3010
0000
0000
1002
0000
0000
0000
1003
0100
0001
0100
,
1000
0000
0010
0000
0000
0000
M1M0
0001
0100
0000
0000
0000
0001
0000
0010
0000
1000
0000
0010
0000
0001
0000
0010
0000
1000
0000
0010
0000
0001
0000
0010
0000
,
0100
1000
0010
1000
0001
0100
0001
0010
0210
0000
0000
0000
1300
0010
0001
0010
,
1000
0000
0100
0000
0000
0000
MM10
0001
0010
0000
0000
0000
0001
0000
0100
0000
1000
0000
0100
0000
0001
0000
0100
0000
1000
0000
0100
0000
0001
0000
0100
0000
,
0010
1000
0001
0010
0012
0103
0000
0000
0210
0000
0000
0000
0301
0010
1000
0010
,
0001
0000
0100
0000
0000
0000
0M1M
1000
0010
0000
0000
0000
1000
0000
0100
0000
0001
0000
0100
0000
1000
0000
0100
0000
0001
0000
0100
0000
1000
0000
0100
0000
,
0010
0001
0100
0001
0010
0100
1000
0010
0220
0000
0000
0330
1001
0000
0011
0000
,
1100
0000
0010
0001
0100
0001
0010
0001
1000
0010
0101
0000
1010
0000
0010
1000
,
0100
0001
0100
1000
0020
0000
0000
0030
0000
0000
0000
0000
0000
0000
0000
0000
,
0000
0000
0000
0000
,
0000
0000
0000
0000
,
0000
0000
0000
0000
,
0000
0000
0000
0000
0020
0000
0000
0030
2002
0000
3003
0000
1100
0000
0011
0000
,
0101
0000
0000
0000
0010
0000
1000
0000
0100
0000
1000
0000
0001
0000
0010
0100
1000
0000
0000
0000
0011
0000
0000
0000
1100
0000
0000
0000
0010
0000
0001
0000
,
1000
0100
0001
0100
2000
0000
0000
3000
0000
0000
0000
0000
0000
0000
0000
0000
,
0000
0000
0000
0000
,
0000
0000
0000
0000
,
0000
0000
0000
0000
,
0000
0000
0000
0000
2000
0000
0000
3000
2002
0000
3003
0000
0101
0000
1010
0000
,
0101
0000
0010
1000
0100
1000
0010
1000
0001
0010
1100
0000
0011
0000
0010
0001
,
1000
0010
0001
0010
0200
0000
0000
0300
0000
0000
0000
0000
0000
0000
0000
0000
,
0000
0000
0000
0000
,
0000
0000
0000
0000
,
0000
0000
0000
0000
,
0000
0000
0000
0000
0200
0000
0000
0300
2002
0000
3003
0000
0011
0000
0101
0000
,
1010
0000
0000
0000
0100
0000
0001
0000
0010
0000
0001
0000
0100
0000
0010
1000
0001
0000
1000
0000
0001
0000
1000
0000
0000
0000
0001
0000
1000
0000
0001
0000
,
0100
0010
0100
0001
1000
0100
0010
0001
2002
0000
0000
0000
0000
0000
0000
0000
,
0000
0000
3003
0000
;
